<?xml version="1.0" standalone="no"?>
<!DOCTYPE svg PUBLIC "-//W3C//DTD SVG 1.1//EN" "http://www.w3.org/Graphics/SVG/1.1/DTD/svg11.dtd">
<svg xmlns="http://www.w3.org/2000/svg">
<defs >
<font id="Catamaran" horiz-adv-x="583" ><font-face
    font-family="Catamaran Thin Light"
    units-per-em="1000"
    panose-1="0 0 0 0 0 0 0 0 0 0"
    ascent="1100"
    descent="-540"
    alphabetic="0" />
<glyph unicode=" " horiz-adv-x="235" />
<glyph unicode="!" horiz-adv-x="156" d="M58 217L100 196L116 702H42L58 217ZM79 94Q60 94 45 81T30 48Q30 28 45 14T79 0Q99 0 112 14T126 48Q126 67 113 80T79 94Z" />
<glyph unicode="&quot;" horiz-adv-x="306" d="M229 702Q216 702 205 695T188 678T181 654Q181 636 193 622T224 606Q222 580 207 562T167 527L185 498Q210 511 230 534T263 587T276 647Q276 672 262 687T229 702ZM83 702Q69 702 58 695T41 678T34 654Q34 642
39 632T54 615T76 606Q74 580 59 562T20 527L38 498Q63 511 83 534T117 587T130 647Q130 672 116 687T83 702Z" />
<glyph unicode="#" horiz-adv-x="497" d="M375 502L344 371H207L239 502H188L157 371H30L38 322H144L113 190H30L38 140H101L69 6L119 1L152 140H289L257 6L306 1L339 140H467L460 190H351L382 322H467L460 371H395L427 502H375ZM332 322L300 190H164L196 322H332Z" />
<glyph unicode="$" horiz-adv-x="508" d="M180 -111V-8Q157 -4 134 1T91 13T56 29L71 77Q89 69 115 60T172 44T237 38Q295 38 334 54T393 98T414 160Q414 199 393 227T331 278T229 327Q184 346 150 368T92 415T57 469T45 530Q45 585 81 627T180 686V787L226 797V695Q234
695 241 695T257 696Q266 696 275 696T293 694V790L340 800V687Q365 681 386 673T425 657L403 610Q386 618 366 626T320 639T259 644Q187 644 145 613T103 530Q103 491 124 464T188 413T290 360Q335 339 369 319T427 276T461 225T473 160Q473 105 439 63T340 1V-111H293V-9Q280
-11 266 -12T238 -13H226V-111H180Z" />
<glyph unicode="%" horiz-adv-x="839" d="M544 710L236 0L294 -4L603 706L544 710ZM191 702Q147 702 112 681T56 622T35 532Q35 478 54 441T109 383T192 363Q236 363 271 383T326 442T347 532Q347 586 328 624T273 682T191 702ZM191 651Q228 651 256 623T284 532Q284
489 270 463T235 426T192 414Q155 414 127 442T98 532Q98 576 112 602T147 639T191 651ZM649 338Q605 338 570 317T514 259T493 169Q493 115 512 77T567 20T649 0Q693 0 728 20T783 79T804 169Q804 223 785 260T730 318T649 338ZM649 288Q685 288 713 260T741 169Q741
126 727 101T692 63T649 51Q612 51 584 78T556 169Q556 213 570 239T605 276T649 288Z" />
<glyph unicode="&amp;" horiz-adv-x="663" d="M474 115Q444 78 400 59T299 39Q251 39 207 57T135 113T107 209Q108 265 129 309T190 375Q197 368 205 361T222 345L474 115ZM599 0L628 41L545 118Q568 159 580 210T595 321L549 339Q545 286 534 240T502 156L292
354Q258 387 234 412T198 463T185 526Q185 556 200 583T242 627T307 644Q359 644 385 633T436 610L458 657Q428 672 393 684T307 696Q249 696 209 672T147 608T126 520Q126 487 134 462T157 415Q108 385 77 330T45 207Q45 135 78 86T170 13T299 -13Q374 -13 427
10T516 75L599 0Z" />
<glyph unicode="&apos;" horiz-adv-x="160" d="M83 702Q69 702 58 695T41 678T34 654Q34 642 39 632T54 615T76 606Q74 580 59 562T20 527L38 498Q63 511 83 534T117 587T130 647Q130 672 116 687T83 702Z" />
<glyph unicode="(" horiz-adv-x="251" d="M221 -19Q199 4 180 45T145 137T122 236T113 321Q113 357 121 404T145 501T179 591T221 657L169 675Q127 622 101 560T63 435T50 320Q50 267 62 205T101 80T169 -37L221 -19Z" />
<glyph unicode=")" horiz-adv-x="251" d="M30 657Q51 633 70 592T105 501T129 403T138 319Q138 283 130 235T106 137T71 46T30 -19L82 -37Q123 17 149 79T188 204T201 320Q201 373 188 435T149 559T82 675L30 657Z" />
<glyph unicode="*" horiz-adv-x="339" d="M193 774H145L144 659L22 685L10 646L133 622L46 498L82 472L170 590L257 472L292 498L206 622L329 646L316 685L194 659L193 774Z" />
<glyph unicode="+" horiz-adv-x="535" d="M495 298H295V531L238 534V298H30L38 248H238V8L295 4V248H505L495 298Z" />
<glyph unicode="," horiz-adv-x="160" d="M82 94Q70 94 59 88T41 71T34 48Q34 36 39 26T55 9T77 1Q76 -26 60 -44T20 -79L38 -108Q64 -95 84 -72T117 -19T130 41Q130 66 116 80T82 94Z" />
<glyph unicode="-" horiz-adv-x="316" d="M278 298H30L38 248H286L278 298Z" />
<glyph unicode="." horiz-adv-x="155" d="M78 0Q97 0 111 14T125 48Q125 67 111 80T78 94Q58 94 44 81T30 48Q30 28 44 14T78 0Z" />
<glyph unicode="/" horiz-adv-x="385" d="M318 710L10 0L66 -4L375 706L318 710Z" />
<glyph unicode="0" horiz-adv-x="588" d="M35 288Q35 201 68 133T161 26T295 -13Q370 -13 428 26T520 133T553 289Q553 373 520 438T429 541T295 579Q220 579 161 542T69 439T35 288ZM100 291Q100 359 125 412T194 495T295 526Q351 526 394 495T463 410T488 286Q488
215 463 160T395 73T295 41Q238 41 194 73T125 162T100 291Z" />
<glyph unicode="1" horiz-adv-x="299" d="M224 0V566H182L10 489L36 438L161 489V0H224Z" />
<glyph unicode="2" horiz-adv-x="476" d="M219 579Q155 579 111 562T38 527L61 476Q79 486 101 498T153 518T218 527Q283 527 321 498T360 415Q360 383 348 356T309 300T237 233L25 50V0H456L448 49L106 50L276 194Q325 236 358 272T408 345T425 418Q425 465 400
501T329 558T219 579Z" />
<glyph unicode="3" horiz-adv-x="456" d="M205 579Q145 579 98 562T11 520L42 479Q66 495 107 511T202 528Q244 528 275 513T322 472T339 416Q339 359 292 324T160 289H126L136 244H154Q258 244 304 206T351 104Q351 64 328 35T269 -9T193 -25Q138 -25 103 -13T33
20L0 -24Q34 -43 84 -59T190 -76Q260 -76 310 -52T388 13T416 106Q416 147 400 180T356 237T290 268Q322 278 347 299T388 351T404 417Q404 459 382 496T316 556T205 579Z" />
<glyph unicode="4" horiz-adv-x="512" d="M492 125H388V571H347L10 125L19 74H326V-69H388V74H484L492 125ZM326 456V125H77L326 456Z" />
<glyph unicode="5" horiz-adv-x="490" d="M131 230Q147 243 179 261T251 279Q312 279 350 241T389 130Q389 58 345 17T228 -25Q174 -25 139 -13T68 20L35 -24Q59 -36 89 -48T153 -68T224 -76Q300 -76 351 -48T428 28T455 130Q455 184 434 229T367 302T247 330Q219
330 189 320T133 293L143 514H408L416 566H83L68 230H131Z" />
<glyph unicode="6" horiz-adv-x="502" d="M70 285L87 239Q102 263 128 285T188 322T258 337Q305 337 338 318T388 264T406 185Q406 147 389 114T338 61T257 40Q204 40 168 66T115 143T97 270Q97 328 115 376T165 462T236 527T317 569T398 586L380 634Q332 628
283 609T190 559T110 483T55 384T35 260Q35 173 64 112T145 19T259 -13Q318 -13 365 14T439 87T467 190Q467 241 444 286T374 359T258 387Q210 387 173 369T111 328T70 285Z" />
<glyph unicode="7" horiz-adv-x="429" d="M179 -69L409 537L387 566H10L18 514H341L119 -49L179 -69Z" />
<glyph unicode="8" horiz-adv-x="517" d="M259 643Q195 643 152 620T86 560T63 481Q63 431 94 394T172 339Q134 331 103 304T54 241T35 169Q35 119 60 78T136 12T259 -13Q332 -13 381 12T456 79T482 169Q482 211 463 246T413 306T346 339Q373 351 397 371T438
419T454 481Q454 523 432 560T367 620T259 643ZM256 593Q326 593 359 559T392 479Q392 453 376 428T331 384T259 360Q195 369 161 403T126 479Q126 509 140 535T183 577T256 593ZM259 316Q338 306 378 265T418 167Q418 129 397 100T339 54T259 38Q214 38 178 54T120
100T99 167Q99 224 139 265T259 316Z" />
<glyph unicode="9" horiz-adv-x="502" d="M432 281L415 327Q401 304 375 281T315 244T244 229Q198 229 165 248T114 302T96 381Q96 419 113 452T164 505T245 526Q299 526 334 500T387 423T405 296Q405 238 387 190T337 104T266 39T185 -3T104 -20L122 -68Q170
-62 219 -43T312 7T392 83T447 183T467 306Q467 394 438 454T358 547T243 579Q185 579 138 552T63 480T35 376Q35 326 58 281T128 207T244 179Q293 179 329 197T392 239T432 281Z" />
<glyph unicode=":" horiz-adv-x="155" d="M77 355Q97 355 111 369T125 402Q125 421 111 436T77 451Q58 451 44 436T30 402Q30 383 44 369T77 355ZM77 36Q97 36 111 50T125 84Q125 104 111 118T77 132Q58 132 44 118T30 84Q30 64 44 50T77 36Z" />
<glyph unicode=";" horiz-adv-x="161" d="M83 355Q103 355 117 369T131 402Q131 421 117 436T83 451Q63 451 49 436T35 402Q35 383 49 369T83 355ZM82 132Q70 132 59 126T41 109T34 84Q34 72 39 62T55 45T77 37Q76 11 60 -8T20 -43L38 -72Q64 -60 84 -37T117 17T130
76Q130 102 116 117T82 132Z" />
<glyph unicode="&lt;" horiz-adv-x="322" d="M302 64L86 245L302 426L279 470L30 269V221L279 19L302 64Z" />
<glyph unicode="=" horiz-adv-x="497" d="M460 371H30L38 322H467L460 371ZM460 190H30L38 140H467L460 190Z" />
<glyph unicode="&gt;" horiz-adv-x="323" d="M293 269L43 470L20 426L236 245L20 64L43 19L293 221V269Z" />
<glyph unicode="?" horiz-adv-x="404" d="M186 702Q127 702 89 684T10 641L18 587Q57 615 93 631T184 648Q247 648 278 623T309 537Q309 480 259 434T131 363L139 157L185 139L193 332Q249 357 289 390T352 462T374 538Q374 586 355 623T294 681T186 702ZM161
94Q141 94 128 81T114 48Q114 28 127 14T161 0Q181 0 195 14T209 48Q209 67 195 80T161 94Z" />
<glyph unicode="@" horiz-adv-x="764" d="M538 384L517 409H446Q403 409 363 395T292 355T242 293T224 211Q224 147 263 107T386 66Q413 66 439 76T483 100Q497 82 518 74T564 65Q602 65 632 80T684 125T717 199T729 304Q729 367 707 419T644 511T547 572T423
594Q332 594 260 564T138 481T62 360T35 213Q35 141 61 82T133 -19T235 -84T354 -107Q403 -107 452 -98T544 -66L528 -20Q508 -31 481 -39T424 -51T365 -55Q291 -55 230 -23T133 70T97 214Q97 291 123 352T194 456T298 523T420 546Q498 546 555 514T644 426T675
297Q675 240 662 199T626 135T572 112Q551 112 531 126T514 183L538 384ZM385 112Q349 112 327 127T294 165T284 211Q284 259 306 294T363 348T441 367H486L463 190Q461 176 461 163T464 140Q451 127 431 120T385 112Z" />
<glyph unicode="A" horiz-adv-x="592" d="M423 254H161L290 600L423 254ZM257 680L10 0H69L144 204H441L521 -5L582 5L322 680H257Z" />
<glyph unicode="B" horiz-adv-x="577" d="M286 0Q339 0 385 9T466 40T522 98T542 188Q542 259 504 301T403 362Q444 382 474 417T504 503Q504 571 473 609T386 664T259 680H95V0H286ZM261 627Q316 627 356 618T419 581T442 502Q442 454 415 427T344 390T248 378H157V627H261ZM299
327Q381 327 430 295T480 186Q480 134 455 105T386 64T288 52H157V327H299Z" />
<glyph unicode="C" horiz-adv-x="554" d="M529 657Q510 670 479 678T416 690T363 694Q290 694 231 667T131 590T67 476T45 336Q45 267 64 204T123 92T220 15T357 -14Q386 -14 418 -9T480 4T529 23L505 71Q478 59 444 50T355 41Q297 41 252 64T175 128T128 222T111
337Q111 425 144 493T235 600T364 640Q400 640 424 637T469 627T509 611L529 657Z" />
<glyph unicode="D" horiz-adv-x="664" d="M318 0Q418 0 484 46T585 171T619 344Q619 437 590 513T496 634T327 680H95V0H318ZM330 627Q408 627 458 590T534 488T559 343Q559 256 529 191T446 89T320 52H157V627H330Z" />
<glyph unicode="E" horiz-adv-x="503" d="M483 0L477 50H157V326H402L397 371H157V635H460L455 680H95V0H483Z" />
<glyph unicode="F" horiz-adv-x="471" d="M386 367H157V635H451L444 680H95V0H157V322H392L386 367Z" />
<glyph unicode="G" horiz-adv-x="626" d="M356 297H509V64Q484 55 454 48T387 41Q310 41 247 77T148 179T111 337Q111 409 135 465T200 560T291 619T396 640Q432 640 456 637T501 627T541 611L560 657Q542 670 511 678T447 690T394 694Q321 694 258 669T147 596T72
483T45 336Q45 237 87 158T207 32T388 -14Q419 -14 453 -9T519 7T571 32V342H362L356 297Z" />
<glyph unicode="H" horiz-adv-x="651" d="M556 0V680H494V369H157V685L95 680V0H157V319H494V0H556Z" />
<glyph unicode="I" horiz-adv-x="252" d="M157 0V680H95V0H157Z" />
<glyph unicode="J" horiz-adv-x="242" d="M95 59Q96 19 89 -2T63 -35T10 -60L34 -102Q82 -87 109 -69T146 -25T157 42V680H95V59Z" />
<glyph unicode="K" horiz-adv-x="593" d="M509 0L238 341L157 257V0H95V680H157V335L503 695L543 657L279 383L583 0H509Z" />
<glyph unicode="L" horiz-adv-x="497" d="M482 50H157V680H95V0H487L482 50Z" />
<glyph unicode="M" horiz-adv-x="760" d="M391 234L602 552V0H665V680H624L379 322L130 680H95V0H157V547L371 230L391 234Z" />
<glyph unicode="N" horiz-adv-x="685" d="M157 0V560L171 531L549 0H590V680H527V129L493 188L136 680H95V0H157Z" />
<glyph unicode="O" horiz-adv-x="721" d="M357 -14Q267 -14 197 31T86 155T45 337Q45 439 86 519T199 647T363 696Q454 696 524 651T635 527T676 345Q676 243 635 162T522 35T357 -14ZM355 41Q429 41 486 80T575 187T608 344Q608 430 577 497T490 602T364 640Q291
640 234 601T144 494T111 338Q111 252 142 185T229 80T355 41Z" />
<glyph unicode="P" horiz-adv-x="551" d="M157 0V264H260Q313 264 359 276T440 314T496 380T516 475Q516 549 484 594T397 659T271 680H95V0H157ZM273 627Q328 627 368 613T430 566T453 474Q453 418 428 383T359 333T262 317H157V627H273Z" />
<glyph unicode="Q" horiz-adv-x="721" d="M412 219L368 186L581 -14L618 18L412 219ZM363 696Q271 694 199 647T86 520T45 337Q45 235 85 156T196 31T357 -14Q450 -12 522 34T635 162T676 345Q676 447 636 526T525 651T363 696ZM111 338Q111 426 143 494T233 601T364
640Q435 640 490 602T576 497T608 344Q608 256 576 188T486 80T355 41Q284 41 229 79T143 185T111 338Z" />
<glyph unicode="R" horiz-adv-x="580" d="M273 627Q325 627 365 616T429 573T453 484Q453 428 426 396T356 350T262 337H157V627H273ZM95 680V0H157V286H260Q280 286 300 287T339 291L500 0H570L394 308Q447 329 481 372T516 486Q516 558 484 600T397 661T271 680H95Z" />
<glyph unicode="S" horiz-adv-x="508" d="M56 29Q73 20 95 13T142 -1T192 -10T238 -13Q312 -13 364 9T445 71T473 160Q473 197 462 225T427 275T370 318T290 360Q230 389 188 412T125 463T103 530Q103 582 145 613T259 644Q294 644 319 639T365 626T403 610L425
657Q395 672 351 684T257 696Q193 696 146 674T72 615T45 530Q45 498 57 470T92 416T149 368T229 327Q289 302 330 279T393 227T414 160Q414 126 394 98T334 54T237 38Q204 38 173 44T115 59T71 77L56 29Z" />
<glyph unicode="T" horiz-adv-x="553" d="M538 680H10V631H245V0H308V631H543L538 680Z" />
<glyph unicode="U" horiz-adv-x="673" d="M147 680H85V239Q85 167 116 110T203 21T336 -12Q414 -12 470 20T557 110T588 239V680H525V248Q525 190 503 143T438 69T336 41Q279 41 237 68T171 143T147 248V680Z" />
<glyph unicode="V" horiz-adv-x="592" d="M71 685L10 675L270 0H335L582 680H523L302 80L71 685Z" />
<glyph unicode="W" horiz-adv-x="821" d="M811 680L634 0H569L411 581L265 0H200L10 675L71 685L232 86L383 680H442L601 86L752 680H811Z" />
<glyph unicode="X" horiz-adv-x="573" d="M79 0L289 297L480 0H549L335 331L563 680H495L302 377L87 694L33 668L255 344L10 0H79Z" />
<glyph unicode="Y" horiz-adv-x="546" d="M297 0L298 283L536 680H469L266 336L65 695L10 664L235 276L234 0H297Z" />
<glyph unicode="Z" horiz-adv-x="559" d="M514 50H94L534 631L529 680H52L62 631H467L25 50L31 0H519L514 50Z" />
<glyph unicode="[" horiz-adv-x="273" d="M100 -88H263L255 -44H157V651H255L263 696H100V-88Z" />
<glyph unicode="\" horiz-adv-x="385" d="M375 0L67 710L10 706L318 -4L375 0Z" />
<glyph unicode="]" horiz-adv-x="272" d="M172 696H10L18 651H115V-44H18L10 -88H172V696Z" />
<glyph unicode="^" horiz-adv-x="411" d="M206 344L341 143H401L235 390H176L10 143H70L206 344Z" />
<glyph unicode="_" horiz-adv-x="439" d="M401 50H30L38 0H409L401 50Z" />
<glyph unicode="`" horiz-adv-x="145" d="M95 589L135 602L81 742H10L95 589Z" />
<glyph unicode="a" horiz-adv-x="483" d="M113 136Q113 178 141 209T223 240H360V117Q335 86 298 62T213 38Q177 38 155 53T123 91T113 136ZM105 412Q131 424 161 435T244 446Q303 446 331 413T360 330V281H225Q149 282 101 244T52 136Q52 73 92 30T215 -13Q258
-13 299 7T363 52L371 0H422V340Q422 388 400 423T338 478T241 498Q221 498 192 493T134 478T86 456L105 412Z" />
<glyph unicode="b" horiz-adv-x="520" d="M116 0L137 67V706L75 696V0H116ZM125 376Q151 406 184 426T265 446Q320 446 354 420T405 347T422 241Q422 185 405 139T352 66T263 39Q211 39 180 59T124 103L104 63Q124 45 147 28T199 -1T260 -13Q332 -13 382 20T458
112T485 242Q485 318 460 375T385 465T264 498Q233 498 204 489T150 462T105 421L125 376Z" />
<glyph unicode="c" horiz-adv-x="451" d="M395 73Q369 60 342 50T261 39Q207 39 171 66T116 140T98 246Q99 303 118 348T175 419T266 446Q318 446 346 435T400 412L420 456Q401 469 373 478T317 492T269 498Q198 498 146 465T65 375T35 245Q35 170 62 112T140
20T262 -13Q283 -13 311 -8T367 6T415 28L395 73Z" />
<glyph unicode="d" horiz-adv-x="516" d="M378 73L400 0H441V705L378 696V73ZM395 109Q369 79 336 59T255 39Q201 39 166 65T115 138T98 244Q99 301 116 346T168 419T257 446Q309 446 340 426T396 382L416 422Q397 440 373 457T321 486T260 498Q189 498 139 465T62
374T35 243Q35 168 60 110T135 20T256 -13Q287 -13 316 -4T370 23T415 64L395 109Z" />
<glyph unicode="e" horiz-adv-x="493" d="M458 239V244Q458 317 437 374T371 465T255 498Q184 498 135 465T61 375T35 245Q35 170 61 112T142 20T281 -13Q319 -13 348 -7T403 10T451 33L430 79Q393 60 357 49T278 37Q213 37 174 63T117 135T98 239H458ZM100 282Q105
330 122 367T172 425T252 446Q300 446 330 425T375 367T395 282H100Z" />
<glyph unicode="f" horiz-adv-x="274" d="M18 428H90V0H152V428H261L240 475H152V563Q152 599 167 622T221 645Q231 645 243 642T262 636L274 689Q268 692 258 695T235 700T208 702Q172 702 146 685T105 637T90 563V475H17L18 428Z" />
<glyph unicode="g" horiz-adv-x="512" d="M441 485H400L378 429V-61Q378 -121 336 -149T233 -178Q182 -177 148 -166T89 -143L70 -189Q85 -198 107 -205T153 -218T198 -227T235 -230Q299 -230 345 -208T416 -148T441 -62V485ZM395 109Q369 79 336 59T255 39Q201
39 166 65T115 138T98 244Q99 301 116 346T168 419T257 446Q309 446 340 426T396 382L416 422Q397 440 373 457T321 486T260 498Q189 498 139 465T62 374T35 243Q35 168 60 110T135 20T256 -13Q287 -13 316 -4T370 23T415 64L395 109Z" />
<glyph unicode="h" horiz-adv-x="526" d="M137 346Q160 375 190 397T252 432T309 445Q362 445 382 410T403 325V1H465V337Q465 384 450 420T401 477T316 498Q286 498 252 487T188 455T136 411L137 346ZM137 0V706L75 696V0H137Z" />
<glyph unicode="i" horiz-adv-x="193" d="M128 0V485H65V0H128ZM96 591Q115 591 129 604T144 638Q144 658 130 671T96 685Q75 685 62 672T49 638Q49 618 62 605T96 591Z" />
<glyph unicode="j" horiz-adv-x="215" d="M106 591Q92 591 82 597T65 614T59 638Q59 658 72 671T106 685Q125 685 139 672T154 638Q154 618 140 605T106 591ZM138 485V-62Q138 -104 130 -133T97 -183T24 -219L0 -176Q34 -163 50 -149T71 -111T75 -47V485H138Z" />
<glyph unicode="k" horiz-adv-x="457" d="M137 0V190L209 264L382 0H457L249 305L401 461L362 498L137 266V706L75 696V0H137Z" />
<glyph unicode="l" horiz-adv-x="212" d="M137 0V706L75 696V0H137Z" />
<glyph unicode="m" horiz-adv-x="794" d="M127 0V346Q150 375 179 397T237 432T289 445Q323 445 341 429T366 386T373 325V1H435V337Q435 384 421 420T377 477T296 498Q269 498 237 487T176 455T126 411L116 485H65V0H127ZM425 346Q448 375 477 397T535 432T587
445Q621 445 639 429T664 386T671 325V1H733V337Q733 384 719 420T675 477T594 498Q567 498 535 487T474 455T424 411L425 346Z" />
<glyph unicode="n" horiz-adv-x="516" d="M127 0V346Q150 375 180 397T242 432T299 445Q352 445 372 410T393 325V1H455V337Q455 384 440 420T391 477T306 498Q276 498 242 487T178 455T126 411L116 485H65V0H127Z" />
<glyph unicode="o" horiz-adv-x="527" d="M258 -13Q188 -14 138 19T62 111T35 245Q36 317 64 374T144 465T267 498Q339 498 389 467T465 379T492 240Q492 168 464 111T383 21T258 -13ZM261 39Q315 39 352 65T409 137T429 239Q429 299 411 345T357 419T266 446Q213
446 176 420T119 348T98 246Q98 187 116 140T170 66T261 39Z" />
<glyph unicode="p" horiz-adv-x="516" d="M133 -208V419L112 485H71V-219L133 -208ZM121 376Q147 406 180 426T261 446Q316 446 350 420T401 347T418 241Q418 185 401 139T348 66T259 39Q207 39 176 59T120 103L100 63Q120 45 143 28T195 -1T256 -13Q328 -13 378
20T454 112T481 242Q481 318 456 375T381 465T260 498Q229 498 200 489T146 462T101 421L121 376Z" />
<glyph unicode="q" horiz-adv-x="512" d="M400 485L378 427V-219L441 -208V485H400ZM395 109Q369 79 336 59T255 39Q201 39 166 65T115 138T98 244Q99 301 116 346T168 419T257 446Q309 446 340 426T396 382L416 422Q397 440 373 457T321 486T260 498Q189 498
139 465T62 374T35 243Q35 168 60 110T135 20T256 -13Q287 -13 316 -4T370 23T415 64L395 109Z" />
<glyph unicode="r" horiz-adv-x="310" d="M127 0V346Q146 367 174 387T236 422T300 436L283 485Q258 485 228 472T170 441T124 408L106 485H65V0H127Z" />
<glyph unicode="s" horiz-adv-x="419" d="M41 25Q60 13 87 5T143 -8T192 -13Q285 -13 334 23T384 124Q384 163 360 191T299 239T222 274Q171 291 134 312T96 368Q96 403 129 425T213 448Q258 448 289 436T341 414L361 458Q345 470 318 479T264 493T215 498Q133
498 85 463T37 364Q37 326 60 299T120 254T194 223Q229 211 259 196T307 162T326 119Q326 92 310 74T264 46T194 37Q169 37 145 42T100 54T61 71L41 25Z" />
<glyph unicode="t" horiz-adv-x="298" d="M240 475H152V623L89 601V475H17L18 428H89V116Q89 74 104 46T145 2T207 -13Q220 -13 232 -12T254 -7T273 -1L261 50Q256 48 244 45T220 41Q183 41 168 64T152 123V428H261L240 475Z" />
<glyph unicode="u" horiz-adv-x="516" d="M389 486V140Q367 112 336 90T274 54T217 41Q164 41 144 76T123 161V485H61V149Q61 103 76 67T125 9T210 -12Q240 -12 274 -1T339 31T390 75L400 0H451V486H389Z" />
<glyph unicode="v" horiz-adv-x="438" d="M251 0L428 485H368L218 79L62 498L10 472L185 0H251Z" />
<glyph unicode="w" horiz-adv-x="642" d="M496 0L632 485H571L461 83L346 485H287L177 83L62 497L10 471L144 0H211L315 393L429 0H496Z" />
<glyph unicode="x" horiz-adv-x="429" d="M80 0L207 199L337 0H405L253 233L419 485H351L219 279L81 495L26 470L173 245L10 0H80Z" />
<glyph unicode="y" horiz-adv-x="438" d="M160 -98Q152 -120 139 -134T108 -157T65 -179L82 -219Q114 -212 140 -198T186 -161T215 -112L428 485H368L218 83L59 497L10 471L192 -7L160 -98Z" />
<glyph unicode="z" horiz-adv-x="432" d="M406 485H52L68 436H330L23 31L31 0H403L393 48H98L409 453L406 485Z" />
<glyph unicode="{" horiz-adv-x="265" d="M133 311Q167 322 182 348T197 419Q197 432 193 449T178 489Q168 511 164 529T159 560Q159 581 176 597T231 614H250L255 659H229Q166 659 136 631T105 554Q105 538 109 520T123 482Q132 462 136 444T141 410Q141 373
117 351T63 328H30V288H63Q93 288 117 267T141 207Q141 191 137 174T123 136Q114 116 110 98T105 64Q105 15 135 -13T229 -42H255L250 3H231Q194 3 177 19T159 58Q159 71 163 88T178 128Q188 150 192 167T197 199Q197 240 181 269T133 311Z" />
<glyph unicode="|" horiz-adv-x="252" d="M95 710V0L157 -4V706L95 710Z" />
<glyph unicode="}" horiz-adv-x="264" d="M133 306Q99 295 83 269T67 199Q67 185 71 168T86 128Q96 106 100 89T105 58Q105 36 88 20T34 3H15L10 -42H35Q99 -42 129 -14T160 64Q160 80 156 98T142 136Q132 156 128 173T123 207Q123 245 147 267T201 290H234V329H201Q171
329 147 351T123 410Q123 426 127 444T142 482Q151 502 155 520T160 554Q160 602 130 630T35 659H10L15 614H34Q70 614 87 598T105 560Q105 547 101 529T86 489Q76 467 72 450T67 419Q67 377 84 348T133 306Z" />
<glyph unicode="~" horiz-adv-x="382" d="M30 205H75Q77 227 91 237T124 247Q137 247 152 241T187 223Q206 211 223 205T258 199Q284 199 305 207T339 236T352 290H305Q304 267 290 257T257 247Q244 247 230 253T199 271Q183 283 164 289T124 295Q98 295 77 287T43
259T30 205Z" />
<glyph unicode="&#xa0;" horiz-adv-x="235" />
<glyph unicode="&#xa1;" horiz-adv-x="156" d="M79 605Q98 605 112 619T126 654Q126 673 112 687T79 702Q59 702 45 688T30 654Q30 634 44 620T79 605ZM100 485L58 505L42 0H116L100 485Z" />
<glyph unicode="&#xa2;" horiz-adv-x="451" d="M297 469V605L246 595V470L297 469ZM297 9L246 6V-111H297V9ZM395 73Q369 60 342 50T261 39Q207 39 171 66T116 140T98 246Q99 303 118 348T175 419T266 446Q318 446 346 435T400 412L420 456Q401 469 373 478T317
492T269 498Q198 498 146 465T65 375T35 245Q35 170 62 112T140 20T262 -13Q283 -13 311 -8T367 6T415 28L395 73Z" />
<glyph unicode="&#xa3;" horiz-adv-x="431" d="M65 0H421L415 50H157Q173 68 182 94T191 154V330H349L327 376H191V545Q191 582 206 605T260 629Q270 629 282 625T300 618L312 671Q306 673 296 676T273 681T246 684Q211 684 184 667T143 619T128 545V376H55L57
330H128V133Q128 97 113 74T60 50L65 0Z" />
<glyph unicode="&#xa4;" horiz-adv-x="664" d="M64 -59L169 47Q199 19 238 4T324 -13Q374 -13 417 3T493 49L600 -59L634 -18L530 90Q551 121 563 158T576 239Q576 285 565 324T531 395L634 501L600 543L496 437Q465 465 425 481T336 498Q287 497 246 480T172
435L64 543L30 501L135 394Q114 363 102 326T89 245Q89 200 100 160T133 87L30 -18L64 -59ZM513 239Q513 181 489 136T423 66T327 40Q273 40 234 66T174 140T152 246Q153 303 176 348T242 419T337 445Q393 445 432 418T492 344T513 239Z" />
<glyph unicode="&#xa5;" horiz-adv-x="546" d="M54 309L62 259H492L483 309H54ZM54 127L62 78H492L483 127H54ZM297 0L298 283L536 680H469L266 336L65 695L10 664L235 276L234 0H297Z" />
<glyph unicode="&#xa6;" horiz-adv-x="252" d="M95 710V410L157 406V706L95 710ZM95 292V0L157 -4V288L95 292Z" />
<glyph unicode="&#xa7;" horiz-adv-x="562" d="M439 104Q468 120 487 141T517 188T527 245Q527 282 516 310T481 360T424 403T344 445Q284 474 242 497T179 548T157 615Q157 667 199 698T313 729Q348 729 373 724T419 711T457 695L479 742Q449 757 405 769T311
781Q247 781 200 759T126 700T99 615Q99 583 111 555T146 501T203 453T283 412Q343 387 384 364T447 312T468 245Q468 217 454 193T414 152L439 104ZM56 -76Q73 -85 95 -92T142 -106T192 -115T238 -118Q312 -118 364 -96T445 -34T473 55Q473 92 462 120T427 170T370
213T290 255Q230 284 188 307T125 358T103 425Q103 457 119 481T164 520L131 561Q104 547 85 526T56 480T45 425Q45 393 57 365T92 311T149 263T229 222Q289 197 330 174T393 122T414 55Q414 21 394 -7T334 -51T237 -67Q204 -67 173 -61T115 -46T71 -28L56 -76Z"
/>
<glyph unicode="&#xa8;" horiz-adv-x="263" d="M53 618Q72 618 84 630T97 662Q97 679 85 691T53 704Q36 704 23 692T10 662Q10 643 23 631T53 618ZM210 618Q229 618 241 630T253 662Q253 679 241 691T210 704Q192 704 180 692T167 662Q167 643 179 631T210 618Z" />
<glyph unicode="&#xa9;" horiz-adv-x="791" d="M756 336Q756 411 731 476T659 590T546 666T396 694Q313 694 247 667T133 590T60 476T35 336Q35 262 60 198T132 84T246 8T396 -20Q479 -20 545 7T659 84T731 197T756 336ZM94 337Q94 425 130 494T235 604T396 645Q490
645 557 605T662 495T699 337Q699 250 662 180T558 70T396 29Q303 29 235 69T131 180T94 337ZM408 106Q429 106 455 111T509 125T555 148L535 191Q510 178 485 168T408 157Q325 157 292 206T258 344Q258 394 274 434T324 498T412 522Q448 522 470 517T508 505T540
488L560 533Q542 547 516 556T462 569T414 574Q344 574 295 544T221 461T196 342Q196 275 219 222T289 137T408 106Z" />
<glyph unicode="&#xaa;" horiz-adv-x="332" d="M90 463Q90 489 113 503T164 518H241V466Q225 444 202 427T150 410Q122 410 106 426T90 463ZM69 631Q87 638 107 645T161 653Q201 653 221 632T241 577V559H155Q104 559 70 534T35 463Q35 420 68 392T150 363Q180
363 205 377T244 408L255 372H297V580Q297 612 281 639T234 684T160 702Q147 702 128 699T89 689T57 673L69 631Z" />
<glyph unicode="&#xab;" horiz-adv-x="363" d="M182 223L322 84L343 125L230 245L343 365L322 406L182 267V223ZM30 223L170 84L191 125L79 245L191 365L170 406L30 267V223Z" />
<glyph unicode="&#xac;" horiz-adv-x="514" d="M476 406H10L18 356H426V117L484 112V356L476 406Z" />
<glyph unicode="&#xad;" horiz-adv-x="120" />
<glyph unicode="&#xae;" horiz-adv-x="705" d="M670 487Q670 575 632 646T522 760T353 802Q255 802 184 760T74 647T35 487Q35 400 73 329T183 216T353 174Q451 174 522 216T631 329T670 487ZM89 488Q89 566 120 626T211 720T353 755Q435 755 493 721T584 626T616
488Q616 412 584 352T494 257T353 221Q271 222 212 257T121 352T89 488ZM325 640Q354 640 376 637T412 619T425 571Q425 541 410 526T372 506T320 501H292V640H325ZM511 304L411 475Q439 487 457 510T475 572Q475 612 458 635T410 669T339 680H242V304H292V462H334Q341
462 348 462T363 463L453 304H511Z" />
<glyph unicode="&#xaf;" horiz-adv-x="261" d="M10 640H251L245 689H10V640Z" />
<glyph unicode="&#xb0;" horiz-adv-x="233" d="M116 702Q88 702 64 688T25 651T10 599Q10 569 24 547T63 511T116 498Q146 498 170 511T208 546T223 599Q223 628 209 651T170 688T116 702ZM116 538Q90 538 73 556T56 599Q56 624 73 641T116 659Q141 659 159 642T178
599Q178 574 160 556T116 538Z" />
<glyph unicode="&#xb1;" horiz-adv-x="492" d="M454 350H273V531L217 534V350H30L38 302H217V113L273 108V302H462L454 350ZM454 48H30L38 1H462L454 48Z" />
<glyph unicode="&#xb2;" horiz-adv-x="352" d="M172 771Q146 771 120 766T71 753T29 733L51 689Q66 700 86 708T128 721T170 726Q204 726 224 714T254 684T263 647Q263 625 247 593T181 515L25 379V336H332L326 379H89L208 481Q263 529 290 567T318 647Q318 675
304 703T258 751T172 771Z" />
<glyph unicode="&#xb3;" horiz-adv-x="354" d="M155 771Q109 771 74 759T9 727L31 689Q50 701 80 714T154 727Q200 727 225 706T250 650Q250 622 236 602T193 571T122 560H96L103 516H117Q195 516 227 490T260 415Q260 385 245 365T203 334T147 323Q104 323 77
331T24 356L0 318Q26 303 63 291T143 278Q196 278 234 296T293 346T314 416Q314 448 303 473T270 515T220 538Q243 546 262 562T293 601T305 651Q305 700 268 735T155 771Z" />
<glyph unicode="&#xb4;" horiz-adv-x="145" d="M50 589L135 742H64L10 602L50 589Z" />
<glyph unicode="&#xb5;" horiz-adv-x="526" d="M133 -208V312L71 313V-219L133 -208ZM399 486V140Q377 112 346 90T284 54T227 41Q174 41 154 76T133 161V485H71V149Q71 103 86 67T135 9T220 -12Q250 -12 284 -1T349 31T400 75L410 1H461V486H399Z" />
<glyph unicode="&#xb6;" horiz-adv-x="813" d="M391 0V631H617V0H679V631H778V680H280Q209 680 154 660T67 594T35 475Q35 420 55 380T110 315T192 277T291 264H329V0H391Z" />
<glyph unicode="&#xb7;" horiz-adv-x="155" d="M78 214Q97 214 111 228T125 263Q125 282 111 295T78 309Q58 309 44 296T30 262Q30 243 44 229T78 214Z" />
<glyph unicode="&#xb8;" horiz-adv-x="206" d="M52 -81Q77 -83 97 -90T129 -109T142 -134Q142 -153 124 -163T84 -174Q68 -174 51 -169T25 -160L10 -202Q23 -210 44 -215T84 -221Q114 -221 139 -212T180 -182T196 -132Q196 -114 186 -97T157 -68T116 -54L142 13H89L52
-81Z" />
<glyph unicode="&#xb9;" horiz-adv-x="247" d="M172 336V765H136L10 700L33 663L117 705V336H172Z" />
<glyph unicode="&#xba;" horiz-adv-x="382" d="M190 702Q146 702 111 681T56 622T35 532Q35 478 54 441T109 383T190 363Q234 363 269 383T326 442T347 532Q347 586 327 624T272 682T190 702ZM190 652Q227 652 256 624T285 532Q285 489 271 463T234 424T190 412Q155
412 125 441T95 532Q95 576 110 602T147 640T190 652Z" />
<glyph unicode="&#xbb;" horiz-adv-x="364" d="M183 267L43 406L20 365L133 245L20 125L43 84L183 223V267ZM334 267L195 406L172 365L286 245L172 125L195 84L334 223V267Z" />
<glyph unicode="&#xbc;" horiz-adv-x="724" d="M172 336V765H136L10 700L33 663L117 705V336H172ZM704 -31H627V321H591L337 -31L342 -75H575V-163H627V-75H700L704 -31ZM575 220V-31H395L575 220ZM541 700L45 -134H105L596 700H541Z" />
<glyph unicode="&#xbd;" horiz-adv-x="741" d="M172 336V765H136L10 700L33 663L117 705V336H172ZM561 325Q535 325 509 320T460 307T418 287L440 243Q455 254 475 262T517 275T559 280Q593 280 613 268T643 238T652 201Q652 179 636 147T570 69L414 -67V-110H721L715
-67H478L597 35Q652 83 679 121T707 201Q707 229 693 257T647 305T561 325ZM521 700L25 -134H85L576 700H521Z" />
<glyph unicode="&#xbe;" horiz-adv-x="759" d="M155 771Q109 771 74 759T9 727L31 689Q50 701 80 714T154 727Q200 727 225 706T250 650Q250 622 236 602T193 571T122 560H96L103 516H117Q195 516 227 490T260 415Q260 385 245 365T203 334T147 323Q104 323 77
331T24 356L0 318Q26 303 63 291T143 278Q196 278 234 296T293 346T314 416Q314 448 303 473T270 515T220 538Q243 546 262 562T293 601T305 651Q305 700 268 735T155 771ZM610 700L114 -134H174L665 700H610ZM738 -32H661V320H625L371 -32L376 -76H609V-164H661V-76H734L738
-32ZM609 219V-32H429L609 219Z" />
<glyph unicode="&#xbf;" horiz-adv-x="404" d="M243 525Q263 525 277 539T291 574Q291 593 277 607T243 622Q224 622 210 608T195 574Q195 554 209 540T243 525ZM218 -80Q277 -80 316 -63T394 -21L386 35Q347 7 311 -9T220 -26Q157 -26 127 -1T96 84Q96 141 145
187T273 258L265 464L219 483L212 290Q156 266 115 232T52 159T30 82Q30 35 49 -2T110 -59T218 -80Z" />
<glyph unicode="&#xc0;" horiz-adv-x="592" d="M423 254H161L290 600L423 254ZM257 680L10 0H69L144 204H441L521 -5L582 5L322 680H257ZM289 739L329 752L275 892H204L289 739Z" />
<glyph unicode="&#xc1;" horiz-adv-x="592" d="M423 254H161L290 600L423 254ZM257 680L10 0H69L144 204H441L521 -5L582 5L322 680H257ZM298 739L383 892H312L258 752L298 739Z" />
<glyph unicode="&#xc2;" horiz-adv-x="592" d="M423 254H161L290 600L423 254ZM257 680L10 0H69L144 204H441L521 -5L582 5L322 680H257ZM283 848L357 739L415 749L313 892H253L153 749L208 739L283 848Z" />
<glyph unicode="&#xc3;" horiz-adv-x="592" d="M423 254H161L290 600L423 254ZM257 680L10 0H69L144 204H441L521 -5L582 5L322 680H257ZM377 849Q375 826 364 816T339 806Q326 806 314 812T291 830Q280 841 264 847T226 853Q204 853 185 845T155 818T143 762H188Q190
785 202 795T227 806Q240 806 253 800T279 782Q292 770 307 764T339 758Q363 758 382 766T412 795T423 849H377Z" />
<glyph unicode="&#xc4;" horiz-adv-x="592" d="M423 254H161L290 600L423 254ZM257 680L10 0H69L144 204H441L521 -5L582 5L322 680H257ZM207 768Q226 768 238 780T251 812Q251 829 239 841T207 854Q190 854 177 842T164 812Q164 793 177 781T207 768ZM364 768Q383
768 395 780T407 812Q407 829 395 841T364 854Q346 854 334 842T321 812Q321 793 333 781T364 768Z" />
<glyph unicode="&#xc5;" horiz-adv-x="592" d="M423 254H161L290 600L423 254ZM257 680L10 0H69L144 204H441L521 -5L582 5L322 680H257ZM291 909Q267 909 247 898T215 868T202 825Q202 790 228 767T291 744Q315 744 335 754T367 783T379 825Q379 849 367 868T335
898T291 909ZM291 783Q273 783 260 795T247 825Q247 844 260 856T291 869Q309 869 322 857T335 825Q335 807 322 795T291 783Z" />
<glyph unicode="&#xc6;" horiz-adv-x="842" d="M434 0H822L818 50H497V326H742L736 371H497V635H802L796 680H426L10 5L67 -5L193 204H434V0ZM434 595V254H224L434 595Z" />
<glyph unicode="&#xc7;" horiz-adv-x="554" d="M529 657Q510 670 479 678T416 690T363 694Q290 694 231 667T131 590T67 476T45 336Q45 267 64 204T123 92T220 15T357 -14Q386 -14 418 -9T480 4T529 23L505 71Q478 59 444 50T355 41Q297 41 252 64T175 128T128
222T111 337Q111 425 144 493T235 600T364 640Q400 640 424 637T469 627T509 611L529 657ZM296 -81Q321 -83 341 -90T373 -109T386 -134Q386 -153 368 -163T328 -174Q312 -174 295 -169T269 -160L254 -202Q267 -210 288 -215T328 -221Q358 -221 383 -212T424 -182T440
-132Q440 -114 430 -97T401 -68T360 -54L386 13H333L296 -81Z" />
<glyph unicode="&#xc8;" horiz-adv-x="503" d="M483 0L477 50H157V326H402L397 371H157V635H460L455 680H95V0H483ZM277 739L317 752L263 892H192L277 739Z" />
<glyph unicode="&#xc9;" horiz-adv-x="503" d="M483 0L477 50H157V326H402L397 371H157V635H460L455 680H95V0H483ZM286 739L371 892H300L246 752L286 739Z" />
<glyph unicode="&#xca;" horiz-adv-x="503" d="M483 0L477 50H157V326H402L397 371H157V635H460L455 680H95V0H483ZM271 848L345 739L403 749L301 892H241L141 749L196 739L271 848Z" />
<glyph unicode="&#xcb;" horiz-adv-x="503" d="M483 0L477 50H157V326H402L397 371H157V635H460L455 680H95V0H483ZM195 768Q214 768 226 780T239 812Q239 829 227 841T195 854Q178 854 165 842T152 812Q152 793 165 781T195 768ZM352 768Q371 768 383 780T395
812Q395 829 383 841T352 854Q334 854 322 842T309 812Q309 793 321 781T352 768Z" />
<glyph unicode="&#xcc;" horiz-adv-x="252" d="M157 0V680H95V0H157ZM126 739L166 752L112 892H41L126 739Z" />
<glyph unicode="&#xcd;" horiz-adv-x="252" d="M157 0V680H95V0H157ZM135 739L220 892H149L95 752L135 739Z" />
<glyph unicode="&#xce;" horiz-adv-x="252" d="M157 0V680H95V0H157ZM376 848L450 739L508 749L406 892H346L246 749L301 739L376 848Z" />
<glyph unicode="&#xcf;" horiz-adv-x="252" d="M157 0V680H95V0H157ZM300 768Q319 768 331 780T344 812Q344 829 332 841T300 854Q283 854 270 842T257 812Q257 793 270 781T300 768ZM457 768Q476 768 488 780T500 812Q500 829 488 841T457 854Q439 854 427 842T414
812Q414 793 426 781T457 768Z" />
<glyph unicode="&#xd0;" horiz-adv-x="664" d="M277 309L269 359H21L29 309H277ZM318 0Q418 0 484 46T585 171T619 344Q619 437 590 513T496 634T327 680H95V0H318ZM330 627Q408 627 458 590T534 488T559 343Q559 256 529 191T446 89T320 52H157V627H330Z" />
<glyph unicode="&#xd1;" horiz-adv-x="685" d="M157 0V560L171 531L549 0H590V680H527V129L493 188L136 680H95V0H157ZM428 849Q426 826 415 816T390 806Q377 806 365 812T342 830Q331 841 315 847T277 853Q255 853 236 845T206 818T194 762H239Q241 785 253 795T278
806Q291 806 304 800T330 782Q343 770 358 764T390 758Q414 758 433 766T463 795T474 849H428Z" />
<glyph unicode="&#xd2;" horiz-adv-x="721" d="M357 -14Q267 -14 197 31T86 155T45 337Q45 439 86 519T199 647T363 696Q454 696 524 651T635 527T676 345Q676 243 635 162T522 35T357 -14ZM355 41Q429 41 486 80T575 187T608 344Q608 430 577 497T490 602T364
640Q291 640 234 601T144 494T111 338Q111 252 142 185T229 80T355 41ZM362 739L402 752L348 892H277L362 739Z" />
<glyph unicode="&#xd3;" horiz-adv-x="721" d="M357 -14Q267 -14 197 31T86 155T45 337Q45 439 86 519T199 647T363 696Q454 696 524 651T635 527T676 345Q676 243 635 162T522 35T357 -14ZM355 41Q429 41 486 80T575 187T608 344Q608 430 577 497T490 602T364
640Q291 640 234 601T144 494T111 338Q111 252 142 185T229 80T355 41ZM371 739L456 892H385L331 752L371 739Z" />
<glyph unicode="&#xd4;" horiz-adv-x="721" d="M357 -14Q267 -14 197 31T86 155T45 337Q45 439 86 519T199 647T363 696Q454 696 524 651T635 527T676 345Q676 243 635 162T522 35T357 -14ZM355 41Q429 41 486 80T575 187T608 344Q608 430 577 497T490 602T364
640Q291 640 234 601T144 494T111 338Q111 252 142 185T229 80T355 41ZM356 848L430 739L488 749L386 892H326L226 749L281 739L356 848Z" />
<glyph unicode="&#xd5;" horiz-adv-x="721" d="M357 -14Q267 -14 197 31T86 155T45 337Q45 439 86 519T199 647T363 696Q454 696 524 651T635 527T676 345Q676 243 635 162T522 35T357 -14ZM355 41Q429 41 486 80T575 187T608 344Q608 430 577 497T490 602T364
640Q291 640 234 601T144 494T111 338Q111 252 142 185T229 80T355 41ZM450 849Q448 826 437 816T412 806Q399 806 387 812T364 830Q353 841 337 847T299 853Q277 853 258 845T228 818T216 762H261Q263 785 275 795T300 806Q313 806 326 800T352 782Q365 770 380
764T412 758Q436 758 455 766T485 795T496 849H450Z" />
<glyph unicode="&#xd6;" horiz-adv-x="721" d="M357 -14Q267 -14 197 31T86 155T45 337Q45 439 86 519T199 647T363 696Q454 696 524 651T635 527T676 345Q676 243 635 162T522 35T357 -14ZM355 41Q429 41 486 80T575 187T608 344Q608 430 577 497T490 602T364
640Q291 640 234 601T144 494T111 338Q111 252 142 185T229 80T355 41ZM280 768Q299 768 311 780T324 812Q324 829 312 841T280 854Q263 854 250 842T237 812Q237 793 250 781T280 768ZM437 768Q456 768 468 780T480 812Q480 829 468 841T437 854Q419 854 407 842T394
812Q394 793 406 781T437 768Z" />
<glyph unicode="&#xd7;" horiz-adv-x="488" d="M274 246L442 31H379L244 203L93 31H30L214 249L46 464H109L244 292L395 464H458L274 246Z" />
<glyph unicode="&#xd8;" horiz-adv-x="721" d="M357 -14Q267 -14 197 31T86 155T45 337Q45 439 86 519T199 647T363 696Q454 696 524 651T635 527T676 345Q676 243 635 162T522 35T357 -14ZM355 41Q429 41 486 80T575 187T608 344Q608 430 577 497T490 602T364
640Q291 640 234 601T144 494T111 338Q111 252 142 185T229 80T355 41ZM259 37L209 61L456 624L503 597L259 37Z" />
<glyph unicode="&#xd9;" horiz-adv-x="673" d="M147 680H85V239Q85 167 116 110T203 21T336 -12Q414 -12 470 20T557 110T588 239V680H525V248Q525 190 503 143T438 69T336 41Q279 41 237 68T171 143T147 248V680ZM335 739L375 752L321 892H250L335 739Z" />
<glyph unicode="&#xda;" horiz-adv-x="673" d="M147 680H85V239Q85 167 116 110T203 21T336 -12Q414 -12 470 20T557 110T588 239V680H525V248Q525 190 503 143T438 69T336 41Q279 41 237 68T171 143T147 248V680ZM344 739L429 892H358L304 752L344 739Z" />
<glyph unicode="&#xdb;" horiz-adv-x="673" d="M147 680H85V239Q85 167 116 110T203 21T336 -12Q414 -12 470 20T557 110T588 239V680H525V248Q525 190 503 143T438 69T336 41Q279 41 237 68T171 143T147 248V680ZM329 848L403 739L461 749L359 892H299L199 749L254
739L329 848Z" />
<glyph unicode="&#xdc;" horiz-adv-x="673" d="M147 680H85V239Q85 167 116 110T203 21T336 -12Q414 -12 470 20T557 110T588 239V680H525V248Q525 190 503 143T438 69T336 41Q279 41 237 68T171 143T147 248V680ZM253 768Q272 768 284 780T297 812Q297 829 285
841T253 854Q236 854 223 842T210 812Q210 793 223 781T253 768ZM410 768Q429 768 441 780T453 812Q453 829 441 841T410 854Q392 854 380 842T367 812Q367 793 379 781T410 768Z" />
<glyph unicode="&#xdd;" horiz-adv-x="546" d="M297 0L298 283L536 680H469L266 336L65 695L10 664L235 276L234 0H297ZM274 739L359 892H288L234 752L274 739Z" />
<glyph unicode="&#xde;" horiz-adv-x="551" d="M271 600Q342 600 397 580T484 514T516 395Q516 340 496 300T441 235T359 197T260 184H157V0H95V680H157V600H271ZM262 237Q316 237 359 252T427 303T453 394Q453 453 431 486T368 533T273 547H157V237H262Z" />
<glyph unicode="&#xdf;" horiz-adv-x="557" d="M75 0H137V473Q137 519 153 553T203 607T286 627Q340 627 380 598T420 502Q420 439 383 409T255 378H228V327H273Q355 327 404 295T454 186Q454 134 429 105T360 64T263 52H212V0H261Q332 0 390 17T482 75T517 188Q517
232 502 264T460 319T397 356Q425 370 444 391T472 440T482 503Q482 563 455 602T384 660T288 680Q226 680 178 657T103 587T75 473V0Z" />
<glyph unicode="&#xe0;" horiz-adv-x="483" d="M113 136Q113 178 141 209T223 240H360V117Q335 86 298 62T213 38Q177 38 155 53T123 91T113 136ZM105 412Q131 424 161 435T244 446Q303 446 331 413T360 330V281H225Q149 282 101 244T52 136Q52 73 92 30T215 -13Q258
-13 299 7T363 52L371 0H422V340Q422 388 400 423T338 478T241 498Q221 498 192 493T134 478T86 456L105 412ZM252 589L292 602L238 742H167L252 589Z" />
<glyph unicode="&#xe1;" horiz-adv-x="483" d="M113 136Q113 178 141 209T223 240H360V117Q335 86 298 62T213 38Q177 38 155 53T123 91T113 136ZM105 412Q131 424 161 435T244 446Q303 446 331 413T360 330V281H225Q149 282 101 244T52 136Q52 73 92 30T215 -13Q258
-13 299 7T363 52L371 0H422V340Q422 388 400 423T338 478T241 498Q221 498 192 493T134 478T86 456L105 412ZM242 589L327 742H256L202 602L242 589Z" />
<glyph unicode="&#xe2;" horiz-adv-x="483" d="M113 136Q113 178 141 209T223 240H360V117Q335 86 298 62T213 38Q177 38 155 53T123 91T113 136ZM105 412Q131 424 161 435T244 446Q303 446 331 413T360 330V281H225Q149 282 101 244T52 136Q52 73 92 30T215 -13Q258
-13 299 7T363 52L371 0H422V340Q422 388 400 423T338 478T241 498Q221 498 192 493T134 478T86 456L105 412ZM246 698L320 589L378 599L276 742H216L116 599L171 589L246 698Z" />
<glyph unicode="&#xe3;" horiz-adv-x="483" d="M113 136Q113 178 141 209T223 240H360V117Q335 86 298 62T213 38Q177 38 155 53T123 91T113 136ZM105 412Q131 424 161 435T244 446Q303 446 331 413T360 330V281H225Q149 282 101 244T52 136Q52 73 92 30T215 -13Q258
-13 299 7T363 52L371 0H422V340Q422 388 400 423T338 478T241 498Q221 498 192 493T134 478T86 456L105 412ZM329 699Q327 676 316 666T291 656Q278 656 266 662T243 680Q232 691 216 697T178 703Q156 703 137 695T107 668T95 612H140Q142 635 154 645T179 656Q192
656 205 650T231 632Q244 620 259 614T291 608Q315 608 334 616T364 645T375 699H329Z" />
<glyph unicode="&#xe4;" horiz-adv-x="483" d="M113 136Q113 178 141 209T223 240H360V117Q335 86 298 62T213 38Q177 38 155 53T123 91T113 136ZM105 412Q131 424 161 435T244 446Q303 446 331 413T360 330V281H225Q149 282 101 244T52 136Q52 73 92 30T215 -13Q258
-13 299 7T363 52L371 0H422V340Q422 388 400 423T338 478T241 498Q221 498 192 493T134 478T86 456L105 412ZM167 618Q186 618 198 630T211 662Q211 679 199 691T167 704Q150 704 137 692T124 662Q124 643 137 631T167 618ZM324 618Q343 618 355 630T367 662Q367
679 355 691T324 704Q306 704 294 692T281 662Q281 643 293 631T324 618Z" />
<glyph unicode="&#xe5;" horiz-adv-x="483" d="M113 136Q113 178 141 209T223 240H360V117Q335 86 298 62T213 38Q177 38 155 53T123 91T113 136ZM105 412Q131 424 161 435T244 446Q303 446 331 413T360 330V281H225Q149 282 101 244T52 136Q52 73 92 30T215 -13Q258
-13 299 7T363 52L371 0H422V340Q422 388 400 423T338 478T241 498Q221 498 192 493T134 478T86 456L105 412ZM250 759Q226 759 206 748T174 718T161 675Q161 640 187 617T250 594Q274 594 294 604T326 633T338 675Q338 699 326 718T294 748T250 759ZM250 633Q232
633 219 645T206 675Q206 694 219 706T250 719Q268 719 281 707T294 675Q294 657 281 645T250 633Z" />
<glyph unicode="&#xe6;" horiz-adv-x="817" d="M782 240H422Q423 182 440 137T497 65T602 38Q644 38 680 49T754 80L775 34Q752 22 727 12T673 -5T605 -12Q533 -12 483 13T403 81Q386 62 361 40T301 3T215 -13Q133 -13 93 30T52 136Q52 205 100 243T225 281H360V330Q360
380 332 413T244 446Q191 446 161 435T105 412L86 456Q105 469 133 478T191 492T241 498Q300 498 342 476T405 413Q433 453 477 476T579 499Q649 499 694 466T760 376T782 247V240ZM424 283H719Q715 331 700 368T654 426T576 447Q528 447 496 426T447 368T424 283ZM359
240H223Q187 240 163 226T126 188T113 136Q113 114 123 91T155 53T213 38Q264 38 295 52T345 87T378 128Q369 153 365 181T359 240Z" />
<glyph unicode="&#xe7;" horiz-adv-x="451" d="M395 73Q369 60 342 50T261 39Q207 39 171 66T116 140T98 246Q99 303 118 348T175 419T266 446Q318 446 346 435T400 412L420 456Q401 469 373 478T317 492T269 498Q198 498 146 465T65 375T35 245Q35 170 62 112T140
20T262 -13Q283 -13 311 -8T367 6T415 28L395 73ZM202 -81Q227 -83 247 -90T279 -109T292 -134Q292 -153 274 -163T234 -174Q218 -174 201 -169T175 -160L160 -202Q173 -210 194 -215T234 -221Q264 -221 289 -212T330 -182T346 -132Q346 -114 336 -97T307 -68T266
-54L292 13H239L202 -81Z" />
<glyph unicode="&#xe8;" horiz-adv-x="493" d="M458 239V244Q458 317 437 374T371 465T255 498Q184 498 135 465T61 375T35 245Q35 170 61 112T142 20T281 -13Q319 -13 348 -7T403 10T451 33L430 79Q393 60 357 49T278 37Q213 37 174 63T117 135T98 239H458ZM100
282Q105 330 122 367T172 425T252 446Q300 446 330 425T375 367T395 282H100ZM257 589L297 602L243 742H172L257 589Z" />
<glyph unicode="&#xe9;" horiz-adv-x="493" d="M458 239V244Q458 317 437 374T371 465T255 498Q184 498 135 465T61 375T35 245Q35 170 61 112T142 20T281 -13Q319 -13 348 -7T403 10T451 33L430 79Q393 60 357 49T278 37Q213 37 174 63T117 135T98 239H458ZM100
282Q105 330 122 367T172 425T252 446Q300 446 330 425T375 367T395 282H100ZM247 589L332 742H261L207 602L247 589Z" />
<glyph unicode="&#xea;" horiz-adv-x="493" d="M458 239V244Q458 317 437 374T371 465T255 498Q184 498 135 465T61 375T35 245Q35 170 61 112T142 20T281 -13Q319 -13 348 -7T403 10T451 33L430 79Q393 60 357 49T278 37Q213 37 174 63T117 135T98 239H458ZM100
282Q105 330 122 367T172 425T252 446Q300 446 330 425T375 367T395 282H100ZM251 698L325 589L383 599L281 742H221L121 599L176 589L251 698Z" />
<glyph unicode="&#xeb;" horiz-adv-x="493" d="M458 239V244Q458 317 437 374T371 465T255 498Q184 498 135 465T61 375T35 245Q35 170 61 112T142 20T281 -13Q319 -13 348 -7T403 10T451 33L430 79Q393 60 357 49T278 37Q213 37 174 63T117 135T98 239H458ZM100
282Q105 330 122 367T172 425T252 446Q300 446 330 425T375 367T395 282H100ZM172 618Q191 618 203 630T216 662Q216 679 204 691T172 704Q155 704 142 692T129 662Q129 643 142 631T172 618ZM329 618Q348 618 360 630T372 662Q372 679 360 691T329 704Q311 704
299 692T286 662Q286 643 298 631T329 618Z" />
<glyph unicode="&#xec;" horiz-adv-x="193" d="M128 0V485H65V0H128ZM101 589L141 602L87 742H16L101 589Z" />
<glyph unicode="&#xed;" horiz-adv-x="193" d="M128 0V485H65V0H128ZM91 589L176 742H105L51 602L91 589Z" />
<glyph unicode="&#xee;" horiz-adv-x="193" d="M128 0V485H65V0H128ZM351 698L425 589L483 599L381 742H321L221 599L276 589L351 698Z" />
<glyph unicode="&#xef;" horiz-adv-x="193" d="M128 0V485H65V0H128ZM272 618Q291 618 303 630T316 662Q316 679 304 691T272 704Q255 704 242 692T229 662Q229 643 242 631T272 618ZM429 618Q448 618 460 630T472 662Q472 679 460 691T429 704Q411 704 399 692T386
662Q386 643 398 631T429 618Z" />
<glyph unicode="&#xf0;" horiz-adv-x="527" d="M492 240Q492 324 473 400T410 541T293 659T113 750L95 708Q202 666 267 614T368 501T416 374T429 239Q429 183 409 138T352 66T261 39Q207 39 171 66T116 140T98 246Q99 303 118 348T175 419T266 446Q298 446 327
438T381 413T424 371L456 388Q433 421 406 445T345 484T267 498Q196 498 144 465T64 375T35 245Q35 170 61 112T138 20T258 -13Q331 -12 383 21T463 111T492 240ZM116 570L383 705L358 742L90 610L116 570Z" />
<glyph unicode="&#xf1;" horiz-adv-x="516" d="M127 0V346Q150 375 180 397T242 432T299 445Q352 445 372 410T393 325V1H455V337Q455 384 440 420T391 477T306 498Q276 498 242 487T178 455T126 411L116 485H65V0H127ZM349 699Q347 676 336 666T311 656Q298 656
286 662T263 680Q252 691 236 697T198 703Q176 703 157 695T127 668T115 612H160Q162 635 174 645T199 656Q212 656 225 650T251 632Q264 620 279 614T311 608Q335 608 354 616T384 645T395 699H349Z" />
<glyph unicode="&#xf2;" horiz-adv-x="527" d="M258 -13Q188 -14 138 19T62 111T35 245Q36 317 64 374T144 465T267 498Q339 498 389 467T465 379T492 240Q492 168 464 111T383 21T258 -13ZM261 39Q315 39 352 65T409 137T429 239Q429 299 411 345T357 419T266
446Q213 446 176 420T119 348T98 246Q98 187 116 140T170 66T261 39ZM268 589L308 602L254 742H183L268 589Z" />
<glyph unicode="&#xf3;" horiz-adv-x="527" d="M258 -13Q188 -14 138 19T62 111T35 245Q36 317 64 374T144 465T267 498Q339 498 389 467T465 379T492 240Q492 168 464 111T383 21T258 -13ZM261 39Q315 39 352 65T409 137T429 239Q429 299 411 345T357 419T266
446Q213 446 176 420T119 348T98 246Q98 187 116 140T170 66T261 39ZM258 589L343 742H272L218 602L258 589Z" />
<glyph unicode="&#xf4;" horiz-adv-x="527" d="M258 -13Q188 -14 138 19T62 111T35 245Q36 317 64 374T144 465T267 498Q339 498 389 467T465 379T492 240Q492 168 464 111T383 21T258 -13ZM261 39Q315 39 352 65T409 137T429 239Q429 299 411 345T357 419T266
446Q213 446 176 420T119 348T98 246Q98 187 116 140T170 66T261 39ZM262 698L336 589L394 599L292 742H232L132 599L187 589L262 698Z" />
<glyph unicode="&#xf5;" horiz-adv-x="527" d="M258 -13Q188 -14 138 19T62 111T35 245Q36 317 64 374T144 465T267 498Q339 498 389 467T465 379T492 240Q492 168 464 111T383 21T258 -13ZM261 39Q315 39 352 65T409 137T429 239Q429 299 411 345T357 419T266
446Q213 446 176 420T119 348T98 246Q98 187 116 140T170 66T261 39ZM345 699Q343 676 332 666T307 656Q294 656 282 662T259 680Q248 691 232 697T194 703Q172 703 153 695T123 668T111 612H156Q158 635 170 645T195 656Q208 656 221 650T247 632Q260 620 275
614T307 608Q331 608 350 616T380 645T391 699H345Z" />
<glyph unicode="&#xf6;" horiz-adv-x="527" d="M258 -13Q188 -14 138 19T62 111T35 245Q36 317 64 374T144 465T267 498Q339 498 389 467T465 379T492 240Q492 168 464 111T383 21T258 -13ZM261 39Q315 39 352 65T409 137T429 239Q429 299 411 345T357 419T266
446Q213 446 176 420T119 348T98 246Q98 187 116 140T170 66T261 39ZM183 618Q202 618 214 630T227 662Q227 679 215 691T183 704Q166 704 153 692T140 662Q140 643 153 631T183 618ZM340 618Q359 618 371 630T383 662Q383 679 371 691T340 704Q322 704 310 692T297
662Q297 643 309 631T340 618Z" />
<glyph unicode="&#xf7;" horiz-adv-x="497" d="M248 360Q271 360 287 377T303 416Q303 440 287 456T248 472Q223 472 207 456T191 416Q191 394 207 377T248 360ZM460 298H30L38 248H467L460 298ZM250 57Q273 57 289 74T306 114Q306 137 290 153T250 170Q226 170
210 154T194 114Q194 91 210 74T250 57Z" />
<glyph unicode="&#xf8;" horiz-adv-x="527" d="M258 -13Q188 -14 138 19T62 111T35 245Q36 317 64 374T144 465T267 498Q339 498 389 467T465 379T492 240Q492 168 464 111T383 21T258 -13ZM261 39Q315 39 352 65T409 137T429 239Q429 299 411 345T357 419T266
446Q213 446 176 420T119 348T98 246Q98 187 116 140T170 66T261 39ZM191 25L143 49L350 451L393 419L191 25Z" />
<glyph unicode="&#xf9;" horiz-adv-x="516" d="M389 486V140Q367 112 336 90T274 54T217 41Q164 41 144 76T123 161V485H61V149Q61 103 76 67T125 9T210 -12Q240 -12 274 -1T339 31T390 75L400 0H451V486H389ZM254 589L294 602L240 742H169L254 589Z" />
<glyph unicode="&#xfa;" horiz-adv-x="516" d="M389 486V140Q367 112 336 90T274 54T217 41Q164 41 144 76T123 161V485H61V149Q61 103 76 67T125 9T210 -12Q240 -12 274 -1T339 31T390 75L400 0H451V486H389ZM244 589L329 742H258L204 602L244 589Z" />
<glyph unicode="&#xfb;" horiz-adv-x="516" d="M389 486V140Q367 112 336 90T274 54T217 41Q164 41 144 76T123 161V485H61V149Q61 103 76 67T125 9T210 -12Q240 -12 274 -1T339 31T390 75L400 0H451V486H389ZM248 698L322 589L380 599L278 742H218L118 599L173
589L248 698Z" />
<glyph unicode="&#xfc;" horiz-adv-x="516" d="M389 486V140Q367 112 336 90T274 54T217 41Q164 41 144 76T123 161V485H61V149Q61 103 76 67T125 9T210 -12Q240 -12 274 -1T339 31T390 75L400 0H451V486H389ZM169 618Q188 618 200 630T213 662Q213 679 201 691T169
704Q152 704 139 692T126 662Q126 643 139 631T169 618ZM326 618Q345 618 357 630T369 662Q369 679 357 691T326 704Q308 704 296 692T283 662Q283 643 295 631T326 618Z" />
<glyph unicode="&#xfd;" horiz-adv-x="438" d="M160 -98Q152 -120 139 -134T108 -157T65 -179L82 -219Q114 -212 140 -198T186 -161T215 -112L428 485H368L218 83L59 497L10 471L192 -7L160 -98ZM210 589L295 742H224L170 602L210 589Z" />
<glyph unicode="&#xfe;" horiz-adv-x="516" d="M260 498Q332 498 381 466T455 376T481 242Q481 170 455 112T378 21T256 -13Q219 -13 189 1T133 35V-208L71 -219V696L133 706V452Q160 473 192 485T260 498ZM259 39Q313 39 348 66T400 139T418 241Q418 301 402
347T351 419T261 446Q218 446 188 430T133 389V91Q156 71 185 55T259 39Z" />
<glyph unicode="&#xff;" horiz-adv-x="438" d="M160 -98Q152 -120 139 -134T108 -157T65 -179L82 -219Q114 -212 140 -198T186 -161T215 -112L428 485H368L218 83L59 497L10 471L192 -7L160 -98ZM135 618Q154 618 166 630T179 662Q179 679 167 691T135 704Q118
704 105 692T92 662Q92 643 105 631T135 618ZM292 618Q311 618 323 630T335 662Q335 679 323 691T292 704Q274 704 262 692T249 662Q249 643 261 631T292 618Z" />
<glyph unicode="&#x2013;" horiz-adv-x="439" d="M401 298H30L38 248H409L401 298Z" />
<glyph unicode="&#x2014;" horiz-adv-x="534" d="M496 298H30L38 248H504L496 298Z" />
<glyph unicode="&#x2018;" horiz-adv-x="160" d="M77 498Q91 498 101 504T118 522T125 545Q125 563 114 577T81 593Q83 619 99 637T140 671L121 702Q97 690 76 666T43 612T30 552Q30 527 43 513T77 498Z" />
<glyph unicode="&#x2019;" horiz-adv-x="160" d="M83 702Q69 702 58 695T41 678T34 654Q34 642 39 632T54 615T76 606Q74 580 59 562T20 527L38 498Q63 511 83 534T117 587T130 647Q130 672 116 687T83 702Z" />
<glyph unicode="&#x201a;" horiz-adv-x="160" d="M83 94Q69 94 58 88T41 71T34 48Q34 36 39 26T54 9T76 1Q74 -26 59 -44T20 -79L38 -108Q63 -95 83 -72T117 -19T130 41Q130 66 116 80T83 94Z" />
<glyph unicode="&#x201c;" horiz-adv-x="306" d="M77 498Q91 498 101 504T118 522T125 545Q125 563 114 577T81 593Q83 619 99 637T140 671L121 702Q97 690 76 666T43 612T30 552Q30 527 43 513T77 498ZM223 498Q237 498 248 504T265 522T272 545Q272 557 267
567T252 585T230 593Q231 619 246 637T286 671L269 702Q244 690 223 666T190 612T177 552Q177 527 190 513T223 498Z" />
<glyph unicode="&#x201d;" horiz-adv-x="306" d="M229 702Q216 702 205 695T188 678T181 654Q181 636 193 622T224 606Q222 580 207 562T167 527L185 498Q210 511 230 534T263 587T276 647Q276 672 262 687T229 702ZM83 702Q69 702 58 695T41 678T34 654Q34 642
39 632T54 615T76 606Q74 580 59 562T20 527L38 498Q63 511 83 534T117 587T130 647Q130 672 116 687T83 702Z" />
<glyph unicode="&#x201e;" horiz-adv-x="306" d="M83 95Q69 95 58 89T41 73T34 48Q34 36 39 26T54 9T76 1Q74 -25 59 -43T20 -78L38 -108Q63 -95 83 -72T117 -19T130 41Q130 66 116 80T83 95ZM229 94Q216 94 205 88T188 71T181 48Q181 30 193 16T224 1Q222 -26
207 -44T167 -79L185 -108Q210 -95 230 -72T263 -19T276 41Q276 66 262 80T229 94Z" />
<glyph unicode="&#x2022;" horiz-adv-x="224" d="M112 245Q135 245 153 256T183 285T194 326Q194 349 183 367T154 397T112 409Q90 409 71 398T41 368T30 326Q30 304 41 286T71 256T112 245Z" />
<glyph unicode="&#x2039;" horiz-adv-x="211" d="M30 221L170 83L191 127L82 245L191 363L170 408L30 269V221Z" />
<glyph unicode="&#x203a;" horiz-adv-x="213" d="M183 269L43 408L20 363L132 245L20 127L43 83L183 221V269Z" />
</font>
</defs>
</svg>
