<?xml version="1.0" standalone="no"?>
<!DOCTYPE svg PUBLIC "-//W3C//DTD SVG 1.1//EN" "http://www.w3.org/Graphics/SVG/1.1/DTD/svg11.dtd">
<svg xmlns="http://www.w3.org/2000/svg">
<defs >
<font id="Catamaran" horiz-adv-x="583" ><font-face
    font-family="Catamaran Thin"
    units-per-em="1000"
    panose-1="0 0 0 0 0 0 0 0 0 0"
    ascent="1100"
    descent="-540"
    alphabetic="0" />
<glyph unicode=" " horiz-adv-x="233" />
<glyph unicode="!" horiz-adv-x="168" d="M56 223L114 196L129 702H40L56 223ZM85 107Q63 107 47 92T30 54Q30 31 46 16T85 0Q107 0 122 16T138 54Q138 76 123 91T85 107Z" />
<glyph unicode="&quot;" horiz-adv-x="328" d="M244 712Q229 712 217 704T198 684T190 657Q190 637 203 621T236 604Q232 576 216 557T176 521L197 484Q226 499 248 525T284 584T298 649Q298 677 282 694T244 712ZM88 712Q73 712 61 704T41 684T33 657Q33 645
39 633T56 613T79 604Q75 576 59 557T20 521L41 484Q69 499 92 525T128 584T142 649Q142 677 126 694T88 712Z" />
<glyph unicode="#" horiz-adv-x="519" d="M384 507L354 380H222L252 506L186 507L157 380H30L39 319H141L112 192H30L39 130H97L67 2L132 -3L163 130H296L266 2L330 -3L362 130H489L481 192H376L406 319H489L481 380H421L451 506L384 507ZM340 319L309 192H178L208
319H340Z" />
<glyph unicode="$" horiz-adv-x="513" d="M173 -115V-6Q149 -1 127 4T85 17T54 33L72 95Q91 87 117 77T176 61T239 54Q293 54 329 68T383 107T402 164Q402 201 382 227T321 275T222 322Q178 342 145 362T89 407T55 461T43 525Q43 580 77 622T173 684V791L229 801V695Q237
695 244 695T260 696Q269 696 277 696T294 694V792L352 802V684Q376 678 396 670T434 654L407 593Q390 601 370 609T324 622T264 628Q200 628 160 601T119 526Q119 490 140 464T201 415T301 364Q345 345 378 325T434 282T469 231T481 165Q481 109 448 67T352 4V-115H294V-9Q281
-11 268 -12T240 -13H229V-115H173Z" />
<glyph unicode="%" horiz-adv-x="862" d="M544 710L239 0L316 -4L622 706L544 710ZM191 702Q148 702 112 681T55 622T33 532Q33 479 53 441T110 383T192 363Q235 363 270 383T328 442T350 532Q350 586 330 624T273 682T191 702ZM191 640Q224 640 249 614T275 532Q275
494 263 470T231 436T192 425Q157 425 132 450T107 533Q107 571 119 594T151 629T191 640ZM672 338Q629 338 593 318T536 259T514 169Q514 115 534 77T591 20T673 0Q716 0 751 20T808 79T830 169Q830 223 810 261T753 318T672 338ZM672 277Q705 277 730 251T755
169Q755 130 743 107T712 73T673 61Q638 61 613 87T588 169Q588 208 601 232T633 266T672 277Z" />
<glyph unicode="&amp;" horiz-adv-x="668" d="M458 121Q430 90 390 73T300 55Q256 55 216 71T149 123T123 212Q124 261 143 301T196 362Q205 354 214 345T234 326L458 121ZM594 -4L636 51L554 126Q575 167 587 217T602 325L538 351Q535 300 525 257T496 177L298
362Q266 393 244 417T210 465T198 522Q198 550 211 574T250 613T309 629Q359 629 386 617T441 593L469 654Q436 670 398 683T309 696Q249 696 207 672T143 606T120 516Q120 485 128 461T151 414Q103 383 74 329T43 210Q43 137 77 88T169 13T300 -12Q371 -12 424
9T513 70L594 -4Z" />
<glyph unicode="&apos;" horiz-adv-x="172" d="M88 712Q73 712 61 704T41 684T33 657Q33 645 39 633T56 613T79 604Q75 576 59 557T20 521L41 484Q69 499 92 525T128 584T142 649Q142 677 126 694T88 712Z" />
<glyph unicode="(" horiz-adv-x="265" d="M235 -14Q213 9 194 50T159 140T136 236T127 321Q127 357 135 403T159 498T193 587T235 654L171 677Q130 623 103 561T63 438T50 320Q50 263 63 201T103 77T171 -38L235 -14Z" />
<glyph unicode=")" horiz-adv-x="265" d="M30 653Q51 629 70 588T105 499T128 403T137 320Q137 284 129 237T105 142T71 52T30 -15L94 -38Q134 18 161 79T201 202T215 320Q215 377 202 439T161 562T94 677L30 653Z" />
<glyph unicode="*" horiz-adv-x="351" d="M206 772H144L143 661L27 686L10 634L127 611L45 493L92 459L176 572L259 459L305 493L223 611L341 634L324 686L207 661L206 772Z" />
<glyph unicode="+" horiz-adv-x="536" d="M496 305H305V531L232 534V305H30L38 242H232V8L305 4V242H506L496 305Z" />
<glyph unicode="," horiz-adv-x="172" d="M88 107Q74 107 61 100T41 81T34 54Q34 41 40 29T57 10T80 1Q77 -27 61 -46T20 -83L41 -120Q70 -104 93 -78T129 -20T142 44Q142 73 126 90T88 107Z" />
<glyph unicode="-" horiz-adv-x="320" d="M281 305H30L39 242H290L281 305Z" />
<glyph unicode="." horiz-adv-x="167" d="M85 0Q107 0 122 15T137 54Q137 76 122 91T85 107Q61 107 46 92T30 54Q30 31 45 16T85 0Z" />
<glyph unicode="/" horiz-adv-x="402" d="M315 710L10 0L86 -4L392 706L315 710Z" />
<glyph unicode="0" horiz-adv-x="592" d="M33 287Q33 200 67 132T160 26T297 -13Q373 -13 433 26T526 133T560 289Q560 373 527 438T434 541T297 579Q220 579 161 541T67 438T33 287ZM111 290Q111 355 135 404T201 483T297 512Q351 512 392 483T458 402T482 285Q482
218 458 166T393 85T297 55Q243 55 201 85T135 169T111 290Z" />
<glyph unicode="1" horiz-adv-x="312" d="M239 0V566H186L10 483L45 420L160 474V0H239Z" />
<glyph unicode="2" horiz-adv-x="479" d="M219 579Q153 579 110 562T38 527L61 463Q79 473 101 485T153 505T218 514Q278 514 314 488T351 410Q351 381 339 355T301 302T236 241L25 57V0H459L446 62H130L279 187Q333 233 365 271T413 345T428 418Q428 468 402
504T330 559T219 579Z" />
<glyph unicode="3" horiz-adv-x="463" d="M212 579Q152 579 103 561T13 517L52 464Q76 481 116 497T209 514Q248 514 276 500T319 463T335 412Q335 361 291 329T168 297H125L138 238H162Q260 238 303 203T347 108Q347 71 326 44T271 3T200 -11Q148 -11 113 0T41
34L0 -21Q37 -41 89 -58T197 -76Q267 -76 318 -52T397 15T426 110Q426 151 410 184T368 240T308 269Q337 279 360 300T399 350T414 414Q414 457 392 494T324 555T212 579Z" />
<glyph unicode="4" horiz-adv-x="524" d="M504 135H400V571H344L10 135L21 70H320V-69H400V70H495L504 135ZM320 432V135H95L320 432Z" />
<glyph unicode="5" horiz-adv-x="496" d="M144 224Q157 237 186 254T255 272Q312 272 348 236T384 134Q384 67 342 29T232 -10Q180 -10 145 1T73 34L33 -21Q58 -34 89 -47T156 -68T228 -76Q304 -76 356 -48T435 29T463 134Q463 189 441 235T372 309T251 337Q225
337 198 329T147 305L156 500H416L425 566H84L68 224H144Z" />
<glyph unicode="6" horiz-adv-x="511" d="M69 285L90 228Q110 252 136 274T195 309T263 323Q307 323 338 306T386 258T403 185Q403 149 386 120T338 72T263 53Q217 53 183 77T129 148T110 265Q110 323 128 369T178 451T248 512T329 552T410 572L392 634Q344 628
294 609T197 558T113 482T54 382T33 256Q33 169 63 109T147 18T266 -13Q327 -13 375 13T451 86T478 190Q478 245 453 289T380 360T264 387Q218 387 183 371T119 332T69 285Z" />
<glyph unicode="7" horiz-adv-x="440" d="M199 -69L420 531L394 566H10L20 500H332L124 -45L199 -69Z" />
<glyph unicode="8" horiz-adv-x="516" d="M258 643Q194 643 150 620T83 559T60 477Q60 429 89 393T163 339Q128 331 99 305T51 244T33 173Q33 122 58 80T135 13T258 -13Q332 -13 382 13T458 81T484 173Q484 213 466 248T418 307T354 339Q380 351 403 371T442 418T457
477Q457 521 434 559T367 620T258 643ZM256 579Q318 579 349 549T380 476Q380 451 366 428T325 388T258 366Q199 375 168 406T136 476Q136 503 149 526T190 564T256 579ZM258 309Q332 299 369 261T406 171Q406 135 386 108T332 67T258 52Q217 52 183 67T129 108T109
171Q109 222 146 260T258 309Z" />
<glyph unicode="9" horiz-adv-x="511" d="M441 281L420 338Q402 314 375 292T316 257T248 243Q205 243 173 260T124 309T107 381Q107 417 124 447T173 495T247 513Q294 513 329 489T382 418T401 300Q401 243 383 197T333 115T263 53T181 14T100 -6L118 -68Q166
-62 217 -43T314 7T398 83T457 184T478 310Q478 398 448 457T364 548T244 579Q184 579 136 553T61 481T33 376Q33 322 58 277T132 206T246 179Q294 179 329 195T392 234T441 281Z" />
<glyph unicode=":" horiz-adv-x="167" d="M84 348Q106 348 121 364T137 402Q137 424 122 440T83 457Q62 457 46 440T30 402Q30 380 45 364T84 348ZM84 27Q106 27 121 42T137 81Q137 104 122 120T83 136Q62 136 46 120T30 81Q30 59 45 43T84 27Z" />
<glyph unicode=";" horiz-adv-x="174" d="M90 348Q112 348 128 364T144 402Q144 424 128 440T90 457Q66 457 50 441T34 402Q34 380 50 364T90 348ZM88 136Q74 136 61 128T41 108T34 81Q34 68 40 56T57 37T80 28Q77 0 61 -19T20 -56L41 -93Q70 -78 93 -52T129 7T142
71Q142 100 126 118T88 136Z" />
<glyph unicode="&lt;" horiz-adv-x="329" d="M309 80L105 245L309 410L286 470L30 270V219L286 19L309 80Z" />
<glyph unicode="=" horiz-adv-x="502" d="M464 380H30L39 319H472L464 380ZM464 192H30L39 130H472L464 192Z" />
<glyph unicode="&gt;" horiz-adv-x="329" d="M299 270L43 470L20 410L224 245L20 79L43 19L299 219V270Z" />
<glyph unicode="?" horiz-adv-x="411" d="M191 701Q133 701 93 685T10 642L20 572Q62 602 101 618T188 634Q244 634 273 610T303 532Q303 479 254 436T129 368L137 172L195 149L204 328Q258 353 297 386T359 458T381 534Q381 583 361 620T299 679T191 701ZM163
107Q140 107 125 92T109 54Q109 32 124 16T163 0Q185 0 201 16T218 54Q218 76 202 91T163 107Z" />
<glyph unicode="@" horiz-adv-x="764" d="M542 385L518 415H445Q401 415 361 401T289 361T239 297T220 214Q220 148 260 106T386 64Q412 64 437 74T480 96Q495 79 516 71T561 63Q599 63 630 78T684 124T719 199T732 305Q732 368 709 421T645 513T548 574T422 596Q332
596 260 566T137 484T60 363T33 216Q33 144 60 85T132 -16T236 -81T355 -104Q404 -104 454 -95T550 -63L530 -4Q507 -15 480 -23T423 -35T366 -39Q295 -39 237 -8T143 80T108 217Q108 290 133 348T202 448T302 512T420 534Q494 534 549 504T634 420T664 298Q664
245 652 206T618 146T568 125Q551 125 533 137T519 182L542 385ZM385 125Q352 125 332 138T303 172T294 214Q294 261 315 293T370 342T445 359H476L454 188Q452 180 452 172T455 157Q445 142 427 134T385 125Z" />
<glyph unicode="A" horiz-adv-x="609" d="M422 257H180L299 575L422 257ZM262 680L10 0H87L158 193H445L521 -7L599 6L337 680H262Z" />
<glyph unicode="B" horiz-adv-x="590" d="M306 0Q359 0 404 10T484 43T538 102T558 191Q558 260 522 302T427 364Q465 385 493 418T521 499Q521 568 491 607T406 663T282 680H93V0H306ZM279 613Q328 613 364 604T421 570T441 498Q441 456 417 431T352 396T264
384H172V613H279ZM315 319Q389 319 433 289T478 189Q478 143 455 116T393 78T305 66H172V319H315Z" />
<glyph unicode="C" horiz-adv-x="556" d="M533 655Q510 669 479 677T416 690T363 694Q289 694 230 667T129 591T65 477T43 336Q43 265 62 202T121 91T220 14T357 -14Q386 -14 419 -9T482 5T534 25L504 84Q476 72 441 63T354 54Q300 54 258 76T186 137T141 228T126
337Q126 422 157 487T242 589T363 626Q397 626 421 623T465 613T508 597L533 655Z" />
<glyph unicode="D" horiz-adv-x="671" d="M324 0Q424 0 491 45T594 169T629 344Q629 439 598 515T502 635T331 680H93V0H324ZM334 612Q408 612 455 577T526 482T550 343Q550 257 522 195T443 100T325 66H171V612H334Z" />
<glyph unicode="E" horiz-adv-x="522" d="M502 0L493 62H171V317H416L407 377H171V620H473L464 680H93V0H502Z" />
<glyph unicode="F" horiz-adv-x="481" d="M396 373H171V620H461L450 680H93V0H171V313H405L396 373Z" />
<glyph unicode="G" horiz-adv-x="627" d="M349 290H499V74Q476 66 447 60T383 54Q310 54 252 88T160 187T126 337Q126 406 148 460T208 550T295 606T395 626Q429 626 453 623T497 613T539 597L564 655Q543 669 511 677T446 690T393 694Q319 694 255 669T144 595T70
482T43 336Q43 237 84 158T203 33T384 -14Q418 -14 453 -8T521 9T574 33V350H356L349 290Z" />
<glyph unicode="H" horiz-adv-x="663" d="M570 0V680H491V374H171V685L93 680V0H171V311H491V0H570Z" />
<glyph unicode="I" horiz-adv-x="264" d="M171 0V680H93V0H171Z" />
<glyph unicode="J" horiz-adv-x="255" d="M93 66Q94 29 87 10T62 -21T10 -46L41 -102Q92 -86 120 -67T161 -21T173 49V680H93V66Z" />
<glyph unicode="K" horiz-adv-x="609" d="M503 0L249 327L171 246V0H93V680H171V350L499 695L554 648L301 382L599 0H503Z" />
<glyph unicode="L" horiz-adv-x="506" d="M488 62H171V680H93V0H496L488 62Z" />
<glyph unicode="M" horiz-adv-x="762" d="M400 229L590 512V0H670V680H620L383 333L139 680H93V0H171V514L372 224L400 229Z" />
<glyph unicode="N" horiz-adv-x="700" d="M171 0V533L197 489L544 0H607V680H527V153L486 220L155 680H93V0H171Z" />
<glyph unicode="O" horiz-adv-x="725" d="M360 -14Q268 -14 196 31T84 155T43 337Q43 439 84 519T198 647T364 696Q456 696 528 651T641 526T682 345Q682 243 641 162T527 35T360 -14ZM358 55Q428 55 482 92T567 194T598 344Q598 426 568 490T486 590T366 626Q296
626 242 589T157 487T126 338Q126 256 156 192T238 92T358 55Z" />
<glyph unicode="P" horiz-adv-x="562" d="M171 0V257H267Q321 257 368 269T451 308T508 375T529 471Q529 546 496 592T406 659T278 680H93V0H171ZM278 613Q330 613 367 600T426 555T448 469Q447 417 424 385T360 339T270 324H171V613H278Z" />
<glyph unicode="Q" horiz-adv-x="725" d="M435 228L380 187L600 -19L647 21L435 228ZM364 696Q271 694 199 647T85 520T43 337Q43 235 83 156T196 31T360 -14Q454 -12 526 34T640 162T682 345Q682 446 641 525T528 650T364 696ZM126 338Q126 422 157 487T242 589T366
626Q433 626 485 590T568 490T598 344Q598 260 567 195T482 92T358 55Q291 55 239 91T156 192T126 338Z" />
<glyph unicode="R" horiz-adv-x="592" d="M278 613Q328 613 366 602T426 561T448 479Q448 428 423 399T358 356T270 343H171V613H278ZM93 680V0H171V279H267Q284 279 304 280T339 283L495 0H582L409 304Q461 326 494 369T529 482Q529 554 496 597T406 660T278 680H93Z" />
<glyph unicode="S" horiz-adv-x="513" d="M54 33Q68 24 90 16T139 1T192 -9T240 -13Q317 -13 370 10T452 73T481 165Q481 202 469 230T434 282T378 325T301 364Q242 393 201 415T140 464T119 526Q119 574 159 601T264 628Q298 628 323 623T369 609T407 593L434
654Q402 670 356 683T260 696Q193 696 145 673T70 612T43 525Q43 490 54 461T88 408T144 363T222 322Q281 298 321 276T381 227T402 164Q402 133 384 108T329 68T239 54Q208 54 176 60T118 77T72 95L54 33Z" />
<glyph unicode="T" horiz-adv-x="562" d="M543 680H10V617H238V0H318V617H552L543 680Z" />
<glyph unicode="U" horiz-adv-x="681" d="M161 680H83V241Q83 169 114 112T204 22T341 -11Q421 -11 478 22T567 112T599 241V680H519V250Q519 193 498 149T436 79T341 54Q287 54 247 79T184 148T161 250V680Z" />
<glyph unicode="V" horiz-adv-x="609" d="M88 687L10 674L271 0H347L599 680H522L309 104L88 687Z" />
<glyph unicode="W" horiz-adv-x="857" d="M847 680L661 0H584L429 562L282 0H206L10 674L88 687L244 108L392 680H469L623 108L771 680H847Z" />
<glyph unicode="X" horiz-adv-x="588" d="M94 0L296 286L479 0H565L349 333L578 680H494L309 389L101 697L36 664L254 344L10 0H94Z" />
<glyph unicode="Y" horiz-adv-x="563" d="M314 0L315 277L553 680H468L275 351L84 696L10 664L235 273V0H314Z" />
<glyph unicode="Z" horiz-adv-x="562" d="M522 62H109L539 617L531 680H50L61 617H451L23 63L31 0H530L522 62Z" />
<glyph unicode="[" horiz-adv-x="295" d="M100 -88H285L274 -30H175V636H274L285 696H100V-88Z" />
<glyph unicode="\" horiz-adv-x="402" d="M392 0L87 710L10 706L315 -4L392 0Z" />
<glyph unicode="]" horiz-adv-x="295" d="M195 696H10L20 636H119V-30H21L10 -88H195V696Z" />
<glyph unicode="^" horiz-adv-x="421" d="M211 323L333 143H411L243 390H179L10 143H88L211 323Z" />
<glyph unicode="_" horiz-adv-x="440" d="M401 62H30L39 0H410L401 62Z" />
<glyph unicode="`" horiz-adv-x="160" d="M98 589L150 604L97 745H10L98 589Z" />
<glyph unicode="a" horiz-adv-x="488" d="M123 138Q123 176 148 204T223 233H350V122Q325 93 290 72T213 51Q182 51 162 64T133 97T123 138ZM104 396Q131 407 163 418T243 429Q301 429 325 396T350 313V286H225Q147 286 98 248T49 138Q49 74 90 31T216 -12Q256
-12 296 7T360 49L370 0H430V334Q430 382 406 419T340 477T241 498Q221 498 190 493T130 478T81 455L104 396Z" />
<glyph unicode="b" horiz-adv-x="528" d="M120 0L151 65V706L73 695V0H120ZM127 359Q156 393 187 412T266 431Q316 431 349 407T399 339T415 240Q415 188 398 146T348 79T264 54Q217 54 185 72T125 122L101 68Q122 43 149 25T206 -3T262 -13Q335 -13 387 19T467
109T496 241Q496 318 469 375T390 465T265 498Q240 498 210 489T152 462T103 416L127 359Z" />
<glyph unicode="c" horiz-adv-x="458" d="M401 87Q373 73 344 64T266 54Q216 54 182 79T130 147T113 245Q114 297 132 339T186 406T270 431Q317 431 347 421T405 398L429 453Q409 467 380 477T321 492T272 498Q199 498 145 466T63 376T33 244Q33 168 61 110T141
20T267 -13Q288 -13 317 -8T375 8T426 31L401 87Z" />
<glyph unicode="d" horiz-adv-x="530" d="M378 78L410 0H458V705L378 695V78ZM401 126Q373 92 341 73T263 54Q213 54 180 78T130 146T113 245Q113 298 130 339T181 406T264 431Q312 431 343 413T403 363L427 417Q407 442 380 460T322 488T266 498Q194 498 142
466T61 376T33 244Q33 168 60 110T139 20T264 -13Q289 -13 319 -4T377 24T426 69L401 126Z" />
<glyph unicode="e" horiz-adv-x="499" d="M466 230V237Q466 310 445 369T378 463T259 498Q187 498 137 466T60 376T33 244Q33 168 61 110T145 20T287 -12Q323 -12 353 -6T410 12T460 37L434 95Q396 76 362 65T286 53Q226 53 189 76T135 139T114 230H466ZM116 284Q121
328 137 361T183 412T256 431Q298 431 325 413T368 361T388 284H116Z" />
<glyph unicode="f" horiz-adv-x="299" d="M17 417H89V0H169V417H284L258 477H169V548Q169 584 184 607T237 631Q247 631 260 628T281 621L299 684Q292 689 280 693T254 699T226 702Q184 702 153 684T106 632T89 552V477H16L17 417Z" />
<glyph unicode="g" horiz-adv-x="526" d="M458 485H410L378 421V-52Q378 -109 338 -137T236 -165Q188 -165 156 -154T94 -128L70 -185Q86 -196 108 -204T155 -218T202 -227T239 -230Q308 -230 357 -207T432 -143T458 -52V485ZM401 126Q373 92 341 73T263 54Q213
54 180 78T130 146T113 245Q113 298 130 339T181 406T264 431Q312 431 343 413T403 363L427 417Q407 442 380 460T322 488T266 498Q194 498 142 466T61 376T33 244Q33 168 60 110T139 20T264 -13Q289 -13 319 -4T377 24T426 69L401 126Z" />
<glyph unicode="h" horiz-adv-x="539" d="M151 344Q175 369 203 388T260 420T314 432Q364 432 382 400T401 318V0H480V328Q480 378 464 416T415 477T328 500Q296 500 262 489T198 459T145 416L151 344ZM151 0V706L73 695V0H151Z" />
<glyph unicode="i" horiz-adv-x="205" d="M143 0V485H63V0H143ZM102 581Q124 581 140 596T156 635Q156 658 140 673T101 689Q78 689 63 674T48 635Q48 612 63 597T102 581Z" />
<glyph unicode="j" horiz-adv-x="228" d="M114 581Q100 581 88 588T68 607T61 635Q61 657 76 673T114 689Q136 689 152 673T169 635Q169 613 153 597T114 581ZM155 485V-30Q155 -80 147 -114T113 -171T31 -212L0 -155Q35 -142 50 -128T71 -90T75 -30V485H155Z" />
<glyph unicode="k" horiz-adv-x="472" d="M151 0V182L219 249L379 0H472L272 301L420 447L372 498L151 277V706L73 695V0H151Z" />
<glyph unicode="l" horiz-adv-x="224" d="M151 0V706L73 695V0H151Z" />
<glyph unicode="m" horiz-adv-x="818" d="M141 0V344Q165 369 192 388T247 420T296 432Q328 432 345 418T369 378T376 318V0H455V329Q455 378 440 416T393 477T309 500Q281 500 249 489T188 459T135 416L121 485H63V0H141ZM446 344Q470 369 497 388T551 420T601
432Q632 432 649 418T673 378T681 318V0H760V329Q760 378 745 416T698 477T614 500Q586 500 554 489T492 459T439 416L446 344Z" />
<glyph unicode="n" horiz-adv-x="529" d="M141 0V344Q165 369 193 388T250 420T304 432Q354 432 372 400T391 318V0H470V328Q470 378 454 416T405 477T318 500Q286 500 252 489T188 459T135 416L121 485H63V0H141Z" />
<glyph unicode="o" horiz-adv-x="536" d="M264 -13Q192 -14 140 19T61 110T33 244Q34 318 62 375T144 465T271 498Q344 498 396 466T476 377T504 241Q504 167 475 110T392 20T264 -13ZM266 54Q316 54 351 79T404 146T423 240Q423 295 406 338T355 406T270 431Q221
431 186 406T133 339T113 245Q113 191 130 148T181 79T266 54Z" />
<glyph unicode="p" horiz-adv-x="524" d="M147 -208V422L116 485H69V-219L147 -208ZM123 359Q152 393 183 412T262 431Q312 431 345 407T395 339T411 240Q411 188 394 146T344 79T260 54Q213 54 181 72T121 122L97 68Q118 43 145 25T202 -3T258 -13Q331 -13 383
19T463 109T492 241Q492 318 465 375T386 465T261 498Q236 498 206 489T148 462T99 416L123 359Z" />
<glyph unicode="q" horiz-adv-x="526" d="M410 485L378 424V-219L458 -209V485H410ZM401 126Q373 92 341 73T263 54Q213 54 180 78T130 146T113 245Q113 298 130 339T181 406T264 431Q312 431 343 413T403 363L427 417Q407 442 380 460T322 488T266 498Q194 498
142 466T61 376T33 244Q33 168 60 110T139 20T264 -13Q289 -13 319 -4T377 24T426 69L401 126Z" />
<glyph unicode="r" horiz-adv-x="324" d="M141 0V334Q163 356 192 376T253 409T314 422L295 485Q269 485 239 472T181 441T134 407L110 485H63V0H141Z" />
<glyph unicode="s" horiz-adv-x="420" d="M38 28Q58 15 86 6T143 -8T193 -13Q288 -13 337 24T387 128Q387 168 363 197T302 247T225 281Q177 297 145 316T112 363Q112 394 140 414T214 434Q256 434 287 423T342 400L367 455Q349 468 321 477T265 492T215 498Q132
498 83 462T34 360Q34 322 58 295T118 249T193 217Q226 206 253 193T296 162T313 123Q313 101 298 85T257 60T194 51Q171 51 148 55T104 67T62 84L38 28Z" />
<glyph unicode="t" horiz-adv-x="320" d="M254 477H166V622L86 600V477H16L17 417H86V126Q86 80 103 49T151 2T223 -15Q237 -15 251 -13T277 -6T297 2L278 64Q271 61 259 58T234 54Q198 54 182 77T166 137V417H279L254 477Z" />
<glyph unicode="u" horiz-adv-x="529" d="M387 485V142Q365 118 336 98T279 66T224 54Q175 54 156 86T137 168V485H59V157Q59 108 74 69T124 8T211 -14Q243 -14 276 -3T340 27T393 70L407 0H466V485H387Z" />
<glyph unicode="v" horiz-adv-x="455" d="M265 0L445 485H366L227 107L82 501L10 470L188 0H265Z" />
<glyph unicode="w" horiz-adv-x="672" d="M518 0L662 485H582L480 113L372 485H292L190 113L82 500L10 469L150 0H228L331 369L441 0H518Z" />
<glyph unicode="x" horiz-adv-x="450" d="M99 0L217 187L338 0H425L273 232L440 485H353L229 292L97 498L27 469L173 246L10 0H99Z" />
<glyph unicode="y" horiz-adv-x="455" d="M159 -79Q151 -101 136 -116T101 -141T57 -163L81 -220Q116 -212 146 -196T198 -155T232 -100L445 485H366L227 110L80 500L10 470L190 3L159 -79Z" />
<glyph unicode="z" horiz-adv-x="433" d="M407 485H45L64 422H310L21 41L31 0H409L399 62H118L411 442L407 485Z" />
<glyph unicode="{" horiz-adv-x="272" d="M147 310Q178 323 191 348T204 416Q204 430 200 447T186 486Q176 507 172 524T167 553Q167 570 182 585T230 600H255L262 659H236Q169 659 135 632T100 553Q100 537 104 520T116 483Q124 463 128 445T132 409Q132 377
113 356T66 334H30V282H66Q91 282 113 262T135 211Q135 196 131 179T117 140Q108 120 104 102T99 69Q99 16 132 -13T236 -42H262L255 17H230Q198 17 183 31T167 64Q167 76 171 93T186 132Q195 153 199 170T204 201Q204 240 190 268T147 310Z" />
<glyph unicode="|" horiz-adv-x="264" d="M93 711V0L171 -6V705L93 711Z" />
<glyph unicode="}" horiz-adv-x="271" d="M124 306Q95 293 81 268T67 201Q67 186 71 169T85 130Q95 109 99 93T104 63Q104 46 90 32T41 17H17L9 -42H36Q102 -42 136 -15T171 63Q171 79 167 97T155 134Q147 154 143 172T139 207Q139 240 158 262T205 284H241V335H205Q180
335 158 355T136 406Q136 421 140 438T154 476Q163 497 167 515T172 548Q172 601 139 629T36 658H9L17 600H41Q74 600 89 585T104 553Q104 541 100 524T85 485Q76 464 72 447T67 415Q67 377 81 349T124 306Z" />
<glyph unicode="~" horiz-adv-x="406" d="M30 196H93Q95 219 107 228T136 237Q149 237 164 232T199 215Q217 204 236 199T275 193Q303 193 326 203T362 238T376 304H312Q311 280 298 271T270 262Q256 262 242 267T210 284Q195 295 175 300T132 306Q104 306 81
296T44 261T30 196Z" />
<glyph unicode="&#xa0;" horiz-adv-x="233" />
<glyph unicode="&#xa1;" horiz-adv-x="168" d="M85 592Q107 592 122 608T138 648Q138 669 123 685T85 702Q63 702 47 686T30 648Q30 625 46 609T85 592ZM114 478L56 505L40 0H129L114 478Z" />
<glyph unicode="&#xa2;" horiz-adv-x="458" d="M312 471V607L243 597V473L312 471ZM313 13L243 10V-112H313V13ZM401 87Q373 73 344 64T266 54Q216 54 182 79T130 147T113 245Q114 297 132 339T186 406T270 431Q317 431 347 421T405 398L429 453Q409 467 380 477T321
492T272 498Q199 498 145 466T63 376T33 244Q33 168 61 110T141 20T267 -13Q288 -13 317 -8T375 8T426 31L401 87Z" />
<glyph unicode="&#xa3;" horiz-adv-x="449" d="M63 0H439L430 62H175Q192 83 199 114T206 183V320H364L337 379H206V530Q206 567 221 590T274 614Q284 614 297 611T317 603L336 666Q329 670 317 674T290 681T262 684Q219 684 188 665T142 610T126 526V379H53L54
320H126V146Q126 109 110 86T56 62L63 0Z" />
<glyph unicode="&#xa4;" horiz-adv-x="673" d="M75 -65L180 41Q210 16 248 2T331 -13Q377 -13 418 1T491 42L597 -65L643 -11L541 95Q561 124 572 161T585 240Q585 283 574 321T542 390L643 494L597 550L493 444Q462 468 424 482T340 498Q294 497 255 482T183
441L75 550L30 494L134 388Q114 359 102 322T90 244Q90 201 101 163T131 93L30 -11L75 -65ZM504 240Q504 188 482 147T421 81T333 57Q284 58 248 82T191 149T171 245Q172 296 193 337T254 402T341 427Q390 427 427 402T484 335T504 240Z" />
<glyph unicode="&#xa5;" horiz-adv-x="563" d="M60 310L69 248H503L494 310H60ZM60 135L69 75H503L494 135H60ZM314 0L315 277L553 680H468L275 351L84 696L10 664L235 273V0H314Z" />
<glyph unicode="&#xa6;" horiz-adv-x="264" d="M93 711V412L171 406V705L93 711ZM93 293V0L171 -6V288L93 293Z" />
<glyph unicode="&#xa7;" horiz-adv-x="573" d="M438 99Q471 114 494 136T528 188T540 249Q540 287 528 315T494 366T438 409T361 449Q301 477 261 499T200 548T179 610Q179 659 219 685T324 712Q358 712 383 707T429 693T467 677L494 738Q462 754 416 767T320
780Q253 780 204 758T129 697T102 610Q102 574 113 546T147 493T203 448T282 407Q340 382 380 360T441 311T462 248Q462 222 449 200T409 162L438 99ZM54 -73Q68 -81 90 -89T139 -104T192 -115T240 -119Q317 -119 370 -96T452 -33T481 59Q481 97 469 125T434 176T378
219T301 259Q242 287 202 309T140 358T119 420Q119 451 135 472T180 507L139 565Q109 550 87 528T54 478T43 420Q43 384 54 356T88 303T144 258T222 217Q281 192 321 170T381 121T402 58Q402 27 384 2T329 -37T239 -51Q208 -51 176 -45T118 -29T72 -10L54 -73Z"
/>
<glyph unicode="&#xa8;" horiz-adv-x="283" d="M59 614Q80 614 94 628T108 663Q108 682 94 696T59 711Q39 711 25 697T10 663Q10 642 24 628T59 614ZM224 614Q245 614 259 628T273 663Q273 682 259 696T224 711Q204 711 190 697T175 663Q175 642 189 628T224 614Z" />
<glyph unicode="&#xa9;" horiz-adv-x="799" d="M767 336Q767 412 742 478T668 594T552 672T399 700Q315 700 247 672T132 594T59 478T33 336Q33 260 58 195T131 79T247 2T400 -26Q484 -26 551 2T667 79T741 194T767 336ZM98 337Q98 425 134 494T239 604T400 645Q494
645 561 605T666 495T703 337Q703 250 666 180T562 70T400 29Q307 29 239 69T135 180T98 337ZM414 105Q434 105 460 110T514 125T561 148L537 204Q511 191 486 181T414 171Q340 171 309 216T277 342Q277 389 291 426T337 485T417 506Q449 506 469 502T507 490T541
473L565 531Q546 546 519 555T466 568T418 573Q349 573 299 543T223 461T197 341Q197 273 221 220T293 136T414 105Z" />
<glyph unicode="&#xaa;" horiz-adv-x="331" d="M98 466Q98 489 117 501T164 513H233V467Q217 448 196 435T149 421Q125 421 112 435T98 466ZM68 621Q86 628 108 635T161 642Q197 642 214 623T232 574V563H154Q102 563 68 537T33 464Q33 420 64 392T148 363Q176
363 200 376T241 405L255 371H298V581Q298 613 281 640T233 685T160 702Q146 702 126 699T86 689T54 673L68 621Z" />
<glyph unicode="&#xab;" horiz-adv-x="373" d="M186 222L332 83L353 136L247 245L353 354L332 407L186 268V222ZM30 222L175 83L197 136L91 245L197 354L175 407L30 268V222Z" />
<glyph unicode="&#xac;" horiz-adv-x="514" d="M476 406H10L18 343H413V117L484 112V356L476 406Z" />
<glyph unicode="&#xad;" horiz-adv-x="120" />
<glyph unicode="&#xae;" horiz-adv-x="712" d="M680 487Q680 577 641 650T529 765T357 808Q257 808 184 766T72 650T33 487Q33 398 72 326T184 211T357 168Q457 168 529 210T640 325T680 487ZM92 488Q92 566 124 626T215 720T357 755Q438 755 497 721T587 626T619
488Q619 412 587 352T497 257T357 221Q275 222 215 257T124 352T92 488ZM333 631Q360 631 381 628T414 612T426 568Q426 542 413 529T378 511T329 506H299V631H333ZM518 304L423 473Q450 485 469 508T488 570Q488 610 470 634T421 669T349 680H239V304H299V458H338Q346
458 352 458T366 459L449 304H518Z" />
<glyph unicode="&#xaf;" horiz-adv-x="266" d="M10 633H256L249 695H10V633Z" />
<glyph unicode="&#xb0;" horiz-adv-x="239" d="M119 708Q91 708 66 694T25 655T10 602Q10 572 25 549T65 511T119 497Q150 497 175 511T215 548T230 602Q230 631 215 655T175 693T119 708ZM120 546Q96 546 81 562T65 602Q65 624 80 640T119 656Q142 656 158 640T175
601Q175 579 159 563T120 546Z" />
<glyph unicode="&#xb1;" horiz-adv-x="486" d="M448 359H278V531L208 534V359H30L39 301H208V121L278 116V301H456L448 359ZM449 58H31L39 0H456L449 58Z" />
<glyph unicode="&#xb2;" horiz-adv-x="357" d="M173 771Q140 771 112 764T60 748T22 729L50 675Q63 684 82 692T124 707T169 713Q199 713 217 703T243 677T252 644Q252 618 236 588T176 519L25 389V336H337L329 391H113L215 478Q270 526 297 563T324 644Q324 673
309 702T261 751T173 771Z" />
<glyph unicode="&#xb3;" horiz-adv-x="358" d="M160 771Q114 771 78 758T11 724L39 676Q58 688 86 701T155 714Q197 714 219 695T241 647Q241 623 229 605T191 576T127 565H95L104 510H122Q191 510 220 486T250 418Q250 392 236 374T199 346T148 336Q109 336 84
344T31 369L0 320Q28 305 67 292T148 278Q202 278 240 297T299 348T320 419Q320 451 309 476T278 517T233 539Q254 546 271 561T300 599T312 648Q312 698 274 734T160 771Z" />
<glyph unicode="&#xb4;" horiz-adv-x="160" d="M63 589L150 745H64L10 604L63 589Z" />
<glyph unicode="&#xb5;" horiz-adv-x="539" d="M147 -208V340L69 341V-219L147 -208ZM397 485V142Q375 118 346 98T289 66T234 54Q185 54 166 86T147 168V485H69V157Q69 108 84 69T133 8T221 -14Q253 -14 286 -3T350 27T403 70L417 0H476V485H397Z" />
<glyph unicode="&#xb6;" horiz-adv-x="837" d="M407 0V617H628V0H707V617H805V680H283Q212 680 155 659T66 592T33 471Q33 415 53 375T110 309T194 270T294 257H329V0H407Z" />
<glyph unicode="&#xb7;" horiz-adv-x="167" d="M85 207Q107 207 122 223T137 262Q137 284 122 300T85 316Q61 316 46 301T30 262Q30 240 45 224T85 207Z" />
<glyph unicode="&#xb8;" horiz-adv-x="215" d="M51 -79Q77 -82 97 -89T129 -107T141 -131Q141 -148 124 -156T89 -165Q74 -165 57 -160T29 -150L10 -200Q24 -209 47 -215T89 -221Q119 -221 145 -211T188 -180T205 -129Q205 -111 195 -94T167 -64T127 -48L151 13H88L51
-79Z" />
<glyph unicode="&#xb9;" horiz-adv-x="263" d="M190 336V764H144L10 698L39 650L119 691V336H190Z" />
<glyph unicode="&#xba;" horiz-adv-x="383" d="M190 702Q145 702 110 681T53 622T32 532Q32 479 51 442T106 384T189 363Q236 363 272 383T330 442T351 531Q351 585 331 623T275 681T190 702ZM191 642Q227 642 252 615T277 531Q277 493 264 469T232 434T190 422Q156
422 131 449T105 532Q105 572 118 596T151 631T191 642Z" />
<glyph unicode="&#xbb;" horiz-adv-x="373" d="M188 268L43 407L20 354L126 245L20 136L43 83L188 222V268ZM343 268L199 407L177 354L283 245L177 136L199 83L343 222V268Z" />
<glyph unicode="&#xbc;" horiz-adv-x="772" d="M190 336V764H144L10 698L39 650L119 691V336H190ZM752 -19H672V321H624L372 -19L378 -77H603V-164H672V-77H746L752 -19ZM603 196V-19H445L603 196ZM556 700L50 -134H130L634 700H556Z" />
<glyph unicode="&#xbd;" horiz-adv-x="792" d="M190 336V764H144L10 698L39 650L119 691V336H190ZM608 325Q575 325 547 318T495 302T457 283L485 229Q498 238 517 246T559 261T604 267Q634 267 652 257T678 231T687 198Q687 172 671 142T611 73L460 -57V-110H772L764
-55H548L650 32Q705 80 732 117T759 198Q759 227 744 256T696 305T608 325ZM541 700L35 -134H115L619 700H541Z" />
<glyph unicode="&#xbe;" horiz-adv-x="794" d="M160 771Q114 771 78 758T11 724L39 676Q58 688 86 701T155 714Q197 714 219 695T241 647Q241 623 229 605T191 576T127 565H95L104 510H122Q191 510 220 486T250 418Q250 392 236 374T199 346T148 336Q109 336 84
344T31 369L0 320Q28 305 67 292T148 278Q202 278 240 297T299 348T320 419Q320 451 309 476T278 517T233 539Q254 546 271 561T300 599T312 648Q312 698 274 734T160 771ZM617 700L111 -134H191L695 700H617ZM774 -20H694V320H646L394 -20L400 -78H625V-165H694V-78H768L774
-20ZM625 195V-20H467L625 195Z" />
<glyph unicode="&#xbf;" horiz-adv-x="411" d="M248 523Q271 523 287 539T303 578Q303 600 287 616T248 633Q227 633 211 617T194 578Q194 555 210 539T248 523ZM221 -69Q279 -69 320 -53T401 -11L391 60Q349 31 311 15T223 -2Q168 -2 139 22T109 99Q109 152 158
195T283 264L274 459L217 483L208 305Q154 281 114 247T52 174T30 97Q30 49 50 11T112 -48T221 -69Z" />
<glyph unicode="&#xc0;" horiz-adv-x="609" d="M422 257H180L299 575L422 257ZM262 680L10 0H87L158 193H445L521 -7L599 6L337 680H262ZM296 739L348 754L295 895H208L296 739Z" />
<glyph unicode="&#xc1;" horiz-adv-x="609" d="M422 257H180L299 575L422 257ZM262 680L10 0H87L158 193H445L521 -7L599 6L337 680H262ZM309 739L396 895H310L256 754L309 739Z" />
<glyph unicode="&#xc2;" horiz-adv-x="609" d="M422 257H180L299 575L422 257ZM262 680L10 0H87L158 193H445L521 -7L599 6L337 680H262ZM295 837L369 739L441 749L326 895H263L149 749L220 739L295 837Z" />
<glyph unicode="&#xc3;" horiz-adv-x="609" d="M422 257H180L299 575L422 257ZM262 680L10 0H87L158 193H445L521 -7L599 6L337 680H262ZM384 853Q382 833 372 823T349 813Q336 813 324 819T300 835Q289 847 273 852T236 857Q212 857 192 849T160 819T147 759H202Q204
778 215 788T239 799Q252 799 264 794T290 777Q302 766 317 760T349 754Q374 754 394 763T426 794T438 853H384Z" />
<glyph unicode="&#xc4;" horiz-adv-x="609" d="M422 257H180L299 575L422 257ZM262 680L10 0H87L158 193H445L521 -7L599 6L337 680H262ZM213 764Q234 764 248 778T262 813Q262 832 248 846T213 861Q193 861 179 847T164 813Q164 792 178 778T213 764ZM378 764Q399
764 413 778T427 813Q427 832 413 846T378 861Q358 861 344 847T329 813Q329 792 343 778T378 764Z" />
<glyph unicode="&#xc5;" horiz-adv-x="609" d="M422 257H180L299 575L422 257ZM262 680L10 0H87L158 193H445L521 -7L599 6L337 680H262ZM299 918Q274 918 253 907T218 875T205 829Q205 792 233 768T298 744Q324 744 345 755T378 785T391 829Q391 854 379 874T345
906T299 918ZM299 788Q281 788 269 800T256 829Q256 847 268 859T299 872Q316 872 328 860T341 829Q341 812 329 800T299 788Z" />
<glyph unicode="&#xc6;" horiz-adv-x="875" d="M445 0H855L846 62H525V317H769L760 377H525V620H827L818 680H435L10 4L84 -8L206 193H445V0ZM445 571V257H247L445 571Z" />
<glyph unicode="&#xc7;" horiz-adv-x="556" d="M533 655Q510 669 479 677T416 690T363 694Q289 694 230 667T129 591T65 477T43 336Q43 265 62 202T121 91T220 14T357 -14Q386 -14 419 -9T482 5T534 25L504 84Q476 72 441 63T354 54Q300 54 258 76T186 137T141
228T126 337Q126 422 157 487T242 589T363 626Q397 626 421 623T465 613T508 597L533 655ZM291 -79Q317 -82 337 -89T369 -107T381 -131Q381 -148 364 -156T329 -165Q314 -165 297 -160T269 -150L250 -200Q264 -209 287 -215T329 -221Q359 -221 385 -211T428 -180T445
-129Q445 -111 435 -94T407 -64T367 -48L391 13H328L291 -79Z" />
<glyph unicode="&#xc8;" horiz-adv-x="522" d="M502 0L493 62H171V317H416L407 377H171V620H473L464 680H93V0H502ZM283 739L335 754L282 895H195L283 739Z" />
<glyph unicode="&#xc9;" horiz-adv-x="522" d="M502 0L493 62H171V317H416L407 377H171V620H473L464 680H93V0H502ZM297 739L384 895H298L244 754L297 739Z" />
<glyph unicode="&#xca;" horiz-adv-x="522" d="M502 0L493 62H171V317H416L407 377H171V620H473L464 680H93V0H502ZM282 837L356 739L428 749L313 895H250L136 749L207 739L282 837Z" />
<glyph unicode="&#xcb;" horiz-adv-x="522" d="M502 0L493 62H171V317H416L407 377H171V620H473L464 680H93V0H502ZM200 764Q221 764 235 778T249 813Q249 832 235 846T200 861Q180 861 166 847T151 813Q151 792 165 778T200 764ZM365 764Q386 764 400 778T414
813Q414 832 400 846T365 861Q345 861 331 847T316 813Q316 792 330 778T365 764Z" />
<glyph unicode="&#xcc;" horiz-adv-x="264" d="M171 0V680H93V0H171ZM130 739L182 754L129 895H42L130 739Z" />
<glyph unicode="&#xcd;" horiz-adv-x="264" d="M171 0V680H93V0H171ZM144 739L231 895H145L91 754L144 739Z" />
<glyph unicode="&#xce;" horiz-adv-x="264" d="M171 0V680H93V0H171ZM385 837L459 739L531 749L416 895H353L239 749L310 739L385 837Z" />
<glyph unicode="&#xcf;" horiz-adv-x="264" d="M171 0V680H93V0H171ZM303 764Q324 764 338 778T352 813Q352 832 338 846T303 861Q283 861 269 847T254 813Q254 792 268 778T303 764ZM468 764Q489 764 503 778T517 813Q517 832 503 846T468 861Q448 861 434 847T419
813Q419 792 433 778T468 764Z" />
<glyph unicode="&#xd0;" horiz-adv-x="671" d="M282 305L273 367H20L29 305H282ZM324 0Q424 0 491 45T594 169T629 344Q629 439 598 515T502 635T331 680H93V0H324ZM334 612Q408 612 455 577T526 482T550 343Q550 257 522 195T443 100T325 66H171V612H334Z" />
<glyph unicode="&#xd1;" horiz-adv-x="700" d="M171 0V533L197 489L544 0H607V680H527V153L486 220L155 680H93V0H171ZM437 853Q435 833 425 823T402 813Q389 813 377 819T353 835Q342 847 326 852T289 857Q265 857 245 849T213 819T200 759H255Q257 778 268 788T292
799Q305 799 317 794T343 777Q355 766 370 760T402 754Q427 754 447 763T479 794T491 853H437Z" />
<glyph unicode="&#xd2;" horiz-adv-x="725" d="M360 -14Q268 -14 196 31T84 155T43 337Q43 439 84 519T198 647T364 696Q456 696 528 651T641 526T682 345Q682 243 641 162T527 35T360 -14ZM358 55Q428 55 482 92T567 194T598 344Q598 426 568 490T486 590T366
626Q296 626 242 589T157 487T126 338Q126 256 156 192T238 92T358 55ZM360 739L412 754L359 895H272L360 739Z" />
<glyph unicode="&#xd3;" horiz-adv-x="725" d="M360 -14Q268 -14 196 31T84 155T43 337Q43 439 84 519T198 647T364 696Q456 696 528 651T641 526T682 345Q682 243 641 162T527 35T360 -14ZM358 55Q428 55 482 92T567 194T598 344Q598 426 568 490T486 590T366
626Q296 626 242 589T157 487T126 338Q126 256 156 192T238 92T358 55ZM374 739L461 895H375L321 754L374 739Z" />
<glyph unicode="&#xd4;" horiz-adv-x="725" d="M360 -14Q268 -14 196 31T84 155T43 337Q43 439 84 519T198 647T364 696Q456 696 528 651T641 526T682 345Q682 243 641 162T527 35T360 -14ZM358 55Q428 55 482 92T567 194T598 344Q598 426 568 490T486 590T366
626Q296 626 242 589T157 487T126 338Q126 256 156 192T238 92T358 55ZM359 837L433 739L505 749L390 895H327L213 749L284 739L359 837Z" />
<glyph unicode="&#xd5;" horiz-adv-x="725" d="M360 -14Q268 -14 196 31T84 155T43 337Q43 439 84 519T198 647T364 696Q456 696 528 651T641 526T682 345Q682 243 641 162T527 35T360 -14ZM358 55Q428 55 482 92T567 194T598 344Q598 426 568 490T486 590T366
626Q296 626 242 589T157 487T126 338Q126 256 156 192T238 92T358 55ZM448 853Q446 833 436 823T413 813Q400 813 388 819T364 835Q353 847 337 852T300 857Q276 857 256 849T224 819T211 759H266Q268 778 279 788T303 799Q316 799 328 794T354 777Q366 766 381
760T413 754Q438 754 458 763T490 794T502 853H448Z" />
<glyph unicode="&#xd6;" horiz-adv-x="725" d="M360 -14Q268 -14 196 31T84 155T43 337Q43 439 84 519T198 647T364 696Q456 696 528 651T641 526T682 345Q682 243 641 162T527 35T360 -14ZM358 55Q428 55 482 92T567 194T598 344Q598 426 568 490T486 590T366
626Q296 626 242 589T157 487T126 338Q126 256 156 192T238 92T358 55ZM277 764Q298 764 312 778T326 813Q326 832 312 846T277 861Q257 861 243 847T228 813Q228 792 242 778T277 764ZM442 764Q463 764 477 778T491 813Q491 832 477 846T442 861Q422 861 408 847T393
813Q393 792 407 778T442 764Z" />
<glyph unicode="&#xd7;" horiz-adv-x="508" d="M292 248L462 30H381L254 194L110 30H30L216 251L46 469H127L254 305L398 469H478L292 248Z" />
<glyph unicode="&#xd8;" horiz-adv-x="725" d="M360 -14Q268 -14 196 31T84 155T43 337Q43 439 84 519T198 647T364 696Q456 696 528 651T641 526T682 345Q682 243 641 162T527 35T360 -14ZM358 55Q428 55 482 92T567 194T598 344Q598 426 568 490T486 590T366
626Q296 626 242 589T157 487T126 338Q126 256 156 192T238 92T358 55ZM273 39L209 70L449 628L513 588L273 39Z" />
<glyph unicode="&#xd9;" horiz-adv-x="681" d="M161 680H83V241Q83 169 114 112T204 22T341 -11Q421 -11 478 22T567 112T599 241V680H519V250Q519 193 498 149T436 79T341 54Q287 54 247 79T184 148T161 250V680ZM337 739L389 754L336 895H249L337 739Z" />
<glyph unicode="&#xda;" horiz-adv-x="681" d="M161 680H83V241Q83 169 114 112T204 22T341 -11Q421 -11 478 22T567 112T599 241V680H519V250Q519 193 498 149T436 79T341 54Q287 54 247 79T184 148T161 250V680ZM351 739L438 895H352L298 754L351 739Z" />
<glyph unicode="&#xdb;" horiz-adv-x="681" d="M161 680H83V241Q83 169 114 112T204 22T341 -11Q421 -11 478 22T567 112T599 241V680H519V250Q519 193 498 149T436 79T341 54Q287 54 247 79T184 148T161 250V680ZM336 837L410 739L482 749L367 895H304L190 749L261
739L336 837Z" />
<glyph unicode="&#xdc;" horiz-adv-x="681" d="M161 680H83V241Q83 169 114 112T204 22T341 -11Q421 -11 478 22T567 112T599 241V680H519V250Q519 193 498 149T436 79T341 54Q287 54 247 79T184 148T161 250V680ZM254 764Q275 764 289 778T303 813Q303 832 289
846T254 861Q234 861 220 847T205 813Q205 792 219 778T254 764ZM419 764Q440 764 454 778T468 813Q468 832 454 846T419 861Q399 861 385 847T370 813Q370 792 384 778T419 764Z" />
<glyph unicode="&#xdd;" horiz-adv-x="563" d="M314 0L315 277L553 680H468L275 351L84 696L10 664L235 273V0H314ZM285 739L372 895H286L232 754L285 739Z" />
<glyph unicode="&#xde;" horiz-adv-x="562" d="M278 600Q349 600 406 579T496 512T529 391Q529 336 508 295T451 228T368 190T267 177H171V0H93V680H171V600H278ZM270 244Q320 244 360 258T423 305T448 389Q448 444 427 475T368 519T278 533H171V244H270Z" />
<glyph unicode="&#xdf;" horiz-adv-x="575" d="M73 0H152V472Q152 516 168 548T215 599T291 618Q343 618 380 590T418 501Q418 444 382 414T265 384H236V320H294Q366 320 411 289T456 189Q456 143 433 116T371 78T284 66H223V0H284Q356 0 413 19T503 79T537 190Q537
234 521 267T478 324T415 360Q441 373 460 394T489 444T499 504Q499 565 471 605T395 665T291 686Q226 686 177 661T100 589T73 473V0Z" />
<glyph unicode="&#xe0;" horiz-adv-x="488" d="M123 138Q123 176 148 204T223 233H350V122Q325 93 290 72T213 51Q182 51 162 64T133 97T123 138ZM104 396Q131 407 163 418T243 429Q301 429 325 396T350 313V286H225Q147 286 98 248T49 138Q49 74 90 31T216 -12Q256
-12 296 7T360 49L370 0H430V334Q430 382 406 419T340 477T241 498Q221 498 190 493T130 478T81 455L104 396ZM241 589L293 604L240 745H153L241 589Z" />
<glyph unicode="&#xe1;" horiz-adv-x="488" d="M123 138Q123 176 148 204T223 233H350V122Q325 93 290 72T213 51Q182 51 162 64T133 97T123 138ZM104 396Q131 407 163 418T243 429Q301 429 325 396T350 313V286H225Q147 286 98 248T49 138Q49 74 90 31T216 -12Q256
-12 296 7T360 49L370 0H430V334Q430 382 406 419T340 477T241 498Q221 498 190 493T130 478T81 455L104 396ZM241 589L328 745H242L188 604L241 589Z" />
<glyph unicode="&#xe2;" horiz-adv-x="488" d="M123 138Q123 176 148 204T223 233H350V122Q325 93 290 72T213 51Q182 51 162 64T133 97T123 138ZM104 396Q131 407 163 418T243 429Q301 429 325 396T350 313V286H225Q147 286 98 248T49 138Q49 74 90 31T216 -12Q256
-12 296 7T360 49L370 0H430V334Q430 382 406 419T340 477T241 498Q221 498 190 493T130 478T81 455L104 396ZM242 687L316 589L388 599L273 745H210L96 599L167 589L242 687Z" />
<glyph unicode="&#xe3;" horiz-adv-x="488" d="M123 138Q123 176 148 204T223 233H350V122Q325 93 290 72T213 51Q182 51 162 64T133 97T123 138ZM104 396Q131 407 163 418T243 429Q301 429 325 396T350 313V286H225Q147 286 98 248T49 138Q49 74 90 31T216 -12Q256
-12 296 7T360 49L370 0H430V334Q430 382 406 419T340 477T241 498Q221 498 190 493T130 478T81 455L104 396ZM329 703Q327 683 317 673T294 663Q281 663 269 669T245 685Q234 697 218 702T181 707Q157 707 137 699T105 669T92 609H147Q149 628 160 638T184 649Q197
649 209 644T235 627Q247 616 262 610T294 604Q319 604 339 613T371 644T383 703H329Z" />
<glyph unicode="&#xe4;" horiz-adv-x="488" d="M123 138Q123 176 148 204T223 233H350V122Q325 93 290 72T213 51Q182 51 162 64T133 97T123 138ZM104 396Q131 407 163 418T243 429Q301 429 325 396T350 313V286H225Q147 286 98 248T49 138Q49 74 90 31T216 -12Q256
-12 296 7T360 49L370 0H430V334Q430 382 406 419T340 477T241 498Q221 498 190 493T130 478T81 455L104 396ZM154 614Q175 614 189 628T203 663Q203 682 189 696T154 711Q134 711 120 697T105 663Q105 642 119 628T154 614ZM319 614Q340 614 354 628T368 663Q368
682 354 696T319 711Q299 711 285 697T270 663Q270 642 284 628T319 614Z" />
<glyph unicode="&#xe5;" horiz-adv-x="488" d="M123 138Q123 176 148 204T223 233H350V122Q325 93 290 72T213 51Q182 51 162 64T133 97T123 138ZM104 396Q131 407 163 418T243 429Q301 429 325 396T350 313V286H225Q147 286 98 248T49 138Q49 74 90 31T216 -12Q256
-12 296 7T360 49L370 0H430V334Q430 382 406 419T340 477T241 498Q221 498 190 493T130 478T81 455L104 396ZM244 768Q219 768 198 757T163 725T150 679Q150 642 178 618T243 594Q269 594 290 605T323 635T336 679Q336 704 324 724T290 756T244 768ZM244 638Q226
638 214 650T201 679Q201 697 213 709T244 722Q261 722 273 710T286 679Q286 662 274 650T244 638Z" />
<glyph unicode="&#xe6;" horiz-adv-x="814" d="M782 230H430Q433 179 450 139T505 76T601 53Q644 53 678 64T751 95L776 38Q752 25 726 13T669 -5T603 -12Q533 -12 482 11T400 75Q383 56 358 36T298 2T216 -12Q131 -12 90 31T49 138Q49 209 98 247T225 286H350V312Q350
362 326 395T243 429Q196 429 164 418T104 396L81 455Q100 468 129 477T190 492T241 498Q295 498 337 478T403 421Q431 457 475 477T574 498Q648 498 694 464T761 370T782 239V230ZM432 284H704Q699 328 684 361T642 412T572 431Q529 431 500 413T454 361T432 284ZM349
233H223Q191 233 169 220T135 185T123 138Q123 118 132 98T162 64T213 51Q258 51 286 63T334 94T367 132Q359 155 355 180T349 233Z" />
<glyph unicode="&#xe7;" horiz-adv-x="458" d="M401 87Q373 73 344 64T266 54Q216 54 182 79T130 147T113 245Q114 297 132 339T186 406T270 431Q317 431 347 421T405 398L429 453Q409 467 380 477T321 492T272 498Q199 498 145 466T63 376T33 244Q33 168 61 110T141
20T267 -13Q288 -13 317 -8T375 8T426 31L401 87ZM202 -79Q228 -82 248 -89T280 -107T292 -131Q292 -148 275 -156T240 -165Q225 -165 208 -160T180 -150L161 -200Q175 -209 198 -215T240 -221Q270 -221 296 -211T339 -180T356 -129Q356 -111 346 -94T318 -64T278
-48L302 13H239L202 -79Z" />
<glyph unicode="&#xe8;" horiz-adv-x="499" d="M466 230V237Q466 310 445 369T378 463T259 498Q187 498 137 466T60 376T33 244Q33 168 61 110T145 20T287 -12Q323 -12 353 -6T410 12T460 37L434 95Q396 76 362 65T286 53Q226 53 189 76T135 139T114 230H466ZM116
284Q121 328 137 361T183 412T256 431Q298 431 325 413T368 361T388 284H116ZM254 589L306 604L253 745H166L254 589Z" />
<glyph unicode="&#xe9;" horiz-adv-x="499" d="M466 230V237Q466 310 445 369T378 463T259 498Q187 498 137 466T60 376T33 244Q33 168 61 110T145 20T287 -12Q323 -12 353 -6T410 12T460 37L434 95Q396 76 362 65T286 53Q226 53 189 76T135 139T114 230H466ZM116
284Q121 328 137 361T183 412T256 431Q298 431 325 413T368 361T388 284H116ZM255 589L342 745H256L202 604L255 589Z" />
<glyph unicode="&#xea;" horiz-adv-x="499" d="M466 230V237Q466 310 445 369T378 463T259 498Q187 498 137 466T60 376T33 244Q33 168 61 110T145 20T287 -12Q323 -12 353 -6T410 12T460 37L434 95Q396 76 362 65T286 53Q226 53 189 76T135 139T114 230H466ZM116
284Q121 328 137 361T183 412T256 431Q298 431 325 413T368 361T388 284H116ZM255 687L329 589L401 599L286 745H223L109 599L180 589L255 687Z" />
<glyph unicode="&#xeb;" horiz-adv-x="499" d="M466 230V237Q466 310 445 369T378 463T259 498Q187 498 137 466T60 376T33 244Q33 168 61 110T145 20T287 -12Q323 -12 353 -6T410 12T460 37L434 95Q396 76 362 65T286 53Q226 53 189 76T135 139T114 230H466ZM116
284Q121 328 137 361T183 412T256 431Q298 431 325 413T368 361T388 284H116ZM168 614Q189 614 203 628T217 663Q217 682 203 696T168 711Q148 711 134 697T119 663Q119 642 133 628T168 614ZM333 614Q354 614 368 628T382 663Q382 682 368 696T333 711Q313 711
299 697T284 663Q284 642 298 628T333 614Z" />
<glyph unicode="&#xec;" horiz-adv-x="205" d="M143 0V485H63V0H143ZM100 589L152 604L99 745H12L100 589Z" />
<glyph unicode="&#xed;" horiz-adv-x="205" d="M143 0V485H63V0H143ZM100 589L187 745H101L47 604L100 589Z" />
<glyph unicode="&#xee;" horiz-adv-x="205" d="M143 0V485H63V0H143ZM357 687L431 589L503 599L388 745H325L211 599L282 589L357 687Z" />
<glyph unicode="&#xef;" horiz-adv-x="205" d="M143 0V485H63V0H143ZM269 614Q290 614 304 628T318 663Q318 682 304 696T269 711Q249 711 235 697T220 663Q220 642 234 628T269 614ZM434 614Q455 614 469 628T483 663Q483 682 469 696T434 711Q414 711 400 697T385
663Q385 642 399 628T434 614Z" />
<glyph unicode="&#xf0;" horiz-adv-x="536" d="M504 246Q504 330 481 406T411 546T290 662T115 750L91 694Q193 654 257 604T358 496T408 374T423 240Q423 188 405 146T351 79T266 54Q216 54 182 79T130 147T113 245Q114 297 132 339T186 406T270 431Q305 431
334 422T385 395T425 355L464 386Q443 419 413 444T347 483T271 498Q198 498 145 465T63 375T33 244Q33 168 60 111T140 20T264 -13Q341 -13 394 21T475 113T504 246ZM114 554L387 693L358 742L83 606L114 554Z" />
<glyph unicode="&#xf1;" horiz-adv-x="529" d="M141 0V344Q165 369 193 388T250 420T304 432Q354 432 372 400T391 318V0H470V328Q470 378 454 416T405 477T318 500Q286 500 252 489T188 459T135 416L121 485H63V0H141ZM360 703Q358 683 348 673T325 663Q312 663
300 669T276 685Q265 697 249 702T212 707Q188 707 168 699T136 669T123 609H178Q180 628 191 638T215 649Q228 649 240 644T266 627Q278 616 293 610T325 604Q350 604 370 613T402 644T414 703H360Z" />
<glyph unicode="&#xf2;" horiz-adv-x="536" d="M264 -13Q192 -14 140 19T61 110T33 244Q34 318 62 375T144 465T271 498Q344 498 396 466T476 377T504 241Q504 167 475 110T392 20T264 -13ZM266 54Q316 54 351 79T404 146T423 240Q423 295 406 338T355 406T270
431Q221 431 186 406T133 339T113 245Q113 191 130 148T181 79T266 54ZM266 589L318 604L265 745H178L266 589Z" />
<glyph unicode="&#xf3;" horiz-adv-x="536" d="M264 -13Q192 -14 140 19T61 110T33 244Q34 318 62 375T144 465T271 498Q344 498 396 466T476 377T504 241Q504 167 475 110T392 20T264 -13ZM266 54Q316 54 351 79T404 146T423 240Q423 295 406 338T355 406T270
431Q221 431 186 406T133 339T113 245Q113 191 130 148T181 79T266 54ZM267 589L354 745H268L214 604L267 589Z" />
<glyph unicode="&#xf4;" horiz-adv-x="536" d="M264 -13Q192 -14 140 19T61 110T33 244Q34 318 62 375T144 465T271 498Q344 498 396 466T476 377T504 241Q504 167 475 110T392 20T264 -13ZM266 54Q316 54 351 79T404 146T423 240Q423 295 406 338T355 406T270
431Q221 431 186 406T133 339T113 245Q113 191 130 148T181 79T266 54ZM266 687L340 589L412 599L297 745H234L120 599L191 589L266 687Z" />
<glyph unicode="&#xf5;" horiz-adv-x="536" d="M264 -13Q192 -14 140 19T61 110T33 244Q34 318 62 375T144 465T271 498Q344 498 396 466T476 377T504 241Q504 167 475 110T392 20T264 -13ZM266 54Q316 54 351 79T404 146T423 240Q423 295 406 338T355 406T270
431Q221 431 186 406T133 339T113 245Q113 191 130 148T181 79T266 54ZM354 703Q352 683 342 673T319 663Q306 663 294 669T270 685Q259 697 243 702T206 707Q182 707 162 699T130 669T117 609H172Q174 628 185 638T209 649Q222 649 234 644T260 627Q272 616 287
610T319 604Q344 604 364 613T396 644T408 703H354Z" />
<glyph unicode="&#xf6;" horiz-adv-x="536" d="M264 -13Q192 -14 140 19T61 110T33 244Q34 318 62 375T144 465T271 498Q344 498 396 466T476 377T504 241Q504 167 475 110T392 20T264 -13ZM266 54Q316 54 351 79T404 146T423 240Q423 295 406 338T355 406T270
431Q221 431 186 406T133 339T113 245Q113 191 130 148T181 79T266 54ZM179 614Q200 614 214 628T228 663Q228 682 214 696T179 711Q159 711 145 697T130 663Q130 642 144 628T179 614ZM344 614Q365 614 379 628T393 663Q393 682 379 696T344 711Q324 711 310 697T295
663Q295 642 309 628T344 614Z" />
<glyph unicode="&#xf7;" horiz-adv-x="500" d="M250 360Q275 360 292 378T310 421Q310 447 293 464T250 482Q223 482 206 465T188 421Q188 397 205 379T250 360ZM462 305H30L39 241H470L462 305ZM251 48Q277 48 295 66T313 111Q313 136 295 154T251 172Q225 172
208 154T190 111Q190 85 207 67T251 48Z" />
<glyph unicode="&#xf8;" horiz-adv-x="543" d="M264 -13Q192 -14 140 19T61 110T33 244Q34 318 62 375T144 465T271 498Q344 498 396 466T476 377T504 241Q504 167 475 110T392 20T264 -13ZM266 54Q316 54 351 79T404 146T423 240Q423 295 406 338T355 406T270
431Q221 431 186 406T133 339T113 245Q113 191 130 148T181 79T266 54ZM205 29L143 62L347 449L404 409L205 29Z" />
<glyph unicode="&#xf9;" horiz-adv-x="529" d="M387 485V142Q365 118 336 98T279 66T224 54Q175 54 156 86T137 168V485H59V157Q59 108 74 69T124 8T211 -14Q243 -14 276 -3T340 27T393 70L407 0H466V485H387ZM256 589L308 604L255 745H168L256 589Z" />
<glyph unicode="&#xfa;" horiz-adv-x="529" d="M387 485V142Q365 118 336 98T279 66T224 54Q175 54 156 86T137 168V485H59V157Q59 108 74 69T124 8T211 -14Q243 -14 276 -3T340 27T393 70L407 0H466V485H387ZM256 589L343 745H257L203 604L256 589Z" />
<glyph unicode="&#xfb;" horiz-adv-x="529" d="M387 485V142Q365 118 336 98T279 66T224 54Q175 54 156 86T137 168V485H59V157Q59 108 74 69T124 8T211 -14Q243 -14 276 -3T340 27T393 70L407 0H466V485H387ZM256 687L330 589L402 599L287 745H224L110 599L181
589L256 687Z" />
<glyph unicode="&#xfc;" horiz-adv-x="529" d="M387 485V142Q365 118 336 98T279 66T224 54Q175 54 156 86T137 168V485H59V157Q59 108 74 69T124 8T211 -14Q243 -14 276 -3T340 27T393 70L407 0H466V485H387ZM169 614Q190 614 204 628T218 663Q218 682 204 696T169
711Q149 711 135 697T120 663Q120 642 134 628T169 614ZM334 614Q355 614 369 628T383 663Q383 682 369 696T334 711Q314 711 300 697T285 663Q285 642 299 628T334 614Z" />
<glyph unicode="&#xfd;" horiz-adv-x="455" d="M159 -79Q151 -101 136 -116T101 -141T57 -163L81 -220Q116 -212 146 -196T198 -155T232 -100L445 485H366L227 110L80 500L10 470L190 3L159 -79ZM221 589L308 745H222L168 604L221 589Z" />
<glyph unicode="&#xfe;" horiz-adv-x="524" d="M261 498Q334 498 386 466T465 376T492 241Q492 167 464 110T383 20T258 -13Q231 -13 202 -3T147 25V-208L69 -219V695L147 706V460Q174 478 204 488T261 498ZM260 54Q310 54 343 79T394 146T411 240Q411 296 395
339T346 406T262 431Q225 431 198 419T147 385V96Q170 78 196 66T260 54Z" />
<glyph unicode="&#xff;" horiz-adv-x="455" d="M159 -79Q151 -101 136 -116T101 -141T57 -163L81 -220Q116 -212 146 -196T198 -155T232 -100L445 485H366L227 110L80 500L10 470L190 3L159 -79ZM133 614Q154 614 168 628T182 663Q182 682 168 696T133 711Q113
711 99 697T84 663Q84 642 98 628T133 614ZM298 614Q319 614 333 628T347 663Q347 682 333 696T298 711Q278 711 264 697T249 663Q249 642 263 628T298 614Z" />
<glyph unicode="&#x2013;" horiz-adv-x="440" d="M401 304H30L39 241H410L401 304Z" />
<glyph unicode="&#x2014;" horiz-adv-x="538" d="M499 304H30L39 241H508L499 304Z" />
<glyph unicode="&#x2018;" horiz-adv-x="172" d="M84 484Q100 484 112 492T131 512T138 538Q138 558 125 574T92 592Q94 619 111 637T152 673L131 712Q104 698 81 672T44 612T30 547Q30 519 45 502T84 484Z" />
<glyph unicode="&#x2019;" horiz-adv-x="172" d="M88 712Q73 712 61 704T41 684T33 657Q33 645 39 633T56 613T79 604Q75 576 59 557T20 521L41 484Q69 499 92 525T128 584T142 649Q142 677 126 694T88 712Z" />
<glyph unicode="&#x201a;" horiz-adv-x="172" d="M88 107Q73 107 61 100T41 81T33 54Q33 41 39 29T56 10T79 1Q75 -27 59 -46T20 -83L41 -120Q69 -104 92 -78T128 -20T142 44Q142 73 126 90T88 107Z" />
<glyph unicode="&#x201c;" horiz-adv-x="329" d="M84 484Q100 484 112 492T131 512T138 538Q138 558 125 574T92 592Q94 619 111 637T152 673L131 712Q104 698 81 672T44 612T30 547Q30 519 45 502T84 484ZM240 484Q255 484 267 492T287 512T295 538Q295 551 289
563T272 583T249 592Q252 619 268 637T309 673L288 712Q260 698 237 672T200 612T187 547Q187 519 202 502T240 484Z" />
<glyph unicode="&#x201d;" horiz-adv-x="328" d="M244 712Q229 712 217 704T198 684T190 657Q190 637 203 621T236 604Q232 576 216 557T176 521L197 484Q226 499 248 525T284 584T298 649Q298 677 282 694T244 712ZM88 712Q73 712 61 704T41 684T33 657Q33 645
39 633T56 613T79 604Q75 576 59 557T20 521L41 484Q69 499 92 525T128 584T142 649Q142 677 126 694T88 712Z" />
<glyph unicode="&#x201e;" horiz-adv-x="328" d="M88 107Q73 107 61 100T41 81T33 54Q33 41 39 29T56 10T79 1Q75 -27 59 -45T20 -82L41 -120Q69 -104 92 -78T128 -20T142 44Q142 73 126 90T88 107ZM244 107Q229 107 217 100T198 81T190 54Q190 34 203 18T236
1Q232 -27 216 -46T176 -83L197 -120Q226 -104 248 -78T284 -20T298 44Q298 73 282 90T244 107Z" />
<glyph unicode="&#x2022;" horiz-adv-x="237" d="M119 239Q144 239 163 251T195 283T207 327Q207 352 195 372T164 404T118 416Q94 416 74 404T42 372T30 327Q30 303 42 283T74 251T119 239Z" />
<glyph unicode="&#x2039;" horiz-adv-x="217" d="M30 221L175 83L197 139L95 245L197 351L175 408L30 269V221Z" />
<glyph unicode="&#x203a;" horiz-adv-x="218" d="M188 269L43 408L20 351L123 245L20 139L43 83L188 221V269Z" />
</font>
</defs>
</svg>
