<?xml version="1.0" standalone="no"?>
<!DOCTYPE svg PUBLIC "-//W3C//DTD SVG 1.1//EN" "http://www.w3.org/Graphics/SVG/1.1/DTD/svg11.dtd">
<svg xmlns="http://www.w3.org/2000/svg">
<defs >
<font id="Catamaran" horiz-adv-x="583" ><font-face
    font-family="Catamaran Thin Medium"
    units-per-em="1000"
    panose-1="0 0 0 0 0 0 0 0 0 0"
    ascent="1100"
    descent="-540"
    alphabetic="0" />
<glyph unicode=" " horiz-adv-x="230" />
<glyph unicode="!" horiz-adv-x="181" d="M55 230L128 196L143 702H38L55 230ZM91 120Q66 120 48 103T30 60Q30 35 48 18T91 0Q116 0 133 17T151 61Q151 85 134 102T91 120Z" />
<glyph unicode="&quot;" horiz-adv-x="350" d="M259 722Q243 722 229 713T207 690T198 661Q198 639 213 621T248 601Q243 572 227 553T185 515L209 470Q241 487 266 516T305 580T320 650Q320 682 302 702T259 722ZM93 722Q77 722 63 713T41 690T32 661Q32 647
39 633T58 611T81 601Q77 572 61 553T20 515L43 470Q75 487 100 516T140 580T155 650Q155 682 137 702T93 722Z" />
<glyph unicode="#" horiz-adv-x="540" d="M393 511L365 389H237L266 509L185 511L156 389H30L39 316H138L110 194H30L39 121H93L65 -2L145 -7L175 121H303L275 -2L355 -7L384 121H510L502 194H401L430 316H510L502 389H447L475 509L393 511ZM348 316L319 194H192L221
316H348Z" />
<glyph unicode="$" horiz-adv-x="518" d="M166 -119V-4Q142 1 119 7T79 21T52 37L74 113Q93 104 120 94T180 77T242 70Q291 70 324 82T374 116T391 168Q391 202 371 226T311 272T216 318Q172 338 139 357T84 400T51 452T40 520Q40 575 73 618T166 681V794L233
804V695Q240 695 247 695T263 696Q271 696 279 696T295 694V794L363 804V682Q386 675 406 667T443 651L411 575Q394 584 374 592T328 605T270 611Q213 611 175 589T136 522Q136 488 155 464T214 418T312 369Q354 350 386 331T441 288T476 236T488 170Q488 113 456
70T363 6V-119H295V-10Q283 -11 270 -12T243 -13H233V-119H166Z" />
<glyph unicode="%" horiz-adv-x="885" d="M545 710L242 0L337 -4L640 706L545 710ZM191 702Q149 702 112 681T53 622T30 532Q30 479 52 441T110 383T191 363Q234 363 270 383T329 442T352 532Q352 586 331 624T273 682T191 702ZM191 629Q221 629 243 606T266 532Q266
498 255 477T227 445T191 435Q160 435 138 458T116 533Q116 567 127 588T155 619T191 629ZM696 338Q653 338 616 318T557 259T535 169Q535 115 556 77T615 20T696 0Q738 0 774 20T833 79T855 169Q855 223 834 261T776 318T696 338ZM696 266Q725 266 747 242T770
169Q770 135 759 114T732 82T696 71Q665 71 643 95T620 170Q620 204 631 225T660 256T696 266Z" />
<glyph unicode="&amp;" horiz-adv-x="673" d="M442 127Q416 101 380 87T300 72Q260 72 223 87T163 133T139 215Q140 257 157 292T203 350Q212 340 223 329T246 306L442 127ZM589 -8L643 61L562 134Q583 175 595 224T610 330L528 362Q525 315 516 274T490 198L305
370Q274 399 253 421T222 467T211 518Q211 543 223 564T257 599T311 613Q358 613 388 601T446 575L479 651Q444 668 402 682T310 696Q249 696 205 671T138 604T114 512Q114 482 122 458T144 413Q98 380 70 327T40 213Q40 139 75 89T169 14T300 -12Q369 -12 420
8T510 65L589 -8Z" />
<glyph unicode="&apos;" horiz-adv-x="185" d="M93 722Q77 722 63 713T41 690T32 661Q32 647 39 633T58 611T81 601Q77 572 61 553T20 515L43 470Q75 487 100 516T140 580T155 650Q155 682 137 702T93 722Z" />
<glyph unicode="(" horiz-adv-x="279" d="M249 -10Q228 14 209 54T174 142T150 237T141 321Q141 357 149 403T173 496T208 583T249 651L173 678Q132 623 105 562T64 440T50 320Q50 260 64 198T105 75T173 -38L249 -10Z" />
<glyph unicode=")" horiz-adv-x="279" d="M30 650Q51 626 70 586T105 498T128 404T137 320Q137 284 129 238T105 145T71 57T30 -11L106 -38Q146 18 173 78T215 200T229 320Q229 380 215 442T174 565T106 678L30 650Z" />
<glyph unicode="*" horiz-adv-x="363" d="M219 770H144L142 663L31 687L10 622L122 600L44 489L101 446L182 554L262 446L319 489L241 600L353 622L332 687L220 663L219 770Z" />
<glyph unicode="+" horiz-adv-x="537" d="M497 311H315V531L226 534V311H30L38 236H226V8L315 4V236H507L497 311Z" />
<glyph unicode="," horiz-adv-x="185" d="M93 120Q77 120 63 112T41 90T33 60Q33 46 40 32T59 10T82 0Q78 -29 62 -48T20 -86L43 -131Q75 -114 100 -85T140 -21T155 48Q155 81 137 100T93 120Z" />
<glyph unicode="-" horiz-adv-x="324" d="M284 311H30L39 235H294L284 311Z" />
<glyph unicode="." horiz-adv-x="180" d="M92 0Q117 0 133 17T150 61Q150 86 134 103T92 120Q65 120 48 103T30 60Q30 35 47 18T92 0Z" />
<glyph unicode="/" horiz-adv-x="419" d="M313 710L10 0L105 -4L409 706L313 710Z" />
<glyph unicode="0" horiz-adv-x="597" d="M30 286Q30 200 65 132T160 26T299 -13Q377 -13 438 26T533 133T567 288Q567 373 533 438T438 541T299 579Q221 579 161 541T65 437T30 286ZM122 289Q122 350 145 396T208 470T299 497Q351 497 391 470T453 394T476 284Q476
222 454 173T391 97T299 69Q248 69 208 97T145 175T122 289Z" />
<glyph unicode="1" horiz-adv-x="325" d="M255 0V566H191L10 478L54 402L159 458V0H255Z" />
<glyph unicode="2" horiz-adv-x="481" d="M219 579Q152 579 109 562T38 527L61 450Q79 460 101 472T153 492T218 501Q274 501 308 478T342 405Q342 379 330 354T294 304T236 248L25 63V0H461L443 74H154L281 180Q341 230 373 269T417 345T430 418Q430 470 404
506T331 560T219 579Z" />
<glyph unicode="3" horiz-adv-x="470" d="M218 579Q158 579 108 561T15 514L61 450Q86 467 126 484T215 501Q251 501 277 488T317 455T331 409Q331 362 289 334T175 305H125L139 232H169Q261 232 302 199T343 112Q343 78 323 53T272 15T206 2Q157 2 122 13T49
47L0 -19Q40 -40 94 -58T204 -76Q275 -76 326 -51T406 16T435 113Q435 155 420 188T379 242T325 270Q351 280 373 300T409 349T423 411Q423 455 401 493T332 555T218 579Z" />
<glyph unicode="4" horiz-adv-x="536" d="M516 145H411V571H342L10 145L23 66H315V-69H411V66H505L516 145ZM315 409V145H113L315 409Z" />
<glyph unicode="5" horiz-adv-x="501" d="M157 218Q168 232 195 249T260 266Q312 266 345 233T379 138Q379 76 339 40T236 4Q186 4 151 15T78 48L30 -19Q57 -33 90 -46T159 -68T232 -76Q308 -76 361 -48T443 29T471 138Q471 194 448 240T377 315T255 343Q231 343
207 337T161 317L169 487H423L434 566H84L68 218H157Z" />
<glyph unicode="6" horiz-adv-x="520" d="M69 285L94 218Q118 242 145 263T203 297T268 310Q309 310 338 295T384 251T401 185Q401 151 385 125T339 83T270 67Q230 67 197 88T143 153T122 261Q122 318 140 362T190 440T261 497T342 536T423 558L405 634Q357 628
305 609T204 558T116 482T53 380T30 252Q30 165 62 106T149 17T274 -13Q337 -13 386 13T462 85T490 190Q490 249 463 293T386 362T271 387Q227 387 192 373T128 336T69 285Z" />
<glyph unicode="7" horiz-adv-x="451" d="M218 -69L431 525L401 566H10L22 487H322L128 -42L218 -69Z" />
<glyph unicode="8" horiz-adv-x="515" d="M258 643Q194 643 149 620T81 558T57 474Q57 428 84 393T154 339Q122 331 94 306T48 246T30 177Q30 125 56 82T134 13T258 -13Q331 -13 381 13T458 82T485 177Q485 215 468 249T422 307T361 339Q387 351 409 371T445 417T459
474Q459 519 436 557T367 619T258 643ZM256 565Q310 565 339 538T369 473Q369 449 357 428T319 393T258 372Q204 380 175 408T146 473Q146 497 159 518T197 552T256 565ZM258 302Q326 292 360 257T395 175Q395 141 376 117T326 79T258 65Q221 65 190 78T139 116T120
175Q120 221 154 256T258 302Z" />
<glyph unicode="9" horiz-adv-x="520" d="M451 281L426 348Q403 324 376 303T317 269T252 256Q212 256 182 271T136 315T119 381Q119 415 135 441T182 483T250 499Q290 499 323 478T377 413T398 304Q398 248 380 204T330 126T259 69T178 31T97 8L115 -68Q163 -62
215 -43T316 8T404 84T467 186T490 314Q490 402 458 460T371 549T246 579Q183 579 135 553T58 481T30 376Q30 318 57 274T134 204T249 179Q294 179 328 193T392 230T451 281Z" />
<glyph unicode=":" horiz-adv-x="180" d="M90 341Q115 341 132 359T150 401Q150 426 132 444T90 462Q65 462 48 444T30 401Q30 376 47 359T90 341ZM90 18Q115 18 132 35T150 78Q150 104 132 121T90 139Q65 139 48 122T30 79Q30 53 47 36T90 18Z" />
<glyph unicode=";" horiz-adv-x="186" d="M96 341Q121 341 138 358T156 401Q156 426 139 444T96 462Q70 462 52 444T34 401Q34 376 52 359T96 341ZM93 139Q77 139 63 130T41 108T33 78Q33 63 40 50T59 28T82 18Q78 -11 62 -30T20 -68L43 -113Q75 -96 100 -67T140
-3T155 66Q155 99 137 119T93 139Z" />
<glyph unicode="&lt;" horiz-adv-x="335" d="M315 95L123 245L315 394L292 470L30 271V218L292 19L315 95Z" />
<glyph unicode="=" horiz-adv-x="506" d="M468 389H30L39 316H476L468 389ZM468 194H30L39 121H476L468 194Z" />
<glyph unicode="&gt;" horiz-adv-x="335" d="M305 271L43 470L20 394L212 245L20 95L43 19L305 218V271Z" />
<glyph unicode="?" horiz-adv-x="419" d="M195 701Q138 701 96 686T10 643L22 558Q67 589 108 604T192 620Q241 620 269 598T297 528Q297 479 249 438T127 373L135 187L204 159L216 324Q268 349 306 382T367 454T389 530Q389 580 368 618T304 679T195 701ZM165
120Q140 120 123 103T105 60Q105 35 122 18T165 0Q190 0 208 17T226 60Q226 85 208 102T165 120Z" />
<glyph unicode="@" horiz-adv-x="764" d="M547 386L519 421H443Q399 421 359 407T286 366T235 302T216 217Q216 149 257 106T386 63Q411 63 435 72T477 92Q492 77 513 70T557 62Q596 62 628 77T684 123T721 199T734 305Q734 368 711 421T646 514T547 576T421 598Q331
598 259 568T135 486T57 365T30 219Q30 146 57 87T131 -14T235 -79T355 -102Q405 -102 456 -94T555 -60L531 12Q506 0 478 -8T421 -19T366 -23Q299 -23 243 6T152 89T118 219Q118 289 142 345T210 440T307 501T419 522Q489 522 541 494T623 415T653 299Q653 249
641 213T609 157T564 137Q551 137 536 147T524 182L547 386ZM385 137Q355 137 337 149T311 179T303 217Q303 262 323 292T377 337T449 352H465L444 187Q443 183 443 180T445 174Q438 158 422 148T385 137Z" />
<glyph unicode="A" horiz-adv-x="625" d="M420 259H199L308 551L420 259ZM266 680L10 0H104L172 182H449L520 -8L615 6L353 680H266Z" />
<glyph unicode="B" horiz-adv-x="603" d="M325 0Q379 0 424 11T502 46T554 106T573 194Q573 260 539 302T451 365Q485 387 511 419T538 496Q538 565 508 605T426 662T304 680H90V0H325ZM296 599Q340 599 372 591T421 560T439 495Q439 457 418 434T360 401T279
390H186V599H296ZM331 312Q396 312 435 283T475 192Q475 152 455 127T400 91T321 79H186V312H331Z" />
<glyph unicode="C" horiz-adv-x="559" d="M536 653Q511 668 479 677T415 690T363 694Q288 694 229 667T127 592T63 478T40 336Q40 264 60 201T120 90T219 14T357 -14Q386 -14 419 -9T485 5T539 26L502 98Q474 85 438 77T353 68Q302 68 263 89T196 147T154 233T140
337Q140 419 169 481T249 577T361 612Q394 612 417 609T461 599T506 584L536 653Z" />
<glyph unicode="D" horiz-adv-x="678" d="M331 0Q431 0 499 44T602 167T638 344Q638 440 606 516T508 636T335 680H90V0H331ZM339 598Q409 598 453 566T519 476T541 343Q541 257 515 199T441 110T331 80H186V598H339Z" />
<glyph unicode="E" horiz-adv-x="542" d="M522 0L509 75H186V309H430L417 383H186V606H486L473 680H90V0H522Z" />
<glyph unicode="F" horiz-adv-x="491" d="M407 378H186V606H471L457 680H90V0H186V305H419L407 378Z" />
<glyph unicode="G" horiz-adv-x="628" d="M341 284H489V85Q467 78 440 73T378 68Q310 68 256 101T171 194T140 337Q140 404 160 455T217 541T298 594T393 612Q426 612 449 609T492 599T537 584L567 653Q543 668 510 677T444 690T391 694Q316 694 252 668T141 594T67
481T40 336Q40 237 81 158T199 33T380 -14Q417 -14 453 -8T522 10T577 34L578 357H349L341 284Z" />
<glyph unicode="H" horiz-adv-x="674" d="M584 0V680H488V380H186V685L90 680V0H186V303H488V0H584Z" />
<glyph unicode="I" horiz-adv-x="276" d="M186 0V680H90V0H186Z" />
<glyph unicode="J" horiz-adv-x="268" d="M92 73Q92 39 86 21T62 -9T10 -33L48 -102Q102 -85 132 -66T175 -17T188 55V680H92V73Z" />
<glyph unicode="K" horiz-adv-x="625" d="M498 0L259 313L186 235V0H90V680H186V365L496 695L564 639L323 382L615 0H498Z" />
<glyph unicode="L" horiz-adv-x="515" d="M493 75H186V680H90V0H505L493 75Z" />
<glyph unicode="M" horiz-adv-x="765" d="M409 223L578 472V0H675V680H615L388 344L149 680H90V0H186V481L374 218L409 223Z" />
<glyph unicode="N" horiz-adv-x="715" d="M186 0V507L224 447L539 0H625V680H528V177L480 252L175 680H90V0H186Z" />
<glyph unicode="O" horiz-adv-x="729" d="M362 -14Q269 -14 196 31T82 155T40 336Q40 439 82 519T197 647T365 696Q459 696 532 651T647 526T689 345Q689 242 647 162T531 35T362 -14ZM361 68Q427 68 478 103T558 201T587 344Q587 422 559 483T481 578T367 613Q301
613 250 578T170 480T140 338Q140 260 168 199T247 103T361 68Z" />
<glyph unicode="P" horiz-adv-x="572" d="M186 0V250H275Q329 250 377 263T462 302T520 370T542 468Q542 544 508 590T416 658T285 680H90V0H186ZM284 599Q333 599 368 587T422 545T442 464Q440 417 419 387T361 344T279 330H186V599H284Z" />
<glyph unicode="Q" horiz-adv-x="729" d="M458 237L392 187L619 -25L675 24L458 237ZM365 696Q271 694 198 647T82 520T40 337Q40 235 81 156T195 31T362 -14Q457 -12 530 34T646 161T689 344Q689 446 647 525T532 650T365 696ZM140 338Q140 418 169 480T250 577T367
613Q431 613 480 578T558 483T587 344Q587 264 558 202T478 104T361 68Q297 68 247 103T169 199T140 338Z" />
<glyph unicode="R" horiz-adv-x="604" d="M284 599Q332 599 367 588T422 549T442 474Q442 428 420 401T361 362T279 350H186V599H284ZM90 680V0H186V272H275Q289 272 309 273T338 275L490 0H594L423 300Q475 322 508 366T542 478Q542 550 508 594T416 659T285 680H90Z" />
<glyph unicode="S" horiz-adv-x="518" d="M52 37Q62 28 85 19T136 3T193 -8T243 -13Q322 -13 376 10T459 75T488 170Q488 207 476 236T442 288T387 330T312 369Q254 396 215 417T156 463T136 522Q136 567 174 589T270 611Q302 611 327 606T373 592T411 575L443
651Q409 668 362 682T263 696Q194 696 144 673T67 610T40 520Q40 481 51 452T84 400T139 358T216 318Q272 294 311 273T370 227T391 168Q391 139 374 117T324 82T242 70Q212 70 180 77T121 94T74 113L52 37Z" />
<glyph unicode="T" horiz-adv-x="572" d="M548 680H10V604H231V0H328V604H562L548 680Z" />
<glyph unicode="U" horiz-adv-x="690" d="M176 680H80V243Q80 170 112 113T204 22T345 -11Q427 -11 486 22T577 113T610 243V680H513V252Q513 196 493 155T435 91T345 68Q295 68 257 90T198 153T176 252V680Z" />
<glyph unicode="V" horiz-adv-x="625" d="M105 688L10 674L272 0H359L615 680H521L317 129L105 688Z" />
<glyph unicode="W" horiz-adv-x="893" d="M883 680L687 0H600L447 542L299 0H212L10 674L105 688L257 129L401 680H495L645 129L789 680H883Z" />
<glyph unicode="X" horiz-adv-x="604" d="M110 0L303 276L478 0H581L364 335L594 680H493L315 402L116 700L38 660L253 344L10 0H110Z" />
<glyph unicode="Y" horiz-adv-x="579" d="M331 0L332 271L569 680H467L283 366L103 697L10 663L235 270V0H331Z" />
<glyph unicode="Z" horiz-adv-x="564" d="M531 75H125L544 604L534 680H48L61 604H435L20 75L31 0H541L531 75Z" />
<glyph unicode="[" horiz-adv-x="318" d="M100 -88H308L294 -15H193V622H294L308 696H100V-88Z" />
<glyph unicode="\" horiz-adv-x="419" d="M409 0L106 710L10 706L313 -4L409 0Z" />
<glyph unicode="]" horiz-adv-x="317" d="M217 696H10L23 622H123V-15H23L10 -88H217V696Z" />
<glyph unicode="^" horiz-adv-x="432" d="M216 301L325 143H422L251 390H182L10 143H107L216 301Z" />
<glyph unicode="_" horiz-adv-x="440" d="M401 75H30L39 0H410L401 75Z" />
<glyph unicode="`" horiz-adv-x="176" d="M100 589L166 606L112 747H10L100 589Z" />
<glyph unicode="a" horiz-adv-x="493" d="M133 140Q133 174 156 200T223 226H341V128Q316 100 284 82T214 64Q187 64 169 75T142 104T133 140ZM103 379Q130 391 165 401T243 412Q300 412 320 379T340 295V290H225Q146 290 97 252T47 140Q47 74 88 31T216 -12Q255
-12 294 6T358 46L370 0H437V329Q437 376 412 414T342 475T241 498Q221 498 189 493T126 478T76 455L103 379Z" />
<glyph unicode="b" horiz-adv-x="537" d="M124 0L166 63V706L70 695V0H124ZM130 343Q161 381 191 398T266 416Q312 416 344 393T392 330T409 238Q409 190 392 152T344 92T266 69Q223 69 191 86T127 142L99 74Q121 42 152 23T214 -4T265 -13Q338 -13 392 18T477
107T507 239Q507 317 478 375T395 466T266 498Q246 498 215 489T154 461T101 412L130 343Z" />
<glyph unicode="c" horiz-adv-x="464" d="M407 102Q376 87 346 78T271 69Q225 69 193 91T145 154T128 244Q129 292 146 331T196 393T274 416Q317 416 348 406T410 383L438 451Q417 466 386 476T325 492T275 498Q200 498 145 466T61 376T30 243Q30 167 59 110T142
20T271 -13Q292 -13 322 -8T384 8T436 33L407 102Z" />
<glyph unicode="d" horiz-adv-x="544" d="M377 82L419 0H474V705L377 695V82ZM407 142Q376 105 346 87T271 69Q225 69 193 92T145 155T128 247Q128 295 145 333T194 393T271 416Q314 416 346 399T410 343L438 411Q417 443 386 462T323 489T272 498Q199 498 145
467T60 379T30 246Q30 168 59 110T142 20T271 -13Q292 -13 322 -4T384 24T436 73L407 142Z" />
<glyph unicode="e" horiz-adv-x="504" d="M474 221V231Q474 302 453 363T385 461T262 498Q190 498 138 466T58 376T30 243Q30 167 59 110T148 20T293 -12Q327 -12 358 -5T417 14T469 41L439 111Q399 92 368 80T293 68Q239 68 204 87T152 142T130 221H474ZM132
286Q137 326 152 355T195 400T259 416Q296 416 320 400T360 355T381 286H132Z" />
<glyph unicode="f" horiz-adv-x="324" d="M16 406H89V0H185V406H306L275 479H185V533Q185 570 200 593T252 617Q263 617 276 614T300 606L324 680Q316 686 302 691T273 699T243 702Q195 702 161 682T108 627T89 542V479H15L16 406Z" />
<glyph unicode="g" horiz-adv-x="540" d="M474 485H419L377 412V-42Q377 -96 338 -124T239 -152Q195 -152 165 -141T99 -113L70 -182Q87 -194 110 -203T157 -218T204 -227T242 -230Q317 -230 368 -206T447 -139T474 -43V485ZM407 142Q376 105 346 87T271 69Q225
69 193 92T145 155T128 247Q128 295 145 333T194 393T271 416Q314 416 346 399T410 343L438 411Q417 443 386 462T323 489T272 498Q199 498 145 467T60 379T30 246Q30 168 59 110T142 20T271 -13Q292 -13 322 -4T384 24T436 73L407 142Z" />
<glyph unicode="h" horiz-adv-x="551" d="M166 342Q190 363 216 380T268 408T319 419Q366 419 382 390T399 311V0H495V320Q495 372 479 413T429 477T339 501Q306 501 273 491T209 462T154 421L166 342ZM166 0V706L70 695V0H166Z" />
<glyph unicode="i" horiz-adv-x="217" d="M157 0V485H60V0H157ZM107 572Q132 572 150 589T168 632Q168 658 150 675T107 692Q82 692 65 675T48 632Q48 606 65 589T107 572Z" />
<glyph unicode="j" horiz-adv-x="240" d="M123 572Q107 572 93 580T71 602T63 632Q63 657 80 674T123 692Q148 692 166 675T184 632Q184 607 166 590T123 572ZM172 485V2Q172 -56 165 -95T129 -160T37 -206L0 -135Q35 -122 50 -107T70 -70T75 -13V485H172Z" />
<glyph unicode="k" horiz-adv-x="487" d="M166 0V174L228 234L375 0H487L294 296L438 434L382 498L166 287V706L70 695V0H166Z" />
<glyph unicode="l" horiz-adv-x="236" d="M166 0V706L70 695V0H166Z" />
<glyph unicode="m" horiz-adv-x="842" d="M156 0V342Q180 363 205 380T256 408T303 419Q332 419 348 406T372 368T379 311V0H475V320Q475 372 459 413T410 477T323 501Q293 501 261 491T199 462T144 421L127 485H60V0H156ZM467 342Q491 363 516 380T567 408T614
419Q643 419 659 406T683 368T690 311V0H786V320Q786 372 770 413T721 477T634 501Q604 501 572 491T510 462T455 421L467 342Z" />
<glyph unicode="n" horiz-adv-x="541" d="M156 0V342Q180 363 206 380T258 408T309 419Q356 419 372 390T389 311V0H485V320Q485 372 469 413T419 477T329 501Q296 501 263 491T199 462T144 421L127 485H60V0H156Z" />
<glyph unicode="o" horiz-adv-x="545" d="M270 -13Q196 -13 142 19T59 109T30 243Q31 319 60 376T144 465T274 498Q349 498 403 466T486 376T515 242Q515 167 485 110T401 20T270 -13ZM271 69Q317 69 349 92T399 154T417 241Q417 292 401 331T352 393T274 416Q229
416 197 393T147 331T128 244Q128 194 144 154T193 92T271 69Z" />
<glyph unicode="p" horiz-adv-x="533" d="M162 -208V425L120 485H66V-219L162 -208ZM126 343Q157 381 187 398T262 416Q308 416 340 393T388 330T405 238Q405 190 388 152T340 92T262 69Q219 69 187 86T123 142L95 74Q117 42 148 23T210 -4T261 -13Q334 -13 388
18T473 107T503 239Q503 317 474 375T391 466T262 498Q242 498 211 489T150 461T97 412L126 343Z" />
<glyph unicode="q" horiz-adv-x="540" d="M419 485L377 422V-219L474 -209V485H419ZM407 142Q376 105 346 87T271 69Q225 69 193 92T145 155T128 247Q128 295 145 333T194 393T271 416Q314 416 346 399T410 343L438 411Q417 443 386 462T323 489T272 498Q199 498
145 467T60 379T30 246Q30 168 59 110T142 20T271 -13Q292 -13 322 -4T384 24T436 73L407 142Z" />
<glyph unicode="r" horiz-adv-x="338" d="M156 0V321Q180 344 209 363T270 395T328 408L307 485Q281 485 251 472T192 441T145 406L114 485H60V0H156Z" />
<glyph unicode="s" horiz-adv-x="421" d="M34 31Q55 17 84 7T144 -8T194 -13Q290 -13 340 25T391 132Q391 172 367 202T305 253T227 289Q183 304 156 320T127 359Q127 385 151 402T214 420Q253 420 283 410T342 387L372 452Q352 467 323 477T266 492T216 498Q131
498 82 461T32 357Q32 318 56 290T116 243T191 211Q223 201 247 189T285 161T299 127Q299 109 286 95T250 73T194 65Q172 65 150 69T107 80T64 98L34 31Z" />
<glyph unicode="t" horiz-adv-x="341" d="M268 479H180V622L84 600V479H15L16 406H84V135Q84 86 103 52T157 1T239 -17Q254 -17 269 -14T299 -5T321 4L296 77Q286 73 274 70T249 66Q213 66 197 89T180 150V406H298L268 479Z" />
<glyph unicode="u" horiz-adv-x="541" d="M385 485V143Q362 123 336 105T283 77T232 66Q185 66 169 95T152 174V485H56V165Q56 113 72 72T122 8T212 -16Q245 -16 278 -6T342 23T397 64L414 0H481V485H385Z" />
<glyph unicode="v" horiz-adv-x="473" d="M279 0L463 485H364L236 135L102 503L10 469L190 0H279Z" />
<glyph unicode="w" horiz-adv-x="702" d="M541 0L692 485H593L498 143L398 485H297L202 143L102 502L10 468L157 0H245L346 345L453 0H541Z" />
<glyph unicode="x" horiz-adv-x="470" d="M117 0L228 174L339 0H445L293 232L460 485H355L238 306L114 502L28 468L173 247L10 0H117Z" />
<glyph unicode="y" horiz-adv-x="473" d="M159 -61Q151 -83 134 -98T94 -125T48 -147L80 -221Q118 -212 151 -194T210 -148T248 -88L463 485H364L236 137L101 503L10 469L187 13L159 -61Z" />
<glyph unicode="z" horiz-adv-x="434" d="M409 485H38L59 407H290L18 50L30 0H416L406 76H138L414 432L409 485Z" />
<glyph unicode="{" horiz-adv-x="279" d="M162 310Q188 324 199 349T211 413Q211 429 207 446T194 484Q185 504 181 520T176 547Q176 560 188 573T230 586H260L269 659H242Q172 659 134 633T96 553Q96 537 99 520T110 483Q117 463 120 445T123 409Q123 380 108
360T69 339H30V276H69Q90 276 109 258T129 214Q129 201 125 184T112 145Q103 124 99 106T94 74Q94 16 129 -13T242 -42H269L260 30H230Q202 30 189 43T176 70Q176 81 180 97T194 135Q202 155 206 172T211 204Q211 240 199 267T162 310Z" />
<glyph unicode="|" horiz-adv-x="275" d="M90 711V0L185 -7V704L90 711Z" />
<glyph unicode="}" horiz-adv-x="278" d="M116 306Q90 292 79 267T67 203Q67 187 71 170T84 132Q93 112 97 96T102 69Q102 56 91 43T48 30H18L9 -43H36Q106 -43 144 -17T182 63Q182 79 179 96T168 133Q161 153 158 171T155 207Q155 236 170 256T209 277H248V340H209Q188
340 169 358T149 402Q149 416 153 433T166 471Q175 492 179 510T184 542Q184 600 149 629T36 658H9L18 586H48Q77 586 89 573T102 546Q102 535 98 519T84 481Q76 461 72 444T67 412Q67 376 79 349T116 306Z" />
<glyph unicode="~" horiz-adv-x="431" d="M30 188H111Q113 212 124 219T147 227Q161 227 177 223T211 208Q228 198 248 193T291 188Q321 188 346 200T386 241T401 318H319Q318 293 305 285T282 277Q268 277 253 282T222 297Q206 307 186 312T140 317Q110 317 85
305T45 264T30 188Z" />
<glyph unicode="&#xa0;" horiz-adv-x="230" />
<glyph unicode="&#xa1;" horiz-adv-x="181" d="M91 580Q116 580 133 598T151 641Q151 666 134 684T91 702Q66 702 48 684T30 641Q30 616 48 598T91 580ZM128 471L54 505L38 0H143L128 471Z" />
<glyph unicode="&#xa2;" horiz-adv-x="464" d="M327 473V608L239 598V476L327 473ZM328 16L240 13V-113H328V16ZM407 102Q376 87 346 78T271 69Q225 69 193 91T145 154T128 244Q129 292 146 331T196 393T274 416Q317 416 348 406T410 383L438 451Q417 466 386
476T325 492T275 498Q200 498 145 466T61 376T30 243Q30 167 59 110T142 20T271 -13Q292 -13 322 -8T384 8T436 33L407 102Z" />
<glyph unicode="&#xa3;" horiz-adv-x="468" d="M61 0H458L445 75H193Q210 97 215 134T221 212V310H380L348 383H221V515Q221 552 236 576T288 600Q298 600 311 597T335 589L360 661Q352 667 338 672T309 681T278 684Q226 684 192 663T141 601T124 507V383H50L51
310H124V160Q124 122 107 99T52 75L61 0Z" />
<glyph unicode="&#xa4;" horiz-adv-x="682" d="M87 -72L192 35Q222 13 259 1T338 -13Q381 -13 419 -1T489 35L595 -72L652 -4L552 99Q571 128 582 164T594 241Q593 282 583 319T553 385L652 487L595 556L490 450Q460 472 424 484T344 498Q301 497 263 484T194
448L87 556L30 487L132 383Q113 355 102 319T91 243Q91 202 101 166T130 99L30 -4L87 -72ZM495 240Q495 194 474 157T418 97T339 75Q295 76 262 98T209 158T190 244Q191 290 211 327T266 386T344 408Q388 408 422 386T475 326T495 240Z" />
<glyph unicode="&#xa5;" horiz-adv-x="579" d="M66 311L75 238H513L504 311H66ZM66 144L75 72H513L504 144H66ZM331 0L332 271L569 680H467L283 366L103 697L10 663L235 270V0H331Z" />
<glyph unicode="&#xa6;" horiz-adv-x="275" d="M90 711V413L185 406V704L90 711ZM90 294V0L185 -7V288L90 294Z" />
<glyph unicode="&#xa7;" d="M436 93Q474 108 500 132T539 187T553 254Q553 291 541 320T507 372T452 414T377 453Q319 480 280 501T221 547T201 606Q201 651 239 673T335 695Q367 695 392 690T438 676T476 659L508 735Q474 752 427 766T328 780Q259 780 209 757T132
694T105 604Q105 565 116 536T149 484T204 442T281 402Q337 378 376 357T435 311T456 252Q456 227 444 207T405 173L436 93ZM52 -69Q62 -78 85 -87T136 -103T193 -114T243 -119Q322 -119 376 -96T459 -31T488 64Q488 101 476 130T442 182T387 224T312 263Q254 290
215 311T156 357T136 416Q136 445 152 464T196 493L147 568Q113 553 89 530T53 477T40 414Q40 375 51 346T84 294T139 252T216 212Q272 188 311 167T370 121T391 62Q391 33 374 11T324 -24T242 -36Q212 -36 180 -29T121 -12T74 7L52 -69Z" />
<glyph unicode="&#xa8;" horiz-adv-x="302" d="M64 610Q87 610 102 626T118 664Q118 686 103 702T64 718Q42 718 26 702T10 664Q10 642 26 626T64 610ZM238 610Q261 610 276 626T292 664Q292 686 277 702T238 718Q216 718 200 702T184 664Q184 642 200 626T238 610Z" />
<glyph unicode="&#xa9;" horiz-adv-x="807" d="M777 336Q777 413 751 480T676 598T558 677T403 706Q317 706 248 678T131 598T56 480T30 336Q30 259 56 192T130 75T248 -4T403 -33Q489 -33 558 -5T676 74T751 192T777 336ZM101 337Q101 425 137 494T242 604T403
645Q497 645 565 605T669 495T706 337Q706 250 670 180T565 70T403 29Q310 29 242 69T138 180T101 337ZM419 104Q439 104 465 109T519 124T567 148L539 218Q511 204 486 195T420 185Q355 185 325 225T295 340Q295 384 309 418T351 471T422 490Q450 490 469 486T506
475T542 458L569 529Q549 544 522 553T469 567T422 572Q354 572 303 543T225 461T197 340Q197 270 222 217T298 134T419 104Z" />
<glyph unicode="&#xaa;" horiz-adv-x="330" d="M106 469Q106 488 122 498T164 508H224V468Q209 452 190 442T148 431Q127 431 117 442T106 469ZM67 611Q85 618 108 625T160 632Q193 632 207 614T222 571V567H152Q99 567 65 541T30 466Q30 421 61 392T146 363Q172
363 196 375T237 402L254 371H300V581Q300 614 282 641T232 685T159 702Q145 702 124 699T83 689T50 673L67 611Z" />
<glyph unicode="&#xab;" horiz-adv-x="382" d="M190 222L341 83L362 147L263 245L362 343L341 407L190 268V222ZM30 222L180 83L202 147L103 245L202 343L180 407L30 268V222Z" />
<glyph unicode="&#xac;" horiz-adv-x="514" d="M476 406H10L18 330H400V117L484 112V356L476 406Z" />
<glyph unicode="&#xad;" horiz-adv-x="120" />
<glyph unicode="&#xae;" horiz-adv-x="719" d="M689 488Q689 579 649 653T536 770T360 814Q259 814 185 771T70 653T30 488Q30 397 70 323T185 206T360 162Q462 162 535 205T649 323T689 488ZM96 488Q96 566 127 626T218 720T360 755Q442 755 500 721T591 626T623
488Q623 412 591 352T501 257T360 221Q278 222 219 257T128 352T96 488ZM340 622Q366 622 385 619T416 604T427 566Q427 543 415 531T383 515T338 511H306V622H340ZM525 304L436 470Q462 482 481 506T500 569Q500 609 482 633T431 668T359 680H235V304H306V454H341Q350
454 356 454T369 455L445 304H525Z" />
<glyph unicode="&#xaf;" horiz-adv-x="271" d="M10 626H261L252 702H10V626Z" />
<glyph unicode="&#xb0;" horiz-adv-x="246" d="M123 713Q93 713 67 699T26 660T10 604Q10 574 25 550T67 511T123 497Q154 497 179 511T220 549T236 604Q236 635 221 659T180 698T123 713ZM123 553Q102 553 88 568T73 604Q73 624 87 638T123 653Q143 653 158 639T173
604Q173 583 159 568T123 553Z" />
<glyph unicode="&#xb1;" horiz-adv-x="480" d="M442 368H283V531L199 534V368H30L39 300H199V129L283 124V300H450L442 368ZM444 69H31L39 0H450L444 69Z" />
<glyph unicode="&#xb2;" horiz-adv-x="362" d="M173 771Q134 771 103 762T50 742T16 725L49 661Q60 667 78 676T121 692T169 700Q194 700 209 692T233 670T241 641Q241 612 226 585T171 523L25 399V336H342L332 403H136L222 475Q277 522 303 560T329 641Q329 671
314 701T264 751T173 771Z" />
<glyph unicode="&#xb3;" horiz-adv-x="362" d="M164 771Q118 771 82 757T12 722L46 662Q65 675 91 687T155 700Q195 700 213 683T231 644Q231 624 221 608T190 581T132 571H95L105 504H127Q187 504 213 483T240 420Q240 398 228 382T195 357T148 348Q113 348 89
357T37 382L0 322Q30 306 70 292T153 278Q207 278 246 297T306 348T327 421Q327 453 316 478T286 519T245 539Q264 546 280 561T308 598T319 645Q319 696 281 733T164 771Z" />
<glyph unicode="&#xb4;" horiz-adv-x="176" d="M76 589L166 747H64L10 606L76 589Z" />
<glyph unicode="&#xb5;" horiz-adv-x="551" d="M162 -208V368H66V-219L162 -208ZM395 485V143Q372 123 346 105T293 77T242 66Q195 66 179 95T162 174V485H66V165Q66 113 82 72T132 8T222 -16Q255 -16 288 -6T352 23T407 64L424 0H491V485H395Z" />
<glyph unicode="&#xb6;" horiz-adv-x="861" d="M424 0V604H638V0H735V604H831V680H286Q214 680 156 659T64 590T30 468Q30 411 51 370T110 303T195 263T298 250H328V0H424Z" />
<glyph unicode="&#xb7;" horiz-adv-x="180" d="M92 201Q117 201 133 219T150 262Q150 287 134 304T92 322Q65 322 48 305T30 262Q30 237 47 219T92 201Z" />
<glyph unicode="&#xb8;" horiz-adv-x="223" d="M51 -78Q77 -80 97 -87T128 -105T140 -127Q140 -142 125 -149T94 -156Q80 -156 62 -150T32 -139L10 -198Q25 -208 50 -214T94 -221Q125 -221 152 -211T196 -179T213 -125Q213 -107 203 -90T177 -60T138 -42L160 13H87L51
-78Z" />
<glyph unicode="&#xb9;" horiz-adv-x="278" d="M208 336V764H151L10 697L44 637L121 676V336H208Z" />
<glyph unicode="&#xba;" horiz-adv-x="384" d="M191 702Q144 702 108 681T51 622T30 532Q30 480 49 442T105 384T189 363Q237 363 274 383T333 442T354 531Q354 584 334 622T278 681T191 702ZM192 632Q226 632 247 607T268 531Q268 497 258 475T230 443T190 432Q158
432 136 456T114 532Q114 568 125 590T155 622T192 632Z" />
<glyph unicode="&#xbb;" horiz-adv-x="383" d="M192 268L43 407L20 343L119 245L20 147L43 83L192 222V268ZM353 268L203 407L181 343L280 245L181 147L203 83L353 222V268Z" />
<glyph unicode="&#xbc;" horiz-adv-x="820" d="M208 336V764H151L10 697L44 637L121 676V336H208ZM800 -8H716V321H657L407 -8L415 -78H631V-164H716V-78H793L800 -8ZM631 171V-8H496L631 171ZM571 700L55 -134H155L672 700H571Z" />
<glyph unicode="&#xbd;" horiz-adv-x="844" d="M208 336V764H151L10 697L44 637L121 676V336H208ZM655 325Q616 325 585 316T532 296T498 279L531 215Q542 221 560 230T603 246T651 254Q676 254 691 246T715 224T723 195Q723 166 708 139T653 77L507 -47V-110H824L814
-43H618L704 29Q759 76 785 114T811 195Q811 225 796 255T746 305T655 325ZM561 700L45 -134H145L662 700H561Z" />
<glyph unicode="&#xbe;" horiz-adv-x="830" d="M164 771Q118 771 82 757T12 722L46 662Q65 675 91 687T155 700Q195 700 213 683T231 644Q231 624 221 608T190 581T132 571H95L105 504H127Q187 504 213 483T240 420Q240 398 228 382T195 357T148 348Q113 348 89
357T37 382L0 322Q30 306 70 292T153 278Q207 278 246 297T306 348T327 421Q327 453 316 478T286 519T245 539Q264 546 280 561T308 598T319 645Q319 696 281 733T164 771ZM625 700L109 -134H209L726 700H625ZM810 -9H726V320H667L417 -9L425 -79H641V-165H726V-79H803L810
-9ZM641 170V-9H506L641 170Z" />
<glyph unicode="&#xbf;" horiz-adv-x="419" d="M254 521Q279 521 297 539T315 582Q315 607 297 625T254 643Q229 643 211 625T193 582Q193 557 211 539T254 521ZM224 -59Q281 -59 324 -44T409 -1L397 85Q352 54 311 38T227 22Q178 22 150 44T122 113Q122 163 170
204T293 270L284 455L215 484L203 319Q153 295 114 261T52 188T30 112Q30 62 51 24T115 -37T224 -59Z" />
<glyph unicode="&#xc0;" horiz-adv-x="625" d="M420 259H199L308 551L420 259ZM266 680L10 0H104L172 182H449L520 -8L615 6L353 680H266ZM301 739L367 756L313 897H211L301 739Z" />
<glyph unicode="&#xc1;" horiz-adv-x="625" d="M420 259H199L308 551L420 259ZM266 680L10 0H104L172 182H449L520 -8L615 6L353 680H266ZM320 739L410 897H308L254 756L320 739Z" />
<glyph unicode="&#xc2;" horiz-adv-x="625" d="M420 259H199L308 551L420 259ZM266 680L10 0H104L172 182H449L520 -8L615 6L353 680H266ZM306 826L381 739L467 749L338 897H272L144 749L231 739L306 826Z" />
<glyph unicode="&#xc3;" horiz-adv-x="625" d="M420 259H199L308 551L420 259ZM266 680L10 0H104L172 182H449L520 -8L615 6L353 680H266ZM391 857Q390 840 381 830T358 820Q345 820 332 825T308 841Q297 852 282 856T246 861Q220 861 199 852T164 819T151 756H216Q217
772 227 782T250 793Q263 793 275 788T300 772Q311 762 326 757T359 751Q385 751 406 761T441 794T454 857H391Z" />
<glyph unicode="&#xc4;" horiz-adv-x="625" d="M420 259H199L308 551L420 259ZM266 680L10 0H104L172 182H449L520 -8L615 6L353 680H266ZM217 760Q240 760 255 776T271 814Q271 836 256 852T217 868Q195 868 179 852T163 814Q163 792 179 776T217 760ZM391 760Q414
760 429 776T445 814Q445 836 430 852T391 868Q369 868 353 852T337 814Q337 792 353 776T391 760Z" />
<glyph unicode="&#xc5;" horiz-adv-x="625" d="M420 259H199L308 551L420 259ZM266 680L10 0H104L172 182H449L520 -8L615 6L353 680H266ZM306 926Q280 926 258 914T222 881T208 833Q208 794 237 769T306 744Q332 744 354 755T389 787T403 833Q403 860 390 881T354
914T306 926ZM306 792Q289 792 277 804T264 833Q264 851 276 863T306 875Q323 875 335 863T347 833Q347 817 335 805T306 792Z" />
<glyph unicode="&#xc6;" horiz-adv-x="907" d="M455 0H887L875 75H552V309H796L783 383H552V606H852L840 680H444L10 4L100 -10L218 182H455V0ZM455 548V259H269L455 548Z" />
<glyph unicode="&#xc7;" horiz-adv-x="559" d="M536 653Q511 668 479 677T415 690T363 694Q288 694 229 667T127 592T63 478T40 336Q40 264 60 201T120 90T219 14T357 -14Q386 -14 419 -9T485 5T539 26L502 98Q474 85 438 77T353 68Q302 68 263 89T196 147T154
233T140 337Q140 419 169 481T249 577T361 612Q394 612 417 609T461 599T506 584L536 653ZM288 -78Q314 -80 334 -87T365 -105T377 -127Q377 -142 362 -149T331 -156Q317 -156 299 -150T269 -139L247 -198Q262 -208 287 -214T331 -221Q362 -221 389 -211T433 -179T450
-125Q450 -107 440 -90T414 -60T375 -42L397 13H324L288 -78Z" />
<glyph unicode="&#xc8;" horiz-adv-x="542" d="M522 0L509 75H186V309H430L417 383H186V606H486L473 680H90V0H522ZM288 739L354 756L300 897H198L288 739Z" />
<glyph unicode="&#xc9;" horiz-adv-x="542" d="M522 0L509 75H186V309H430L417 383H186V606H486L473 680H90V0H522ZM307 739L397 897H295L241 756L307 739Z" />
<glyph unicode="&#xca;" horiz-adv-x="542" d="M522 0L509 75H186V309H430L417 383H186V606H486L473 680H90V0H522ZM293 826L368 739L454 749L325 897H259L131 749L218 739L293 826Z" />
<glyph unicode="&#xcb;" horiz-adv-x="542" d="M522 0L509 75H186V309H430L417 383H186V606H486L473 680H90V0H522ZM204 760Q227 760 242 776T258 814Q258 836 243 852T204 868Q182 868 166 852T150 814Q150 792 166 776T204 760ZM378 760Q401 760 416 776T432
814Q432 836 417 852T378 868Q356 868 340 852T324 814Q324 792 340 776T378 760Z" />
<glyph unicode="&#xcc;" horiz-adv-x="276" d="M186 0V680H90V0H186ZM133 739L199 756L145 897H43L133 739Z" />
<glyph unicode="&#xcd;" horiz-adv-x="276" d="M186 0V680H90V0H186ZM152 739L242 897H140L86 756L152 739Z" />
<glyph unicode="&#xce;" horiz-adv-x="276" d="M186 0V680H90V0H186ZM394 826L469 739L555 749L426 897H360L232 749L319 739L394 826Z" />
<glyph unicode="&#xcf;" horiz-adv-x="276" d="M186 0V680H90V0H186ZM305 760Q328 760 343 776T359 814Q359 836 344 852T305 868Q283 868 267 852T251 814Q251 792 267 776T305 760ZM479 760Q502 760 517 776T533 814Q533 836 518 852T479 868Q457 868 441 852T425
814Q425 792 441 776T479 760Z" />
<glyph unicode="&#xd0;" horiz-adv-x="678" d="M286 300L277 375H19L29 300H286ZM331 0Q431 0 499 44T602 167T638 344Q638 440 606 516T508 636T335 680H90V0H331ZM339 598Q409 598 453 566T519 476T541 343Q541 257 515 199T441 110T331 80H186V598H339Z" />
<glyph unicode="&#xd1;" horiz-adv-x="715" d="M186 0V507L224 447L539 0H625V680H528V177L480 252L175 680H90V0H186ZM445 857Q444 840 435 830T412 820Q399 820 386 825T362 841Q351 852 336 856T300 861Q274 861 253 852T218 819T205 756H270Q271 772 281 782T304
793Q317 793 329 788T354 772Q365 762 380 757T413 751Q439 751 460 761T495 794T508 857H445Z" />
<glyph unicode="&#xd2;" horiz-adv-x="729" d="M362 -14Q269 -14 196 31T82 155T40 336Q40 439 82 519T197 647T365 696Q459 696 532 651T647 526T689 345Q689 242 647 162T531 35T362 -14ZM361 68Q427 68 478 103T558 201T587 344Q587 422 559 483T481 578T367
613Q301 613 250 578T170 480T140 338Q140 260 168 199T247 103T361 68ZM357 739L423 756L369 897H267L357 739Z" />
<glyph unicode="&#xd3;" horiz-adv-x="729" d="M362 -14Q269 -14 196 31T82 155T40 336Q40 439 82 519T197 647T365 696Q459 696 532 651T647 526T689 345Q689 242 647 162T531 35T362 -14ZM361 68Q427 68 478 103T558 201T587 344Q587 422 559 483T481 578T367
613Q301 613 250 578T170 480T140 338Q140 260 168 199T247 103T361 68ZM376 739L466 897H364L310 756L376 739Z" />
<glyph unicode="&#xd4;" horiz-adv-x="729" d="M362 -14Q269 -14 196 31T82 155T40 336Q40 439 82 519T197 647T365 696Q459 696 532 651T647 526T689 345Q689 242 647 162T531 35T362 -14ZM361 68Q427 68 478 103T558 201T587 344Q587 422 559 483T481 578T367
613Q301 613 250 578T170 480T140 338Q140 260 168 199T247 103T361 68ZM362 826L437 739L523 749L394 897H328L200 749L287 739L362 826Z" />
<glyph unicode="&#xd5;" horiz-adv-x="729" d="M362 -14Q269 -14 196 31T82 155T40 336Q40 439 82 519T197 647T365 696Q459 696 532 651T647 526T689 345Q689 242 647 162T531 35T362 -14ZM361 68Q427 68 478 103T558 201T587 344Q587 422 559 483T481 578T367
613Q301 613 250 578T170 480T140 338Q140 260 168 199T247 103T361 68ZM447 857Q446 840 437 830T414 820Q401 820 388 825T364 841Q353 852 338 856T302 861Q276 861 255 852T220 819T207 756H272Q273 772 283 782T306 793Q319 793 331 788T356 772Q367 762 382
757T415 751Q441 751 462 761T497 794T510 857H447Z" />
<glyph unicode="&#xd6;" horiz-adv-x="729" d="M362 -14Q269 -14 196 31T82 155T40 336Q40 439 82 519T197 647T365 696Q459 696 532 651T647 526T689 345Q689 242 647 162T531 35T362 -14ZM361 68Q427 68 478 103T558 201T587 344Q587 422 559 483T481 578T367
613Q301 613 250 578T170 480T140 338Q140 260 168 199T247 103T361 68ZM273 760Q296 760 311 776T327 814Q327 836 312 852T273 868Q251 868 235 852T219 814Q219 792 235 776T273 760ZM447 760Q470 760 485 776T501 814Q501 836 486 852T447 868Q425 868 409
852T393 814Q393 792 409 776T447 760Z" />
<glyph unicode="&#xd7;" horiz-adv-x="528" d="M310 251L482 30H384L263 185L128 30H30L218 253L46 474H144L265 319L400 474H498L310 251Z" />
<glyph unicode="&#xd8;" horiz-adv-x="729" d="M362 -14Q269 -14 196 31T82 155T40 336Q40 439 82 519T197 647T365 696Q459 696 532 651T647 526T689 345Q689 242 647 162T531 35T362 -14ZM361 68Q427 68 478 103T558 201T587 344Q587 422 559 483T481 578T367
613Q301 613 250 578T170 480T140 338Q140 260 168 199T247 103T361 68ZM288 40L208 79L443 632L522 579L288 40Z" />
<glyph unicode="&#xd9;" horiz-adv-x="690" d="M176 680H80V243Q80 170 112 113T204 22T345 -11Q427 -11 486 22T577 113T610 243V680H513V252Q513 196 493 155T435 91T345 68Q295 68 257 90T198 153T176 252V680ZM338 739L404 756L350 897H248L338 739Z" />
<glyph unicode="&#xda;" horiz-adv-x="690" d="M176 680H80V243Q80 170 112 113T204 22T345 -11Q427 -11 486 22T577 113T610 243V680H513V252Q513 196 493 155T435 91T345 68Q295 68 257 90T198 153T176 252V680ZM357 739L447 897H345L291 756L357 739Z" />
<glyph unicode="&#xdb;" horiz-adv-x="690" d="M176 680H80V243Q80 170 112 113T204 22T345 -11Q427 -11 486 22T577 113T610 243V680H513V252Q513 196 493 155T435 91T345 68Q295 68 257 90T198 153T176 252V680ZM343 826L418 739L504 749L375 897H309L181 749L268
739L343 826Z" />
<glyph unicode="&#xdc;" horiz-adv-x="690" d="M176 680H80V243Q80 170 112 113T204 22T345 -11Q427 -11 486 22T577 113T610 243V680H513V252Q513 196 493 155T435 91T345 68Q295 68 257 90T198 153T176 252V680ZM254 760Q277 760 292 776T308 814Q308 836 293
852T254 868Q232 868 216 852T200 814Q200 792 216 776T254 760ZM428 760Q451 760 466 776T482 814Q482 836 467 852T428 868Q406 868 390 852T374 814Q374 792 390 776T428 760Z" />
<glyph unicode="&#xdd;" horiz-adv-x="579" d="M331 0L332 271L569 680H467L283 366L103 697L10 663L235 270V0H331ZM295 739L385 897H283L229 756L295 739Z" />
<glyph unicode="&#xde;" horiz-adv-x="572" d="M285 600Q357 600 415 579T508 511T542 388Q542 331 521 290T462 223T377 183T275 170H186V0H90V680H186V600H285ZM279 250Q325 250 361 263T418 307T442 384Q442 436 423 465T368 506T284 519H186V250H279Z" />
<glyph unicode="&#xdf;" horiz-adv-x="592" d="M70 0H166V472Q166 513 181 543T226 591T296 608Q345 608 380 581T416 500Q416 449 382 420T275 390H244V313H314Q376 313 416 283T457 192Q457 152 437 127T381 91T304 79H233V0H308Q380 0 436 20T524 83T557 191Q557
235 540 270T494 329T432 364Q458 377 476 398T505 447T515 505Q515 567 486 608T406 670T294 691Q226 691 176 665T98 590T70 473V0Z" />
<glyph unicode="&#xe0;" horiz-adv-x="493" d="M133 140Q133 174 156 200T223 226H341V128Q316 100 284 82T214 64Q187 64 169 75T142 104T133 140ZM103 379Q130 391 165 401T243 412Q300 412 320 379T340 295V290H225Q146 290 97 252T47 140Q47 74 88 31T216
-12Q255 -12 294 6T358 46L370 0H437V329Q437 376 412 414T342 475T241 498Q221 498 189 493T126 478T76 455L103 379ZM229 589L295 606L241 747H139L229 589Z" />
<glyph unicode="&#xe1;" horiz-adv-x="493" d="M133 140Q133 174 156 200T223 226H341V128Q316 100 284 82T214 64Q187 64 169 75T142 104T133 140ZM103 379Q130 391 165 401T243 412Q300 412 320 379T340 295V290H225Q146 290 97 252T47 140Q47 74 88 31T216
-12Q255 -12 294 6T358 46L370 0H437V329Q437 376 412 414T342 475T241 498Q221 498 189 493T126 478T76 455L103 379ZM241 589L331 747H229L175 606L241 589Z" />
<glyph unicode="&#xe2;" horiz-adv-x="493" d="M133 140Q133 174 156 200T223 226H341V128Q316 100 284 82T214 64Q187 64 169 75T142 104T133 140ZM103 379Q130 391 165 401T243 412Q300 412 320 379T340 295V290H225Q146 290 97 252T47 140Q47 74 88 31T216
-12Q255 -12 294 6T358 46L370 0H437V329Q437 376 412 414T342 475T241 498Q221 498 189 493T126 478T76 455L103 379ZM237 676L312 589L398 599L269 747H203L75 599L162 589L237 676Z" />
<glyph unicode="&#xe3;" horiz-adv-x="493" d="M133 140Q133 174 156 200T223 226H341V128Q316 100 284 82T214 64Q187 64 169 75T142 104T133 140ZM103 379Q130 391 165 401T243 412Q300 412 320 379T340 295V290H225Q146 290 97 252T47 140Q47 74 88 31T216
-12Q255 -12 294 6T358 46L370 0H437V329Q437 376 412 414T342 475T241 498Q221 498 189 493T126 478T76 455L103 379ZM329 707Q328 690 319 680T296 670Q283 670 270 675T246 691Q235 702 220 706T184 711Q158 711 137 702T102 669T89 606H154Q155 622 165 632T188
643Q201 643 213 638T238 622Q249 612 264 607T297 601Q323 601 344 611T379 644T392 707H329Z" />
<glyph unicode="&#xe4;" horiz-adv-x="493" d="M133 140Q133 174 156 200T223 226H341V128Q316 100 284 82T214 64Q187 64 169 75T142 104T133 140ZM103 379Q130 391 165 401T243 412Q300 412 320 379T340 295V290H225Q146 290 97 252T47 140Q47 74 88 31T216
-12Q255 -12 294 6T358 46L370 0H437V329Q437 376 412 414T342 475T241 498Q221 498 189 493T126 478T76 455L103 379ZM140 610Q163 610 178 626T194 664Q194 686 179 702T140 718Q118 718 102 702T86 664Q86 642 102 626T140 610ZM314 610Q337 610 352 626T368
664Q368 686 353 702T314 718Q292 718 276 702T260 664Q260 642 276 626T314 610Z" />
<glyph unicode="&#xe5;" horiz-adv-x="493" d="M133 140Q133 174 156 200T223 226H341V128Q316 100 284 82T214 64Q187 64 169 75T142 104T133 140ZM103 379Q130 391 165 401T243 412Q300 412 320 379T340 295V290H225Q146 290 97 252T47 140Q47 74 88 31T216
-12Q255 -12 294 6T358 46L370 0H437V329Q437 376 412 414T342 475T241 498Q221 498 189 493T126 478T76 455L103 379ZM238 776Q212 776 190 764T154 731T140 683Q140 644 169 619T238 594Q264 594 286 605T321 637T335 683Q335 710 322 731T286 764T238 776ZM238
642Q221 642 209 654T196 683Q196 701 208 713T238 725Q255 725 267 713T279 683Q279 667 267 655T238 642Z" />
<glyph unicode="&#xe6;" horiz-adv-x="812" d="M782 221H438Q442 177 459 142T512 88T601 68Q644 68 675 80T747 111L777 41Q753 27 725 15T666 -5T601 -12Q532 -12 481 9T396 68Q379 50 354 32T295 1T216 -12Q130 -12 89 31T47 140Q47 213 96 251T225 290H340V294Q340
344 320 378T243 412Q200 412 165 402T103 379L76 455Q95 468 126 477T189 492T241 498Q291 498 332 479T400 428Q430 461 473 479T570 498Q647 498 693 462T761 364T782 231V221ZM440 286H689Q683 326 668 355T629 400T567 416Q530 416 503 400T461 355T440 286ZM338
226H223Q194 226 174 214T143 183T133 140Q133 122 142 105T169 76T214 64Q252 64 278 74T322 100T356 136Q349 156 345 178T338 226Z" />
<glyph unicode="&#xe7;" horiz-adv-x="464" d="M407 102Q376 87 346 78T271 69Q225 69 193 91T145 154T128 244Q129 292 146 331T196 393T274 416Q317 416 348 406T410 383L438 451Q417 466 386 476T325 492T275 498Q200 498 145 466T61 376T30 243Q30 167 59
110T142 20T271 -13Q292 -13 322 -8T384 8T436 33L407 102ZM202 -78Q228 -80 248 -87T279 -105T291 -127Q291 -142 276 -149T245 -156Q231 -156 213 -150T183 -139L161 -198Q176 -208 201 -214T245 -221Q276 -221 303 -211T347 -179T364 -125Q364 -107 354 -90T328
-60T289 -42L311 13H238L202 -78Z" />
<glyph unicode="&#xe8;" horiz-adv-x="504" d="M474 221V231Q474 302 453 363T385 461T262 498Q190 498 138 466T58 376T30 243Q30 167 59 110T148 20T293 -12Q327 -12 358 -5T417 14T469 41L439 111Q399 92 368 80T293 68Q239 68 204 87T152 142T130 221H474ZM132
286Q137 326 152 355T195 400T259 416Q296 416 320 400T360 355T381 286H132ZM251 589L317 606L263 747H161L251 589Z" />
<glyph unicode="&#xe9;" horiz-adv-x="504" d="M474 221V231Q474 302 453 363T385 461T262 498Q190 498 138 466T58 376T30 243Q30 167 59 110T148 20T293 -12Q327 -12 358 -5T417 14T469 41L439 111Q399 92 368 80T293 68Q239 68 204 87T152 142T130 221H474ZM132
286Q137 326 152 355T195 400T259 416Q296 416 320 400T360 355T381 286H132ZM263 589L353 747H251L197 606L263 589Z" />
<glyph unicode="&#xea;" horiz-adv-x="504" d="M474 221V231Q474 302 453 363T385 461T262 498Q190 498 138 466T58 376T30 243Q30 167 59 110T148 20T293 -12Q327 -12 358 -5T417 14T469 41L439 111Q399 92 368 80T293 68Q239 68 204 87T152 142T130 221H474ZM132
286Q137 326 152 355T195 400T259 416Q296 416 320 400T360 355T381 286H132ZM259 676L334 589L420 599L291 747H225L97 599L184 589L259 676Z" />
<glyph unicode="&#xeb;" horiz-adv-x="504" d="M474 221V231Q474 302 453 363T385 461T262 498Q190 498 138 466T58 376T30 243Q30 167 59 110T148 20T293 -12Q327 -12 358 -5T417 14T469 41L439 111Q399 92 368 80T293 68Q239 68 204 87T152 142T130 221H474ZM132
286Q137 326 152 355T195 400T259 416Q296 416 320 400T360 355T381 286H132ZM162 610Q185 610 200 626T216 664Q216 686 201 702T162 718Q140 718 124 702T108 664Q108 642 124 626T162 610ZM336 610Q359 610 374 626T390 664Q390 686 375 702T336 718Q314 718
298 702T282 664Q282 642 298 626T336 610Z" />
<glyph unicode="&#xec;" horiz-adv-x="217" d="M157 0V485H60V0H157ZM354 589L420 606L366 747H264L354 589Z" />
<glyph unicode="&#xed;" horiz-adv-x="217" d="M157 0V485H60V0H157ZM110 589L200 747H98L44 606L110 589Z" />
<glyph unicode="&#xee;" horiz-adv-x="217" d="M157 0V485H60V0H157ZM362 676L437 589L523 599L394 747H328L200 599L287 589L362 676Z" />
<glyph unicode="&#xef;" horiz-adv-x="217" d="M157 0V485H60V0H157ZM265 610Q288 610 303 626T319 664Q319 686 304 702T265 718Q243 718 227 702T211 664Q211 642 227 626T265 610ZM439 610Q462 610 477 626T493 664Q493 686 478 702T439 718Q417 718 401 702T385
664Q385 642 401 626T439 610Z" />
<glyph unicode="&#xf0;" horiz-adv-x="545" d="M515 251Q515 335 489 411T411 551T286 665T116 750L88 680Q183 642 246 595T347 492T401 373T417 241Q417 193 400 154T350 92T271 69Q225 69 193 91T145 154T128 244Q129 292 146 331T196 393T274 416Q313 416
340 406T388 378T425 339L473 385Q453 417 420 442T348 483T274 498Q199 498 145 466T61 376T30 243Q30 167 59 110T142 20T270 -13Q351 -13 405 21T487 116T515 251ZM111 539L391 681L358 742L77 603L111 539Z" />
<glyph unicode="&#xf1;" horiz-adv-x="541" d="M156 0V342Q180 363 206 380T258 408T309 419Q356 419 372 390T389 311V0H485V320Q485 372 469 413T419 477T329 501Q296 501 263 491T199 462T144 421L127 485H60V0H156ZM371 707Q370 690 361 680T338 670Q325 670
312 675T288 691Q277 702 262 706T226 711Q200 711 179 702T144 669T131 606H196Q197 622 207 632T230 643Q243 643 255 638T280 622Q291 612 306 607T339 601Q365 601 386 611T421 644T434 707H371Z" />
<glyph unicode="&#xf2;" horiz-adv-x="545" d="M270 -13Q196 -13 142 19T59 109T30 243Q31 319 60 376T144 465T274 498Q349 498 403 466T486 376T515 242Q515 167 485 110T401 20T270 -13ZM271 69Q317 69 349 92T399 154T417 241Q417 292 401 331T352 393T274
416Q229 416 197 393T147 331T128 244Q128 194 144 154T193 92T271 69ZM263 589L329 606L275 747H173L263 589Z" />
<glyph unicode="&#xf3;" horiz-adv-x="545" d="M270 -13Q196 -13 142 19T59 109T30 243Q31 319 60 376T144 465T274 498Q349 498 403 466T486 376T515 242Q515 167 485 110T401 20T270 -13ZM271 69Q317 69 349 92T399 154T417 241Q417 292 401 331T352 393T274
416Q229 416 197 393T147 331T128 244Q128 194 144 154T193 92T271 69ZM275 589L365 747H263L209 606L275 589Z" />
<glyph unicode="&#xf4;" horiz-adv-x="545" d="M270 -13Q196 -13 142 19T59 109T30 243Q31 319 60 376T144 465T274 498Q349 498 403 466T486 376T515 242Q515 167 485 110T401 20T270 -13ZM271 69Q317 69 349 92T399 154T417 241Q417 292 401 331T352 393T274
416Q229 416 197 393T147 331T128 244Q128 194 144 154T193 92T271 69ZM271 676L346 589L432 599L303 747H237L109 599L196 589L271 676Z" />
<glyph unicode="&#xf5;" horiz-adv-x="545" d="M270 -13Q196 -13 142 19T59 109T30 243Q31 319 60 376T144 465T274 498Q349 498 403 466T486 376T515 242Q515 167 485 110T401 20T270 -13ZM271 69Q317 69 349 92T399 154T417 241Q417 292 401 331T352 393T274
416Q229 416 197 393T147 331T128 244Q128 194 144 154T193 92T271 69ZM363 707Q362 690 353 680T330 670Q317 670 304 675T280 691Q269 702 254 706T218 711Q192 711 171 702T136 669T123 606H188Q189 622 199 632T222 643Q235 643 247 638T272 622Q283 612 298
607T331 601Q357 601 378 611T413 644T426 707H363Z" />
<glyph unicode="&#xf6;" horiz-adv-x="545" d="M270 -13Q196 -13 142 19T59 109T30 243Q31 319 60 376T144 465T274 498Q349 498 403 466T486 376T515 242Q515 167 485 110T401 20T270 -13ZM271 69Q317 69 349 92T399 154T417 241Q417 292 401 331T352 393T274
416Q229 416 197 393T147 331T128 244Q128 194 144 154T193 92T271 69ZM174 610Q197 610 212 626T228 664Q228 686 213 702T174 718Q152 718 136 702T120 664Q120 642 136 626T174 610ZM348 610Q371 610 386 626T402 664Q402 686 387 702T348 718Q326 718 310 702T294
664Q294 642 310 626T348 610Z" />
<glyph unicode="&#xf7;" horiz-adv-x="503" d="M251 360Q279 360 298 379T317 426Q317 454 298 473T251 493Q223 493 204 474T184 426Q184 399 203 380T251 360ZM464 311H30L39 235H473L464 311ZM252 40Q280 40 299 60T319 108Q319 135 300 154T252 174Q224 174
205 155T185 107Q185 80 204 60T252 40Z" />
<glyph unicode="&#xf8;" horiz-adv-x="559" d="M270 -13Q196 -13 142 19T59 109T30 243Q31 319 60 376T144 465T274 498Q349 498 403 466T486 376T515 242Q515 167 485 110T401 20T270 -13ZM271 69Q317 69 349 92T399 154T417 241Q417 292 401 331T352 393T274
416Q229 416 197 393T147 331T128 244Q128 194 144 154T193 92T271 69ZM219 34L144 74L343 446L415 398L219 34Z" />
<glyph unicode="&#xf9;" horiz-adv-x="541" d="M385 485V143Q362 123 336 105T283 77T232 66Q185 66 169 95T152 174V485H56V165Q56 113 72 72T122 8T212 -16Q245 -16 278 -6T342 23T397 64L414 0H481V485H385ZM257 589L323 606L269 747H167L257 589Z" />
<glyph unicode="&#xfa;" horiz-adv-x="541" d="M385 485V143Q362 123 336 105T283 77T232 66Q185 66 169 95T152 174V485H56V165Q56 113 72 72T122 8T212 -16Q245 -16 278 -6T342 23T397 64L414 0H481V485H385ZM269 589L359 747H257L203 606L269 589Z" />
<glyph unicode="&#xfb;" horiz-adv-x="541" d="M385 485V143Q362 123 336 105T283 77T232 66Q185 66 169 95T152 174V485H56V165Q56 113 72 72T122 8T212 -16Q245 -16 278 -6T342 23T397 64L414 0H481V485H385ZM265 676L340 589L426 599L297 747H231L103 599L190
589L265 676Z" />
<glyph unicode="&#xfc;" horiz-adv-x="541" d="M385 485V143Q362 123 336 105T283 77T232 66Q185 66 169 95T152 174V485H56V165Q56 113 72 72T122 8T212 -16Q245 -16 278 -6T342 23T397 64L414 0H481V485H385ZM168 610Q191 610 206 626T222 664Q222 686 207 702T168
718Q146 718 130 702T114 664Q114 642 130 626T168 610ZM342 610Q365 610 380 626T396 664Q396 686 381 702T342 718Q320 718 304 702T288 664Q288 642 304 626T342 610Z" />
<glyph unicode="&#xfd;" horiz-adv-x="473" d="M159 -61Q151 -83 134 -98T94 -125T48 -147L80 -221Q118 -212 151 -194T210 -148T248 -88L463 485H364L236 137L101 503L10 469L187 13L159 -61ZM232 589L322 747H220L166 606L232 589Z" />
<glyph unicode="&#xfe;" horiz-adv-x="533" d="M262 498Q337 498 391 466T474 376T503 239Q503 164 473 107T389 19T261 -13Q243 -13 216 -7T162 15V-208L66 -219V695L162 706V468Q189 483 216 490T262 498ZM262 69Q308 69 339 91T388 152T405 238Q405 290 389
330T340 393T262 416Q231 416 207 408T162 381V102Q184 85 208 77T262 69Z" />
<glyph unicode="&#xff;" horiz-adv-x="473" d="M159 -61Q151 -83 134 -98T94 -125T48 -147L80 -221Q118 -212 151 -194T210 -148T248 -88L463 485H364L236 137L101 503L10 469L187 13L159 -61ZM131 610Q154 610 169 626T185 664Q185 686 170 702T131 718Q109 718
93 702T77 664Q77 642 93 626T131 610ZM305 610Q328 610 343 626T359 664Q359 686 344 702T305 718Q283 718 267 702T251 664Q251 642 267 626T305 610Z" />
<glyph unicode="&#x2013;" horiz-adv-x="440" d="M401 311H30L39 235H410L401 311Z" />
<glyph unicode="&#x2014;" horiz-adv-x="541" d="M503 311H30L39 235H511L503 311Z" />
<glyph unicode="&#x2018;" horiz-adv-x="185" d="M91 470Q108 470 121 479T143 502T151 531Q151 553 136 571T102 591Q106 620 123 638T165 676L141 722Q110 706 85 677T45 612T30 542Q30 511 47 491T91 470Z" />
<glyph unicode="&#x2019;" horiz-adv-x="185" d="M93 722Q77 722 63 713T41 690T32 661Q32 647 39 633T58 611T81 601Q77 572 61 553T20 515L43 470Q75 487 100 516T140 580T155 650Q155 682 137 702T93 722Z" />
<glyph unicode="&#x201a;" horiz-adv-x="185" d="M93 120Q77 120 63 112T41 90T32 60Q32 46 39 32T58 10T81 0Q77 -29 61 -48T20 -86L43 -131Q75 -114 100 -85T140 -21T155 48Q155 81 137 100T93 120Z" />
<glyph unicode="&#x201c;" horiz-adv-x="351" d="M91 470Q108 470 121 479T143 502T151 531Q151 553 136 571T102 591Q106 620 123 638T165 676L141 722Q110 706 85 677T45 612T30 542Q30 511 47 491T91 470ZM256 470Q273 470 287 479T309 502T318 531Q318 546
311 559T292 582T269 591Q273 620 289 638T331 676L307 722Q276 706 251 677T211 612T196 542Q196 511 213 491T256 470Z" />
<glyph unicode="&#x201d;" horiz-adv-x="350" d="M259 722Q243 722 229 713T207 690T198 661Q198 639 213 621T248 601Q243 572 227 553T185 515L209 470Q241 487 266 516T305 580T320 650Q320 682 302 702T259 722ZM93 722Q77 722 63 713T41 690T32 661Q32 647
39 633T58 611T81 601Q77 572 61 553T20 515L43 470Q75 487 100 516T140 580T155 650Q155 682 137 702T93 722Z" />
<glyph unicode="&#x201e;" horiz-adv-x="350" d="M93 120Q77 120 63 112T41 90T32 60Q32 46 39 32T58 10T81 0Q77 -29 61 -47T20 -85L43 -131Q75 -114 100 -85T140 -21T155 48Q155 81 137 100T93 120ZM259 120Q243 120 229 112T207 90T198 60Q198 38 213 20T248
0Q243 -29 227 -48T185 -86L209 -131Q241 -114 266 -85T305 -21T320 48Q320 81 302 100T259 120Z" />
<glyph unicode="&#x2022;" horiz-adv-x="250" d="M125 234Q152 234 173 246T207 280T220 328Q220 354 208 375T174 410T125 423Q99 423 77 410T43 376T30 328Q30 302 42 281T77 247T125 234Z" />
<glyph unicode="&#x2039;" horiz-adv-x="222" d="M30 221L180 83L202 150L107 245L202 339L180 408L30 269V221Z" />
<glyph unicode="&#x203a;" horiz-adv-x="222" d="M192 269L42 408L20 339L115 245L20 150L42 83L192 221V269Z" />
</font>
</defs>
</svg>
