<?xml version="1.0" standalone="no"?>
<!DOCTYPE svg PUBLIC "-//W3C//DTD SVG 1.1//EN" "http://www.w3.org/Graphics/SVG/1.1/DTD/svg11.dtd">
<svg xmlns="http://www.w3.org/2000/svg">
<defs >
<font id="Catamaran" horiz-adv-x="583" ><font-face
    font-family="Catamaran Thin SemiBold"
    units-per-em="1000"
    panose-1="0 0 0 0 0 0 0 0 0 0"
    ascent="1100"
    descent="-540"
    alphabetic="0" />
<glyph unicode=" " horiz-adv-x="228" />
<glyph unicode="!" horiz-adv-x="194" d="M53 237L141 196L156 702H37L53 237ZM97 133Q70 133 50 114T30 66Q30 38 49 19T97 0Q124 0 143 19T163 67Q163 95 144 114T97 133Z" />
<glyph unicode="&quot;" horiz-adv-x="372" d="M274 732Q256 732 241 722T217 697T207 664Q207 640 224 620T260 599Q253 569 236 550T194 509L220 457Q256 476 282 508T325 578T342 652Q342 687 322 709T274 732ZM98 732Q80 732 65 722T41 697T32 664Q32 649
40 634T60 609T84 599Q78 569 61 550T20 509L46 457Q80 476 108 508T151 578T167 652Q167 687 147 709T98 732Z" />
<glyph unicode="#" horiz-adv-x="562" d="M403 515L376 398H251L279 513L183 515L156 398H30L40 314H136L109 196H30L40 112H89L63 -5L158 -11L186 112H310L284 -5L379 -11L406 112H532L522 196H425L453 314H532L522 398H472L499 513L403 515ZM356 314L329 196H206L233
314H356Z" />
<glyph unicode="$" horiz-adv-x="523" d="M156 -123V1Q134 6 114 12T77 26T49 41L75 131Q95 122 123 112T182 94T244 86Q289 86 319 96T364 125T380 172Q380 201 360 222T306 262T227 303Q187 324 153 345T93 392T53 447T38 517Q38 572 69 615T161 679V794L238
806V695Q245 695 252 695T266 696Q274 696 282 696T297 694V794L376 806V678Q397 672 416 664T451 648L414 558Q395 568 374 577T327 591T270 597Q220 597 186 578T152 518Q152 488 171 467T224 426T305 383Q344 363 378 343T439 298T480 244T495 172Q495 116 463
73T371 7V-123H293V-10Q281 -11 270 -12T245 -13H233V-123H156Z" />
<glyph unicode="%" horiz-adv-x="908" d="M546 710L245 0L358 -4L659 706L546 710ZM191 702Q149 702 112 681T52 622T28 532Q28 479 50 441T110 383T191 363Q234 363 271 383T331 442T355 532Q355 586 332 624T272 682T191 702ZM191 619Q218 619 237 598T257 532Q257
502 248 483T223 455T191 445Q163 445 144 466T125 533Q125 563 134 581T159 609T191 619ZM719 338Q677 338 639 318T578 260T555 169Q555 115 578 77T638 20T719 0Q761 0 797 20T857 79T880 169Q880 223 858 261T799 318T719 338ZM719 256Q745 256 764 234T784
169Q784 140 775 121T751 91T719 81Q690 81 671 103T651 170Q651 199 661 218T687 247T719 256Z" />
<glyph unicode="&amp;" horiz-adv-x="678" d="M427 133Q403 112 371 100T301 88Q264 88 231 101T176 144T155 218Q156 253 169 283T208 336Q218 326 228 316T250 295L427 133ZM585 -11L650 71L570 142Q590 183 602 231T617 334L518 374Q516 329 507 290T485 219L312
377Q282 405 263 426T234 469T224 514Q224 537 235 555T265 586T313 599Q358 599 389 587T451 559L490 648Q452 668 407 682T312 696Q250 696 204 670T133 602T108 508Q108 480 116 457T138 412Q93 378 66 326T38 216Q38 141 73 91T168 15T301 -12Q367 -12 418
7T507 60L585 -11Z" />
<glyph unicode="&apos;" horiz-adv-x="197" d="M98 732Q80 732 65 722T41 697T32 664Q32 649 40 634T60 609T84 599Q78 569 61 550T20 509L46 457Q80 476 108 508T151 578T167 652Q167 687 147 709T98 732Z" />
<glyph unicode="(" horiz-adv-x="293" d="M262 -6Q241 19 222 59T187 145T164 238T155 321Q155 358 163 403T187 493T222 579T263 648L175 680Q134 623 107 564T65 443T50 320Q50 257 64 195T107 73T175 -38L262 -6Z" />
<glyph unicode=")" horiz-adv-x="293" d="M30 646Q51 622 70 583T105 497T128 404T137 320Q137 284 129 239T105 148T71 62T30 -7L117 -38Q157 18 185 78T228 199T243 320Q243 384 228 446T185 568T118 680L30 646Z" />
<glyph unicode="*" horiz-adv-x="375" d="M232 768H143L142 665L35 689L10 611L117 589L43 485L111 433L188 538L265 433L332 485L258 590L365 611L339 689L232 665V768Z" />
<glyph unicode="+" horiz-adv-x="537" d="M497 317H325V531L220 534V317H30L38 231H220V8L325 4V231H507L497 317Z" />
<glyph unicode="," horiz-adv-x="198" d="M99 133Q81 133 66 124T42 99T33 66Q33 50 41 35T61 11T85 0Q79 -30 62 -49T20 -89L46 -142Q81 -123 108 -91T152 -21T168 52Q168 88 148 110T99 133Z" />
<glyph unicode="-" horiz-adv-x="328" d="M288 318H30L40 229H298L288 318Z" />
<glyph unicode="." horiz-adv-x="193" d="M98 0Q126 0 144 19T163 67Q163 95 145 114T98 133Q69 133 50 114T30 66Q30 38 49 19T98 0Z" />
<glyph unicode="/" horiz-adv-x="436" d="M311 710L10 0L125 -4L426 706L311 710Z" />
<glyph unicode="0" horiz-adv-x="601" d="M28 286Q28 199 63 132T159 26T301 -13Q380 -13 442 26T539 133T574 288Q574 372 539 438T443 541T301 579Q222 579 161 541T64 437T28 286ZM133 289Q133 346 155 389T215 458T301 484Q351 484 389 458T449 387T471 284Q471
226 449 181T389 109T302 83Q253 83 215 109T155 182T133 289Z" />
<glyph unicode="1" horiz-adv-x="346" d="M278 0V566H203L10 476L56 391L165 441V0H278Z" />
<glyph unicode="2" horiz-adv-x="484" d="M225 579Q158 579 112 562T38 527L61 437Q79 447 102 459T155 479T218 488Q270 488 302 467T335 401Q335 379 323 356T288 308T232 254L25 75V0H464L449 86H177L289 179Q343 225 374 261T419 333T433 411Q433 462 408
500T336 558T225 579Z" />
<glyph unicode="3" horiz-adv-x="477" d="M225 579Q165 579 114 561T17 512L70 436Q96 454 135 471T222 488Q255 488 278 477T314 447T327 406Q327 364 288 339T183 313H125L141 226H177Q262 226 300 196T339 116Q339 85 321 62T274 27T213 15Q166 15 131 26T57
60L0 -16Q43 -39 99 -57T211 -76Q282 -76 334 -51T415 19T444 117Q444 159 429 192T390 246T343 272Q366 281 386 301T419 349T432 408Q432 453 409 492T340 555T225 579Z" />
<glyph unicode="4" horiz-adv-x="548" d="M528 155H423V571H340L10 155L25 63H310V-69H423V63H516L528 155ZM310 387V155H131L310 387Z" />
<glyph unicode="5" horiz-adv-x="507" d="M170 212Q178 227 203 243T264 259Q312 259 343 229T374 142Q374 85 336 52T240 18Q192 18 157 29T83 62L28 -16Q56 -31 90 -45T162 -67T236 -76Q312 -76 366 -48T450 30T479 142Q479 198 455 245T382 321T259 350Q237
350 216 345T175 329L182 474H430L442 566H85L68 212H170Z" />
<glyph unicode="6" horiz-adv-x="523" d="M74 292L99 217Q122 244 149 263T208 294T273 305Q308 305 335 291T377 249T392 187Q392 158 377 134T336 95T275 80Q235 80 204 99T153 159T134 261Q134 314 152 355T200 427T268 481T348 519T428 543L410 634Q362 628
309 609T206 558T116 482T52 380T28 252Q28 165 60 106T149 17T279 -13Q341 -13 390 13T467 86T495 192Q495 250 467 295T390 367T276 394Q232 394 197 380T133 343T74 292Z" />
<glyph unicode="7" horiz-adv-x="462" d="M238 -69L442 519L408 566H10L24 474H317L133 -38L238 -69Z" />
<glyph unicode="8" horiz-adv-x="515" d="M258 643Q194 643 149 620T79 557T55 471Q55 427 80 392T146 339Q116 331 89 306T45 249T28 181Q28 128 55 84T133 14T258 -13Q330 -13 381 13T460 84T487 181Q487 217 470 250T426 307T369 339Q395 351 416 371T449 416T461
471Q461 518 437 557T368 619T258 643ZM256 551Q303 551 330 527T358 471Q358 448 347 429T314 397T258 378Q208 386 182 411T156 471Q156 492 168 510T204 540T256 551ZM258 295Q320 286 352 253T384 179Q384 148 366 126T319 91T257 78Q224 78 195 90T148 125T130
179Q130 220 162 253T258 295Z" />
<glyph unicode="9" horiz-adv-x="523" d="M448 273L423 348Q400 322 373 303T314 272T249 261Q214 261 187 276T145 317T129 378Q129 409 144 433T186 472T247 486Q287 486 319 467T370 407T389 305Q389 252 371 211T323 139T254 85T175 48T94 23L112 -68Q160
-62 213 -43T317 8T407 84T471 186T495 313Q495 402 463 460T373 549T243 579Q181 579 132 553T56 480T28 373Q28 316 56 270T133 198T246 171Q292 171 326 185T390 222T448 273Z" />
<glyph unicode=":" horiz-adv-x="193" d="M97 334Q125 334 144 353T163 401Q163 429 144 448T97 468Q69 468 50 448T30 401Q30 374 49 354T97 334ZM97 9Q125 9 144 28T163 76Q163 104 144 123T97 143Q69 143 50 124T30 76Q30 48 49 29T97 9Z" />
<glyph unicode=";" horiz-adv-x="199" d="M102 334Q130 334 149 353T169 401Q169 429 150 448T102 468Q74 468 54 449T34 401Q34 373 54 354T102 334ZM99 143Q81 143 66 133T42 107T33 75Q33 59 41 44T61 20T85 10Q79 -21 62 -40T20 -80L46 -133Q81 -113 108 -81T152
-12T168 61Q168 97 148 120T99 143Z" />
<glyph unicode="&lt;" horiz-adv-x="341" d="M321 111L141 245L321 379L298 470L30 273V217L298 19L321 111Z" />
<glyph unicode="=" horiz-adv-x="511" d="M472 398H30L40 314H481L472 398ZM472 196H30L40 112H481L472 196Z" />
<glyph unicode="&gt;" horiz-adv-x="341" d="M311 272L43 470L20 378L200 245L20 110L43 19L311 216V272Z" />
<glyph unicode="?" horiz-adv-x="426" d="M199 701Q144 701 100 687T10 644L25 544Q72 576 115 591T196 607Q239 607 265 586T291 524Q291 479 245 440T125 378L133 202L214 169L227 320Q277 345 315 379T374 451T396 526Q396 578 375 617T310 679T199 701ZM167
133Q139 133 120 114T100 66Q100 39 119 20T167 0Q195 0 215 19T235 66Q235 95 215 114T167 133Z" />
<glyph unicode="@" horiz-adv-x="765" d="M552 388L520 427H442Q398 427 357 413T283 371T232 306T213 220Q213 150 255 106T387 62Q410 62 433 70T474 88Q490 75 510 68T554 60Q594 60 627 75T684 122T723 199T737 306Q737 369 714 423T647 516T547 578T421 601Q331
601 258 571T134 488T56 367T28 222Q28 149 55 90T130 -12T236 -77T356 -99Q406 -99 458 -92T561 -57L532 27Q506 15 478 7T421 -4T367 -8Q303 -8 249 19T162 99T129 222Q129 288 153 341T218 433T311 491T419 511Q485 511 535 484T614 410T643 301Q643 254 631
220T601 167T560 149Q550 149 539 158T529 188L552 388ZM385 148Q358 148 342 158T320 186T313 220Q313 260 331 288T379 330T445 345H455L436 197Q434 191 434 185T436 173Q428 161 415 155T385 148Z" />
<glyph unicode="A" horiz-adv-x="642" d="M419 262H218L317 527L419 262ZM270 680L10 0H121L185 171H454L520 -9L632 7L368 680H270Z" />
<glyph unicode="B" horiz-adv-x="615" d="M344 0Q398 0 443 12T520 49T570 111T588 197Q588 261 557 302T474 367Q505 389 530 420T555 493Q555 562 526 603T446 662T326 680H88V0H344ZM312 586Q351 586 379 578T422 550T437 491Q437 458 419 437T367 407T294
397H200V586H312ZM347 305Q403 305 437 278T472 195Q472 161 455 138T407 104T337 93H200V305H347Z" />
<glyph unicode="C" horiz-adv-x="561" d="M540 651Q512 667 479 676T414 690T363 694Q288 694 228 668T126 593T61 480T38 336Q38 264 58 201T118 89T219 13T358 -14Q386 -14 420 -9T487 5T544 28L501 111Q472 98 436 90T352 81Q305 81 269 101T207 157T168 239T155
337Q155 417 182 475T255 566T360 599Q392 599 414 596T457 586T505 571L540 651Z" />
<glyph unicode="D" horiz-adv-x="685" d="M337 0Q437 1 506 44T611 164T647 344Q647 441 614 516T513 636T339 680H88V0H337ZM343 585Q408 585 449 555T511 471T531 343Q531 258 507 203T439 121T335 94H199V585H343Z" />
<glyph unicode="E" horiz-adv-x="561" d="M541 0L524 88H199V300H443L426 389H199V592H498L481 680H88V0H541Z" />
<glyph unicode="F" horiz-adv-x="500" d="M416 383H199V592H480L463 680H88V0H199V296H432L416 383Z" />
<glyph unicode="G" horiz-adv-x="628" d="M334 278H480V95Q460 89 434 85T374 81Q311 81 261 112T183 201T155 337Q155 402 173 451T225 532T302 582T392 599Q424 599 445 596T488 586T536 571L571 651Q544 667 510 676T443 690T390 694Q314 694 250 668T138 594T64
480T38 336Q38 238 78 159T195 33T377 -14Q416 -14 453 -8T524 10T581 35V364H343L334 278Z" />
<glyph unicode="H" horiz-adv-x="685" d="M597 0V680H485V385H199V685L88 680V0H199V296H485V0H597Z" />
<glyph unicode="I" horiz-adv-x="287" d="M199 0V680H88V0H199Z" />
<glyph unicode="J" horiz-adv-x="280" d="M90 80Q90 49 85 32T62 4T10 -20L55 -102Q112 -83 144 -63T189 -13T203 61V680H90V80Z" />
<glyph unicode="K" horiz-adv-x="641" d="M492 0L271 298L200 225V0H88V680H200V380L503 695L584 630L347 379L631 0H492Z" />
<glyph unicode="L" horiz-adv-x="529" d="M504 88H199V680H88V0H519L504 88Z" />
<glyph unicode="M" horiz-adv-x="767" d="M418 218L567 433V0H680V680H611L392 355L157 680H88V0H199V449L375 213L418 218Z" />
<glyph unicode="N" horiz-adv-x="729" d="M199 0V482L232 432L534 0H642V680H528V201L483 269L194 680H88V0H199Z" />
<glyph unicode="O" horiz-adv-x="733" d="M365 -14Q266 -14 192 32T78 157T38 336Q38 440 80 520T196 647T367 696Q467 696 540 650T654 524T695 345Q695 241 653 161T537 34T365 -14ZM364 81Q425 81 473 112T549 203T577 344Q577 418 551 476T478 567T368 600Q309
600 261 567T184 475T155 338Q155 263 181 205T254 114T364 81Z" />
<glyph unicode="P" horiz-adv-x="582" d="M199 0V244H282Q335 244 384 257T471 297T532 366T554 465Q554 542 519 589T424 658T291 680H88V0H199ZM288 586Q335 586 367 574T418 535T437 459Q434 417 415 390T363 350T287 337H199V586H288Z" />
<glyph unicode="Q" horiz-adv-x="733" d="M456 246L380 188L614 -30L680 28L456 246ZM367 696Q270 694 196 648T80 521T38 337Q38 237 78 158T191 32T365 -14Q463 -12 537 34T653 160T695 345Q695 444 655 523T541 649T367 696ZM155 338Q155 416 183 474T260 566T368
600Q431 600 478 567T551 476T577 344Q577 262 549 203T473 113T364 81Q302 81 255 114T182 205T155 338Z" />
<glyph unicode="R" horiz-adv-x="615" d="M288 586Q334 586 367 575T418 538T437 470Q437 428 417 404T363 369T287 357H199V586H288ZM88 680V0H199V265H274Q289 265 307 265T337 267L485 0H605L437 297Q488 320 521 364T554 475Q554 547 519 592T424 658T291 680H88Z" />
<glyph unicode="S" horiz-adv-x="522" d="M49 41Q63 31 87 22T139 5T196 -8T245 -13Q326 -13 381 11T465 77T495 172Q495 213 480 243T439 298T379 342T305 383Q259 407 224 426T171 466T152 518Q152 558 186 577T270 597Q301 597 326 592T373 577T414 558L451
648Q415 666 366 681T266 696Q194 696 143 672T65 608T38 517Q38 478 52 448T92 392T152 346T227 303Q271 282 305 263T360 222T380 172Q380 145 365 126T319 96T244 86Q214 86 183 93T123 111T75 131L49 41Z" />
<glyph unicode="T" horiz-adv-x="581" d="M554 680H10V591H224V0H338V591H571L554 680Z" />
<glyph unicode="U" horiz-adv-x="699" d="M190 680H78V245Q78 172 111 114T205 23T350 -11Q434 -11 494 22T588 114T622 245V680H509V254Q509 199 489 160T434 101T350 81Q304 81 268 100T211 159T190 254V680Z" />
<glyph unicode="V" horiz-adv-x="642" d="M122 689L10 673L273 0H371L632 680H520L324 153L122 689Z" />
<glyph unicode="W" horiz-adv-x="909" d="M899 680L699 0H600L454 520L311 0H213L10 673L122 689L264 153L400 680H512L651 153L787 680H899Z" />
<glyph unicode="X" horiz-adv-x="620" d="M126 0L308 266L478 0H597L376 337L610 680H492L320 414L125 700L31 658L250 344L10 0H126Z" />
<glyph unicode="Y" horiz-adv-x="594" d="M346 0V266L584 680H465L289 380L120 696L10 660L234 267V0H346Z" />
<glyph unicode="Z" horiz-adv-x="571" d="M538 88H140L549 592L537 680H46L60 591H419L18 88L31 0H551L538 88Z" />
<glyph unicode="[" horiz-adv-x="339" d="M100 -88H329L312 -2H210V608H312L329 696H100V-88Z" />
<glyph unicode="\" horiz-adv-x="436" d="M426 0L125 710L10 706L311 -4L426 0Z" />
<glyph unicode="]" horiz-adv-x="339" d="M239 696H10L25 608H127V-2H25L10 -88H239V696Z" />
<glyph unicode="^" horiz-adv-x="443" d="M222 280L318 143H433L259 390H185L10 143H125L222 280Z" />
<glyph unicode="_" horiz-adv-x="441" d="M402 88H30L40 0H411L402 88Z" />
<glyph unicode="`" horiz-adv-x="190" d="M102 589L180 610L128 750H10L102 589Z" />
<glyph unicode="a" horiz-adv-x="498" d="M143 143Q143 172 164 196T223 220H332V133Q306 107 276 92T214 77Q192 77 176 86T152 111T143 143ZM102 363Q130 375 167 385T243 396Q290 396 310 369T331 298V295H225Q145 294 95 255T45 143Q45 74 87 31T216 -12Q254
-12 290 6T352 49L369 0H445V324Q445 373 418 413T344 475T241 498Q221 498 188 493T123 478T72 455L102 363Z" />
<glyph unicode="b" horiz-adv-x="545" d="M127 0L179 73V706L68 695V0H127ZM139 333Q172 368 202 385T273 402Q315 402 344 382T387 325T402 241Q402 197 387 161T343 105T272 84Q234 84 203 99T138 154L105 76Q124 49 153 29T215 -2T272 -13Q349 -13 403 19T488
108T518 242Q518 320 489 377T405 466T275 498Q248 498 218 488T158 459T107 410L139 333Z" />
<glyph unicode="c" horiz-adv-x="468" d="M410 116Q377 101 347 93T278 84Q237 84 206 104T159 161T143 243Q144 288 160 324T208 381T279 402Q317 402 348 393T412 369L445 449Q422 465 391 476T329 492T279 498Q203 498 147 466T59 377T28 242Q28 166 58 109T145
19T277 -13Q298 -13 328 -8T390 9T443 35L410 116Z" />
<glyph unicode="d" horiz-adv-x="557" d="M377 87L429 0H490V705L377 695V87ZM405 152Q372 118 342 101T272 84Q232 84 203 104T158 161T143 244Q143 289 158 324T202 381T273 402Q311 402 342 386T407 332L440 409Q421 437 392 457T330 487T272 498Q197 498 142
466T58 377T28 244Q28 166 57 109T140 19T270 -13Q298 -13 328 -3T388 28T439 76L405 152Z" />
<glyph unicode="e" horiz-adv-x="509" d="M482 213V237Q482 308 460 367T389 462T266 498Q192 498 139 466T57 377T28 242Q28 166 58 109T149 20T299 -12Q337 -12 369 -5T428 15T478 44L444 126Q408 107 376 95T301 83Q249 83 217 99T168 145T146 213H482ZM148
289Q153 325 167 350T206 388T262 402Q294 402 316 389T353 350T374 289H148Z" />
<glyph unicode="f" horiz-adv-x="348" d="M13 396H88V0H201V396H327L291 481H201V518Q201 556 216 579T267 603Q278 603 291 600T317 591L348 676Q339 683 324 689T292 698T259 702Q205 702 167 681T109 622T88 532V481H13V396Z" />
<glyph unicode="g" horiz-adv-x="553" d="M490 485H429L377 401V-32Q377 -83 340 -111T243 -140Q202 -139 168 -129T95 -98L61 -178Q79 -191 104 -201T155 -217T206 -227T246 -230Q322 -230 376 -206T460 -138T490 -33V485ZM405 152Q372 118 342 101T272 84Q232
84 203 104T158 161T143 244Q143 289 158 324T202 381T273 402Q311 402 342 386T407 332L440 409Q421 437 392 457T330 487T272 498Q197 498 142 466T58 377T28 244Q28 166 57 109T140 19T270 -13Q298 -13 328 -3T388 28T439 76L405 152Z" />
<glyph unicode="h" horiz-adv-x="563" d="M179 339Q200 355 223 371T271 397T321 407Q361 407 379 380T397 305V0H509V312Q509 366 494 408T444 476T349 501Q319 501 286 492T222 467T162 427L179 339ZM179 0V706L68 695V0H179Z" />
<glyph unicode="i" horiz-adv-x="228" d="M171 0V485H58V0H171ZM113 563Q141 563 160 582T180 630Q180 658 160 677T113 696Q85 696 67 677T48 630Q48 601 66 582T113 563Z" />
<glyph unicode="j" horiz-adv-x="251" d="M129 563Q112 563 97 572T72 596T63 630Q63 657 82 676T129 696Q157 696 177 677T197 630Q197 602 177 583T129 563ZM186 485V-4Q186 -57 177 -93T136 -154T41 -200L-2 -116Q33 -103 49 -88T69 -51T73 3V485H186Z" />
<glyph unicode="k" horiz-adv-x="502" d="M179 0V166L237 219L372 0H502L316 292L456 421L392 498L179 298V706L68 695V0H179Z" />
<glyph unicode="l" horiz-adv-x="247" d="M179 0V706L68 695V0H179Z" />
<glyph unicode="m" horiz-adv-x="848" d="M170 0V339Q191 355 213 371T258 397T304 407Q330 407 344 395T365 360T372 305V0H485V322Q485 376 470 416T420 478T331 501Q305 501 274 492T212 467T153 427L133 485H58V0H170ZM480 339Q501 355 523 371T569 397T614
407Q640 407 654 395T675 360T682 305V0H795V322Q795 376 780 416T730 478T641 501Q614 501 583 492T521 467T463 427L480 339Z" />
<glyph unicode="n" horiz-adv-x="554" d="M170 0V339Q191 355 214 371T262 397T312 407Q352 407 369 380T387 305V0H500V312Q500 366 485 408T434 476T339 501Q310 501 277 492T213 467T153 427L133 485H58V0H170Z" />
<glyph unicode="o" horiz-adv-x="556" d="M277 -13Q200 -13 144 19T58 108T28 242Q28 320 59 377T146 466T279 498Q356 498 411 466T498 377T529 243Q529 167 498 109T410 20T277 -13ZM278 84Q320 84 350 105T396 162T413 243Q413 289 397 325T351 381T279 402Q239
402 208 381T161 324T143 243Q143 197 159 161T206 105T278 84Z" />
<glyph unicode="p" horiz-adv-x="541" d="M175 -208V416L123 485H64V-219L175 -208ZM135 333Q168 368 198 385T269 402Q311 402 340 382T383 325T398 241Q398 197 383 161T339 105T268 84Q230 84 199 99T134 154L101 76Q120 49 149 29T211 -2T268 -13Q345 -13
399 19T484 108T514 242Q514 320 485 377T401 466T271 498Q244 498 214 488T154 459T103 410L135 333Z" />
<glyph unicode="q" horiz-adv-x="553" d="M429 485L377 406V-219L490 -209V485H429ZM405 152Q372 118 342 101T272 84Q232 84 203 104T158 161T143 244Q143 289 158 324T202 381T273 402Q311 402 342 386T407 332L440 409Q421 437 392 457T330 487T272 498Q197
498 142 466T58 377T28 244Q28 166 57 109T140 19T270 -13Q298 -13 328 -3T388 28T439 76L405 152Z" />
<glyph unicode="r" horiz-adv-x="352" d="M170 0V309Q196 333 226 352T287 383T342 395L318 485Q292 485 262 472T203 441T155 405L118 485H58V0H170Z" />
<glyph unicode="s" horiz-adv-x="422" d="M31 34Q53 19 83 8T144 -8T195 -13Q292 -13 343 26T394 135Q394 177 370 207T308 260T230 296Q195 308 169 322T142 355Q142 377 162 392T214 407Q251 407 281 398T342 373L377 450Q355 466 325 476T266 492T216 498Q129
498 79 460T29 353Q29 314 53 286T115 238T190 205Q220 197 241 186T274 161T286 131Q286 115 273 103T239 85T194 79Q173 79 152 83T109 94T65 111L31 34Z" />
<glyph unicode="t" horiz-adv-x="361" d="M280 481H192V622L80 600V481H12L13 396H80V145Q80 92 101 56T161 0T253 -19Q268 -19 285 -15T318 -5T343 7L312 90Q300 85 287 82T261 79Q226 79 209 102T192 163V396H314L280 481Z" />
<glyph unicode="u" horiz-adv-x="554" d="M383 485V146Q363 130 340 115T291 89T241 79Q202 79 184 106T166 181V485H54V173Q54 119 69 76T119 9T215 -16Q244 -16 276 -7T341 19T400 58L419 0H496V485H383Z" />
<glyph unicode="v" horiz-adv-x="487" d="M290 0L477 485H359L243 162L119 503L10 467L190 0H290Z" />
<glyph unicode="w" horiz-adv-x="709" d="M546 0L699 485H582L500 172L412 485H290L208 172L120 503L10 466L156 0H254L349 321L449 0H546Z" />
<glyph unicode="x" horiz-adv-x="490" d="M135 0L239 160L340 0H464L313 230L480 485H356L248 317L130 501L28 466L174 247L10 0H135Z" />
<glyph unicode="y" horiz-adv-x="488" d="M156 -43Q148 -65 129 -81T86 -109T38 -131L77 -222Q117 -212 154 -192T219 -142T262 -76L478 485H360L243 163L119 503L10 466L183 23L156 -43Z" />
<glyph unicode="z" horiz-adv-x="438" d="M411 485H32L55 393H272L16 59L30 0H422L412 90H156L417 422L411 485Z" />
<glyph unicode="{" horiz-adv-x="286" d="M176 309Q199 325 208 349T218 411Q218 430 213 446T200 480Q193 496 188 511T183 540Q183 550 194 561T229 573H265L276 659H234Q162 659 126 629T90 543Q90 529 93 513T103 479Q110 457 115 437T120 402Q120 378 106
362T72 345H30V270H72Q91 270 107 256T123 218Q123 204 118 185T105 146Q98 127 94 110T89 79Q89 22 124 -10T234 -42H276L265 44H229Q206 44 195 55T183 77Q183 93 188 108T201 142Q209 158 213 174T218 206Q218 240 208 266T176 309Z" />
<glyph unicode="|" horiz-adv-x="287" d="M88 712V0L199 -8V703L88 712Z" />
<glyph unicode="}" horiz-adv-x="285" d="M108 307Q86 292 77 268T67 206Q67 187 72 171T85 137Q92 120 97 106T102 77Q102 66 91 55T55 44H20L9 -42H51Q122 -42 158 -12T194 73Q194 87 191 103T182 137Q176 159 171 179T165 214Q165 239 179 255T213 272H255V346H213Q194
346 178 361T162 399Q162 413 167 431T179 470Q186 489 191 506T196 537Q196 595 161 627T51 659H9L20 573H55Q79 573 90 562T102 539Q102 524 97 509T84 475Q76 459 72 443T67 410Q67 377 77 351T108 307Z" />
<glyph unicode="~" horiz-adv-x="454" d="M30 180H128Q130 203 139 210T159 218Q177 218 193 214T225 201Q241 193 260 188T307 183Q338 183 364 197T407 245T424 331H326Q325 309 314 301T294 292Q276 292 261 297T230 309Q214 317 195 322T148 327Q117 327 90
313T47 267T30 180Z" />
<glyph unicode="&#xa0;" horiz-adv-x="228" />
<glyph unicode="&#xa1;" horiz-adv-x="194" d="M97 568Q125 568 144 587T164 635Q164 663 145 682T97 702Q70 702 50 683T30 635Q30 607 50 588T97 568ZM142 465L52 505L36 0H156L142 465Z" />
<glyph unicode="&#xa2;" horiz-adv-x="468" d="M342 462V609L234 598V466L342 462ZM343 26L235 23V-114H343V26ZM410 116Q377 101 347 93T278 84Q237 84 206 104T159 161T143 243Q144 288 160 324T208 381T279 402Q317 402 348 393T412 369L445 449Q422 465 391
476T329 492T279 498Q203 498 147 466T59 377T28 242Q28 166 58 109T145 19T277 -13Q298 -13 328 -8T390 9T443 35L410 116Z" />
<glyph unicode="&#xa3;" horiz-adv-x="486" d="M60 0H476L459 88H211Q225 109 230 140T236 206V301H395L358 386H236V500Q236 538 251 562T302 587Q313 587 326 583T352 575L383 657Q374 665 359 671T326 680T293 684Q238 684 200 663T142 601T123 505V386H48L49
301H123V173Q123 135 107 112T50 88L60 0Z" />
<glyph unicode="&#xa4;" horiz-adv-x="691" d="M98 -78L203 29Q233 10 269 -1T346 -13Q385 -13 421 -3T487 28L593 -78L661 3L563 104Q581 132 591 167T603 242Q602 281 592 316T563 380L661 480L593 562L488 457Q458 475 424 486T348 498Q308 497 272 486T205
454L98 562L30 480L131 378Q113 351 103 316T93 242Q93 204 102 169T129 105L30 3L98 -78ZM486 241Q486 200 467 167T416 113T345 92Q307 93 276 113T227 167T208 243Q209 284 227 317T278 371T348 391Q386 391 417 371T467 318T486 241Z" />
<glyph unicode="&#xa5;" horiz-adv-x="594" d="M71 312L81 228H522L513 312H71ZM71 152L81 69H522L513 152H71ZM346 0V266L584 680H465L289 380L120 696L10 660L234 267V0H346Z" />
<glyph unicode="&#xa6;" horiz-adv-x="287" d="M88 712V415L199 406V703L88 712ZM88 296V0L199 -8V288L88 296Z" />
<glyph unicode="&#xa7;" horiz-adv-x="592" d="M425 87Q470 101 501 125T548 183T564 256Q564 296 549 326T508 381T448 425T375 467Q328 491 294 510T241 550T222 602Q222 642 256 661T340 681Q371 681 396 675T443 661T484 642L521 732Q485 750 436 765T335
780Q264 780 213 757T134 693T107 601Q107 562 121 532T161 476T221 430T296 387Q340 366 374 347T429 306T449 256Q449 225 428 206T363 179L425 87ZM49 -65Q63 -75 87 -84T139 -101T196 -114T245 -119Q326 -119 381 -95T465 -30T495 66Q495 106 480 136T439 191T379
235T305 277Q259 301 225 320T171 360T152 412Q152 444 174 462T232 486L166 575Q126 560 97 536T53 480T38 411Q38 372 52 342T92 286T152 240T227 197Q271 176 305 157T360 116T380 66Q380 39 365 20T319 -10T244 -20Q214 -20 183 -13T123 5T75 25L49 -65Z" />
<glyph unicode="&#xa8;" horiz-adv-x="321" d="M70 607Q95 607 111 624T128 666Q128 690 112 707T70 725Q45 725 28 708T10 666Q10 641 27 624T70 607ZM251 607Q277 607 294 624T311 666Q311 690 294 707T251 725Q228 725 210 708T192 666Q192 641 210 624T251 607Z" />
<glyph unicode="&#xa9;" horiz-adv-x="815" d="M788 336Q788 415 762 483T685 602T565 683T407 712Q319 712 249 684T130 603T55 483T28 336Q28 258 54 190T130 70T249 -10T407 -39Q494 -39 564 -11T684 70T761 190T788 336ZM105 337Q105 425 141 494T246 604T407
645Q501 645 568 605T673 495T710 337Q710 250 673 180T569 70T407 29Q314 29 246 69T142 180T105 337ZM425 103Q444 103 470 108T525 123T573 148L541 231Q512 216 487 207T426 198Q370 198 342 235T314 339Q314 380 326 411T364 458T427 475Q451 475 469 472T505
461T543 444L574 528Q554 542 526 552T472 566T426 571Q358 571 307 542T227 461T198 338Q198 268 224 215T302 133T425 103Z" />
<glyph unicode="&#xaa;" horiz-adv-x="328" d="M113 472Q113 487 125 495T158 503H216V469Q201 456 184 449T147 442Q130 442 122 451T113 472ZM66 601Q84 608 109 615T160 622Q185 622 198 609T213 576V572H150Q97 572 63 544T28 467Q28 422 57 393T144 363Q169
363 192 374T233 400L254 371H301V582Q301 616 284 643T235 686T159 702Q141 702 120 698T78 688T46 673L66 601Z" />
<glyph unicode="&#xab;" horiz-adv-x="391" d="M194 221L350 83L371 158L280 245L371 332L350 407L194 269V221ZM30 221L185 83L207 158L115 245L207 332L185 407L30 269V221Z" />
<glyph unicode="&#xac;" horiz-adv-x="514" d="M476 406H10L18 318H388V117L484 112V356L476 406Z" />
<glyph unicode="&#xad;" horiz-adv-x="120" />
<glyph unicode="&#xae;" horiz-adv-x="726" d="M698 488Q698 581 658 656T542 776T363 820Q261 820 185 776T69 657T28 488Q28 395 68 320T185 200T364 156Q467 156 542 200T657 319T698 488ZM99 488Q99 566 131 626T222 720T363 755Q445 755 504 721T594 626T626
488Q626 412 594 352T504 257T363 221Q281 222 222 257T131 352T99 488ZM347 614Q372 614 390 611T418 598T428 564Q428 544 417 534T388 520T346 516H313V614H347ZM532 304L447 468Q474 481 493 505T513 568Q513 608 494 632T442 668T369 680H232V304H313V451H345Q353
451 359 451T372 451L441 304H532Z" />
<glyph unicode="&#xaf;" horiz-adv-x="276" d="M10 620H266L257 709H10V620Z" />
<glyph unicode="&#xb0;" horiz-adv-x="252" d="M127 718Q96 718 69 703T26 663T10 607Q10 576 26 551T69 511T127 497Q158 497 184 511T226 550T242 607Q242 638 227 663T185 703T127 718ZM146 579Q135 572 122 574T101 587Q93 597 95 610T107 632Q118 639 131
638T152 625Q160 615 158 601T146 579Z" />
<glyph unicode="&#xb1;" horiz-adv-x="474" d="M436 377H288V531L191 534V377H30L39 299H191V137L288 132V299H445L436 377ZM440 79H32L39 0H444L440 79Z" />
<glyph unicode="&#xb2;" horiz-adv-x="367" d="M174 771Q137 771 107 763T53 745T15 726L52 652Q67 660 85 668T125 682T169 688Q189 688 202 681T223 663T231 639Q231 607 216 582T167 527L25 409V336H347L335 415H159L229 473Q284 519 309 556T334 638Q334 669
318 699T266 750T174 771Z" />
<glyph unicode="&#xb3;" horiz-adv-x="366" d="M169 771Q123 771 86 757T13 720L54 650Q73 664 97 676T155 688Q189 688 205 675T222 641Q222 626 215 611T189 586T138 576H95L106 498H133Q183 498 207 479T231 423Q231 405 220 391T191 369T149 361Q117 361 95
369T43 395L0 324Q32 304 74 291T158 278Q212 278 251 297T312 350T333 424Q333 455 322 479T294 520T258 539Q275 546 290 561T315 597T325 642Q325 694 287 732T169 771Z" />
<glyph unicode="&#xb4;" horiz-adv-x="190" d="M87 589L180 750H62L10 610L87 589Z" />
<glyph unicode="&#xb5;" horiz-adv-x="564" d="M176 -208V359L64 343V-219L176 -208ZM393 485V146Q373 130 350 115T301 89T251 79Q212 79 194 106T176 181V485H64V173Q64 118 78 76T128 9T225 -16Q254 -16 286 -7T351 19T410 58L429 0H506V485H393Z" />
<glyph unicode="&#xb6;" horiz-adv-x="884" d="M440 0V591H649V0H762V591H857V680H290Q217 680 158 659T63 590T28 465Q28 408 50 366T110 297T197 257T301 244H328V0H440Z" />
<glyph unicode="&#xb7;" horiz-adv-x="193" d="M98 195Q126 195 144 214T163 262Q163 290 145 309T98 328Q69 328 50 309T30 262Q30 234 49 215T98 195Z" />
<glyph unicode="&#xb8;" horiz-adv-x="232" d="M51 -76Q75 -79 95 -86T128 -102T140 -124Q140 -136 127 -141T99 -147Q86 -147 67 -141T36 -129L10 -195Q26 -207 53 -214T99 -221Q131 -221 159 -211T204 -178T222 -122Q222 -104 213 -87T187 -56T149 -36L169 13H86L51
-76Z" />
<glyph unicode="&#xb9;" horiz-adv-x="293" d="M225 336V764H159L10 696L50 625L124 660V336H225Z" />
<glyph unicode="&#xba;" horiz-adv-x="385" d="M191 702Q143 702 106 681T48 622T27 532Q27 481 46 443T102 384T188 363Q238 363 276 383T336 442T358 531Q358 583 338 621T280 680T191 702ZM193 623Q226 623 243 599T260 531Q260 500 251 481T227 452T189 442Q159
442 142 464T124 532Q124 565 133 585T159 614T193 623Z" />
<glyph unicode="&#xbb;" horiz-adv-x="393" d="M197 269L43 407L20 332L112 245L20 158L43 83L197 221V269ZM363 269L208 407L185 332L278 245L185 158L208 83L363 221V269Z" />
<glyph unicode="&#xbc;" horiz-adv-x="867" d="M225 336V764H159L10 696L50 625L124 660V336H225ZM847 3H760V321H689L441 3L451 -80H658V-164H760V-80H838L847 3ZM658 147V3H545L658 147ZM596 700L45 -134H164L715 700H596Z" />
<glyph unicode="&#xbd;" horiz-adv-x="884" d="M225 336V764H159L10 696L50 625L124 660V336H225ZM691 325Q654 325 624 317T570 299T532 280L569 206Q584 214 602 222T642 236T686 242Q706 242 719 235T740 217T748 193Q748 161 733 136T684 81L542 -37V-110H864L852
-31H676L746 27Q801 73 826 110T851 192Q851 223 835 253T783 304T691 325ZM591 700L40 -134H159L710 700H591Z" />
<glyph unicode="&#xbe;" horiz-adv-x="864" d="M169 771Q123 771 86 757T13 720L54 650Q73 664 97 676T155 688Q189 688 205 675T222 641Q222 626 215 611T189 586T138 576H95L106 498H133Q183 498 207 479T231 423Q231 405 220 391T191 369T149 361Q117 361 95
369T43 395L0 324Q32 304 74 291T158 278Q212 278 251 297T312 350T333 424Q333 455 322 479T294 520T258 539Q275 546 290 561T315 597T325 642Q325 694 287 732T169 771ZM643 700L92 -134H211L762 700H643ZM845 3H758V321H687L439 3L449 -80H656V-164H758V-80H836L845
3ZM656 147V3H543L656 147Z" />
<glyph unicode="&#xbf;" horiz-adv-x="426" d="M258 519Q286 519 306 539T326 586Q326 614 306 633T258 653Q231 653 212 634T192 586Q192 559 211 539T258 519ZM226 -48Q282 -48 327 -34T416 8L402 110Q354 77 311 62T229 46Q187 46 161 67T135 128Q135 174 182
213T302 276L293 451L213 484L199 333Q150 309 112 275T52 202T30 126Q30 76 51 37T116 -25T226 -48Z" />
<glyph unicode="&#xc0;" horiz-adv-x="642" d="M419 262H218L317 527L419 262ZM270 680L10 0H121L185 171H454L520 -9L632 7L368 680H270ZM294 739L372 760L320 900H202L294 739Z" />
<glyph unicode="&#xc1;" horiz-adv-x="642" d="M419 262H218L317 527L419 262ZM270 680L10 0H121L185 171H454L520 -9L632 7L368 680H270ZM342 739L435 900H317L265 760L342 739Z" />
<glyph unicode="&#xc2;" horiz-adv-x="642" d="M419 262H218L317 527L419 262ZM270 680L10 0H121L185 171H454L520 -9L632 7L368 680H270ZM315 815L386 739L488 752L348 900H279L140 752L245 739L315 815Z" />
<glyph unicode="&#xc3;" horiz-adv-x="642" d="M419 262H218L317 527L419 262ZM270 680L10 0H121L185 171H454L520 -9L632 7L368 680H270ZM396 861Q395 847 387 837T366 827Q349 827 337 833T313 846Q302 856 288 860T254 865Q228 865 205 855T167 821T153 753H228Q229
766 238 776T259 787Q275 787 286 782T309 768Q320 760 333 754T367 748Q393 748 416 758T453 794T467 861H396Z" />
<glyph unicode="&#xc4;" horiz-adv-x="642" d="M419 262H218L317 527L419 262ZM270 680L10 0H121L185 171H454L520 -9L632 7L368 680H270ZM225 757Q250 757 266 774T283 816Q283 840 267 857T225 875Q200 875 183 858T165 816Q165 791 182 774T225 757ZM406 757Q432
757 449 774T466 816Q466 840 449 857T406 875Q383 875 365 858T347 816Q347 791 365 774T406 757Z" />
<glyph unicode="&#xc5;" horiz-adv-x="642" d="M419 262H218L317 527L419 262ZM270 680L10 0H121L185 171H454L520 -9L632 7L368 680H270ZM315 934Q288 934 265 922T228 887T213 837Q213 797 243 771T315 744Q343 744 366 756T403 789T417 837Q417 865 403 887T366
921T315 934ZM316 797Q299 797 287 809T275 837Q275 854 287 866T316 878Q332 878 344 866T356 837Q356 821 344 809T316 797Z" />
<glyph unicode="&#xc6;" horiz-adv-x="934" d="M460 0H914L898 88H574V300H817L801 389H574V592H872L856 680H448L5 6L111 -10L226 171H460V0ZM460 525V262H286L460 525Z" />
<glyph unicode="&#xc7;" horiz-adv-x="561" d="M540 651Q512 667 479 676T414 690T363 694Q288 694 228 668T126 593T61 480T38 336Q38 264 58 201T118 89T219 13T358 -14Q386 -14 420 -9T487 5T544 28L501 111Q472 98 436 90T352 81Q305 81 269 101T207 157T168
239T155 337Q155 417 182 475T255 566T360 599Q392 599 414 596T457 586T505 571L540 651ZM284 -76Q308 -79 328 -86T361 -102T373 -124Q373 -136 360 -141T332 -147Q319 -147 300 -141T269 -129L243 -195Q259 -207 286 -214T332 -221Q364 -221 392 -211T437 -178T455
-122Q455 -104 446 -87T420 -56T382 -36L402 13H319L284 -76Z" />
<glyph unicode="&#xc8;" horiz-adv-x="561" d="M541 0L524 88H199V300H443L426 389H199V592H498L481 680H88V0H541ZM274 739L352 760L300 900H182L274 739Z" />
<glyph unicode="&#xc9;" horiz-adv-x="561" d="M541 0L524 88H199V300H443L426 389H199V592H498L481 680H88V0H541ZM323 739L416 900H298L246 760L323 739Z" />
<glyph unicode="&#xca;" horiz-adv-x="561" d="M541 0L524 88H199V300H443L426 389H199V592H498L481 680H88V0H541ZM296 815L367 739L469 752L329 900H260L121 752L226 739L296 815Z" />
<glyph unicode="&#xcb;" horiz-adv-x="561" d="M541 0L524 88H199V300H443L426 389H199V592H498L481 680H88V0H541ZM206 757Q231 757 247 774T264 816Q264 840 248 857T206 875Q181 875 164 858T146 816Q146 791 163 774T206 757ZM387 757Q413 757 430 774T447
816Q447 840 430 857T387 875Q364 875 346 858T328 816Q328 791 346 774T387 757Z" />
<glyph unicode="&#xcc;" horiz-adv-x="287" d="M199 0V680H88V0H199ZM122 739L200 760L148 900H30L122 739Z" />
<glyph unicode="&#xcd;" horiz-adv-x="287" d="M199 0V680H88V0H199ZM170 739L263 900H145L93 760L170 739Z" />
<glyph unicode="&#xce;" horiz-adv-x="287" d="M199 0V680H88V0H199ZM400 815L471 739L573 752L433 900H364L225 752L330 739L400 815Z" />
<glyph unicode="&#xcf;" horiz-adv-x="287" d="M199 0V680H88V0H199ZM310 757Q335 757 351 774T368 816Q368 840 352 857T310 875Q285 875 268 858T250 816Q250 791 267 774T310 757ZM491 757Q517 757 534 774T551 816Q551 840 534 857T491 875Q468 875 450 858T432
816Q432 791 450 774T491 757Z" />
<glyph unicode="&#xd0;" horiz-adv-x="685" d="M291 296L281 383H18L29 296H291ZM337 0Q437 0 506 43T611 164T647 344Q647 441 614 516T513 636T339 680H88V0H337ZM343 585Q408 585 449 555T511 471T531 343Q531 258 507 203T439 121T335 94H199V585H343Z" />
<glyph unicode="&#xd1;" horiz-adv-x="729" d="M199 0V482L232 432L534 0H642V680H528V201L483 269L194 680H88V0H199ZM449 861Q448 847 440 837T419 827Q402 827 390 833T366 846Q355 856 341 860T307 865Q281 865 258 855T220 821T206 753H281Q282 766 291 776T312
787Q328 787 339 782T362 768Q373 760 386 754T420 748Q446 748 469 758T506 794T520 861H449Z" />
<glyph unicode="&#xd2;" horiz-adv-x="733" d="M365 -14Q266 -14 192 32T78 157T38 336Q38 440 80 520T196 647T367 696Q467 696 540 650T654 524T695 345Q695 241 653 161T537 34T365 -14ZM364 81Q425 81 473 112T549 203T577 344Q577 418 551 476T478 567T368
600Q309 600 261 567T184 475T155 338Q155 263 181 205T254 114T364 81ZM342 739L420 760L368 900H250L342 739Z" />
<glyph unicode="&#xd3;" horiz-adv-x="733" d="M365 -14Q266 -14 192 32T78 157T38 336Q38 440 80 520T196 647T367 696Q467 696 540 650T654 524T695 345Q695 241 653 161T537 34T365 -14ZM364 81Q425 81 473 112T549 203T577 344Q577 418 551 476T478 567T368
600Q309 600 261 567T184 475T155 338Q155 263 181 205T254 114T364 81ZM391 739L484 900H366L314 760L391 739Z" />
<glyph unicode="&#xd4;" horiz-adv-x="733" d="M365 -14Q266 -14 192 32T78 157T38 336Q38 440 80 520T196 647T367 696Q467 696 540 650T654 524T695 345Q695 241 653 161T537 34T365 -14ZM364 81Q425 81 473 112T549 203T577 344Q577 418 551 476T478 567T368
600Q309 600 261 567T184 475T155 338Q155 263 181 205T254 114T364 81ZM364 815L435 739L537 752L397 900H328L189 752L294 739L364 815Z" />
<glyph unicode="&#xd5;" horiz-adv-x="733" d="M365 -14Q266 -14 192 32T78 157T38 336Q38 440 80 520T196 647T367 696Q467 696 540 650T654 524T695 345Q695 241 653 161T537 34T365 -14ZM364 81Q425 81 473 112T549 203T577 344Q577 418 551 476T478 567T368
600Q309 600 261 567T184 475T155 338Q155 263 181 205T254 114T364 81ZM445 861Q444 847 436 837T415 827Q398 827 386 833T362 846Q351 856 337 860T303 865Q277 865 254 855T216 821T202 753H277Q278 766 287 776T308 787Q324 787 335 782T358 768Q369 760 382
754T416 748Q442 748 465 758T502 794T516 861H445Z" />
<glyph unicode="&#xd6;" horiz-adv-x="733" d="M365 -14Q266 -14 192 32T78 157T38 336Q38 440 80 520T196 647T367 696Q467 696 540 650T654 524T695 345Q695 241 653 161T537 34T365 -14ZM364 81Q425 81 473 112T549 203T577 344Q577 418 551 476T478 567T368
600Q309 600 261 567T184 475T155 338Q155 263 181 205T254 114T364 81ZM274 757Q299 757 315 774T332 816Q332 840 316 857T274 875Q249 875 232 858T214 816Q214 791 231 774T274 757ZM455 757Q481 757 498 774T515 816Q515 840 498 857T455 875Q432 875 414
858T396 816Q396 791 414 774T455 757Z" />
<glyph unicode="&#xd7;" horiz-adv-x="548" d="M327 253L502 30H387L273 176L145 30H30L220 255L46 479H161L275 333L403 479H518L327 253Z" />
<glyph unicode="&#xd8;" horiz-adv-x="733" d="M365 -14Q266 -14 192 32T78 157T38 336Q38 440 80 520T196 647T367 696Q467 696 540 650T654 524T695 345Q695 241 653 161T537 34T365 -14ZM364 81Q425 81 473 112T549 203T577 344Q577 418 551 476T478 567T368
600Q309 600 261 567T184 475T155 338Q155 263 181 205T254 114T364 81ZM304 46L212 100L433 627L527 565L304 46Z" />
<glyph unicode="&#xd9;" horiz-adv-x="699" d="M190 680H78V245Q78 172 111 114T205 23T350 -11Q434 -11 494 22T588 114T622 245V680H509V254Q509 199 489 160T434 101T350 81Q304 81 268 100T211 159T190 254V680ZM326 739L404 760L352 900H234L326 739Z" />
<glyph unicode="&#xda;" horiz-adv-x="699" d="M190 680H78V245Q78 172 111 114T205 23T350 -11Q434 -11 494 22T588 114T622 245V680H509V254Q509 199 489 160T434 101T350 81Q304 81 268 100T211 159T190 254V680ZM374 739L467 900H349L297 760L374 739Z" />
<glyph unicode="&#xdb;" horiz-adv-x="699" d="M190 680H78V245Q78 172 111 114T205 23T350 -11Q434 -11 494 22T588 114T622 245V680H509V254Q509 199 489 160T434 101T350 81Q304 81 268 100T211 159T190 254V680ZM347 815L418 739L520 752L380 900H311L172
752L277 739L347 815Z" />
<glyph unicode="&#xdc;" horiz-adv-x="699" d="M190 680H78V245Q78 172 111 114T205 23T350 -11Q434 -11 494 22T588 114T622 245V680H509V254Q509 199 489 160T434 101T350 81Q304 81 268 100T211 159T190 254V680ZM257 757Q282 757 298 774T315 816Q315 840
299 857T257 875Q232 875 215 858T197 816Q197 791 214 774T257 757ZM438 757Q464 757 481 774T498 816Q498 840 481 857T438 875Q415 875 397 858T379 816Q379 791 397 774T438 757Z" />
<glyph unicode="&#xdd;" horiz-adv-x="594" d="M346 0V266L584 680H465L289 380L120 696L10 660L234 267V0H346ZM314 739L407 900H289L237 760L314 739Z" />
<glyph unicode="&#xde;" horiz-adv-x="589" d="M291 600Q364 600 424 579T519 510T554 385Q554 328 532 286T472 217T384 177T282 164H199V0H88V680H199V600H291ZM287 257Q330 257 363 269T415 309T437 379Q437 427 419 454T368 494T288 506H199V257H287Z" />
<glyph unicode="&#xdf;" horiz-adv-x="609" d="M68 0H180V472Q180 511 195 539T237 583T301 600Q347 600 380 574T414 499Q414 454 381 426T285 397H252V306H333Q386 306 422 277T458 195Q458 162 440 139T392 105T324 93H243V0H330Q403 0 458 22T544 87T576 193Q576
237 558 273T510 334T448 368Q473 380 491 402T520 451T531 507Q531 570 500 612T416 675T297 696Q226 696 175 669T96 591T68 473V0Z" />
<glyph unicode="&#xe0;" horiz-adv-x="498" d="M143 143Q143 172 164 196T223 220H332V133Q306 107 276 92T214 77Q192 77 176 86T152 111T143 143ZM102 363Q130 375 167 385T243 396Q290 396 310 369T331 298V295H225Q145 294 95 255T45 143Q45 74 87 31T216
-12Q254 -12 290 6T352 49L369 0H445V324Q445 373 418 413T344 475T241 498Q221 498 188 493T123 478T72 455L102 363ZM232 589L310 610L258 750H140L232 589Z" />
<glyph unicode="&#xe1;" horiz-adv-x="498" d="M143 143Q143 172 164 196T223 220H332V133Q306 107 276 92T214 77Q192 77 176 86T152 111T143 143ZM102 363Q130 375 167 385T243 396Q290 396 310 369T331 298V295H225Q145 294 95 255T45 143Q45 74 87 31T216
-12Q254 -12 290 6T352 49L369 0H445V324Q445 373 418 413T344 475T241 498Q221 498 188 493T123 478T72 455L102 363ZM251 589L344 750H226L174 610L251 589Z" />
<glyph unicode="&#xe2;" horiz-adv-x="498" d="M143 143Q143 172 164 196T223 220H332V133Q306 107 276 92T214 77Q192 77 176 86T152 111T143 143ZM102 363Q130 375 167 385T243 396Q290 396 310 369T331 298V295H225Q145 294 95 255T45 143Q45 74 87 31T216
-12Q254 -12 290 6T352 49L369 0H445V324Q445 373 418 413T344 475T241 498Q221 498 188 493T123 478T72 455L102 363ZM243 665L314 589L416 602L276 750H207L68 602L173 589L243 665Z" />
<glyph unicode="&#xe3;" horiz-adv-x="498" d="M143 143Q143 172 164 196T223 220H332V133Q306 107 276 92T214 77Q192 77 176 86T152 111T143 143ZM102 363Q130 375 167 385T243 396Q290 396 310 369T331 298V295H225Q145 294 95 255T45 143Q45 74 87 31T216
-12Q254 -12 290 6T352 49L369 0H445V324Q445 373 418 413T344 475T241 498Q221 498 188 493T123 478T72 455L102 363ZM330 711Q329 697 321 687T300 677Q283 677 271 683T247 696Q236 706 222 710T188 715Q162 715 139 705T101 671T87 603H162Q163 616 172 626T193
637Q209 637 220 632T243 619Q254 610 267 604T301 598Q327 598 350 608T387 644T401 711H330Z" />
<glyph unicode="&#xe4;" horiz-adv-x="498" d="M143 143Q143 172 164 196T223 220H332V133Q306 107 276 92T214 77Q192 77 176 86T152 111T143 143ZM102 363Q130 375 167 385T243 396Q290 396 310 369T331 298V295H225Q145 294 95 255T45 143Q45 74 87 31T216
-12Q254 -12 290 6T352 49L369 0H445V324Q445 373 418 413T344 475T241 498Q221 498 188 493T123 478T72 455L102 363ZM144 607Q169 607 185 624T202 666Q202 690 186 707T144 725Q119 725 102 708T84 666Q84 641 101 624T144 607ZM325 607Q351 607 368 624T385
666Q385 690 368 707T325 725Q302 725 284 708T266 666Q266 641 284 624T325 607Z" />
<glyph unicode="&#xe5;" horiz-adv-x="498" d="M143 143Q143 172 164 196T223 220H332V133Q306 107 276 92T214 77Q192 77 176 86T152 111T143 143ZM102 363Q130 375 167 385T243 396Q290 396 310 369T331 298V295H225Q145 294 95 255T45 143Q45 74 87 31T216
-12Q254 -12 290 6T352 49L369 0H445V324Q445 373 418 413T344 475T241 498Q221 498 188 493T123 478T72 455L102 363ZM241 784Q214 784 191 772T154 737T139 687Q139 647 169 621T241 594Q269 594 292 606T329 639T343 687Q343 715 329 737T292 771T241 784ZM242
647Q225 647 213 659T201 687Q201 704 213 716T242 728Q258 728 270 716T282 687Q282 671 270 659T242 647Z" />
<glyph unicode="&#xe6;" horiz-adv-x="813" d="M785 212H449Q454 174 471 145T520 100T604 83Q647 83 679 95T748 126L781 45Q758 29 731 16T672 -5T603 -12Q532 -12 479 8T392 66Q375 48 351 30T294 0T216 -12Q129 -12 87 31T45 143Q45 216 95 255T225 295H331V298Q330
341 310 368T243 396Q205 396 168 386T102 363L72 455Q91 468 123 477T188 492T241 498Q289 498 330 481T401 434Q430 465 472 481T568 498Q645 498 693 462T763 367T785 237V212ZM451 288H678Q672 325 658 350T620 388T566 402Q534 402 510 389T471 350T451 288ZM332
220H223Q198 220 180 209T153 181T143 143Q143 126 151 111T176 87T214 77Q250 77 274 85T315 108T347 140Q342 158 338 178T332 220Z" />
<glyph unicode="&#xe7;" horiz-adv-x="468" d="M410 116Q377 101 347 93T278 84Q237 84 206 104T159 161T143 243Q144 288 160 324T208 381T279 402Q317 402 348 393T412 369L445 449Q422 465 391 476T329 492T279 498Q203 498 147 466T59 377T28 242Q28 166 58
109T145 19T277 -13Q298 -13 328 -8T390 9T443 35L410 116ZM198 -76Q222 -79 242 -86T275 -102T287 -124Q287 -136 274 -141T246 -147Q233 -147 214 -141T183 -129L157 -195Q173 -207 200 -214T246 -221Q278 -221 306 -211T351 -178T369 -122Q369 -104 360 -87T334
-56T296 -36L316 13H233L198 -76Z" />
<glyph unicode="&#xe8;" horiz-adv-x="509" d="M482 213V237Q482 308 460 367T389 462T266 498Q192 498 139 466T57 377T28 242Q28 166 58 109T149 20T299 -12Q337 -12 369 -5T428 15T478 44L444 126Q408 107 376 95T301 83Q249 83 217 99T168 145T146 213H482ZM148
289Q153 325 167 350T206 388T262 402Q294 402 316 389T353 350T374 289H148ZM249 589L327 610L275 750H157L249 589Z" />
<glyph unicode="&#xe9;" horiz-adv-x="509" d="M482 213V237Q482 308 460 367T389 462T266 498Q192 498 139 466T57 377T28 242Q28 166 58 109T149 20T299 -12Q337 -12 369 -5T428 15T478 44L444 126Q408 107 376 95T301 83Q249 83 217 99T168 145T146 213H482ZM148
289Q153 325 167 350T206 388T262 402Q294 402 316 389T353 350T374 289H148ZM269 589L362 750H244L192 610L269 589Z" />
<glyph unicode="&#xea;" horiz-adv-x="509" d="M482 213V237Q482 308 460 367T389 462T266 498Q192 498 139 466T57 377T28 242Q28 166 58 109T149 20T299 -12Q337 -12 369 -5T428 15T478 44L444 126Q408 107 376 95T301 83Q249 83 217 99T168 145T146 213H482ZM148
289Q153 325 167 350T206 388T262 402Q294 402 316 389T353 350T374 289H148ZM260 665L331 589L433 602L293 750H224L85 602L190 589L260 665Z" />
<glyph unicode="&#xeb;" horiz-adv-x="509" d="M482 213V237Q482 308 460 367T389 462T266 498Q192 498 139 466T57 377T28 242Q28 166 58 109T149 20T299 -12Q337 -12 369 -5T428 15T478 44L444 126Q408 107 376 95T301 83Q249 83 217 99T168 145T146 213H482ZM148
289Q153 325 167 350T206 388T262 402Q294 402 316 389T353 350T374 289H148ZM162 607Q187 607 203 624T220 666Q220 690 204 707T162 725Q137 725 120 708T102 666Q102 641 119 624T162 607ZM343 607Q369 607 386 624T403 666Q403 690 386 707T343 725Q320 725
302 708T284 666Q284 641 302 624T343 607Z" />
<glyph unicode="&#xec;" horiz-adv-x="228" d="M171 0V485H58V0H171ZM356 589L434 610L382 750H264L356 589Z" />
<glyph unicode="&#xed;" horiz-adv-x="228" d="M171 0V485H58V0H171ZM118 589L211 750H93L41 610L118 589Z" />
<glyph unicode="&#xee;" horiz-adv-x="228" d="M171 0V485H58V0H171ZM366 665L437 589L539 602L399 750H330L191 602L296 589L366 665Z" />
<glyph unicode="&#xef;" horiz-adv-x="228" d="M171 0V485H58V0H171ZM267 607Q292 607 308 624T325 666Q325 690 309 707T267 725Q242 725 225 708T207 666Q207 641 224 624T267 607ZM448 607Q474 607 491 624T508 666Q508 690 491 707T448 725Q425 725 407 708T389
666Q389 641 407 624T448 607Z" />
<glyph unicode="&#xf0;" horiz-adv-x="556" d="M529 260Q529 340 498 415T411 556T280 671T115 750L76 668Q161 633 224 589T329 490T392 374T413 243Q413 198 397 162T350 105T278 84Q237 84 206 104T159 161T143 243Q144 288 160 324T208 381T279 402Q316 402
344 393T393 369T431 335L477 393Q456 422 423 446T352 484T274 498Q200 498 145 466T59 377T28 242Q28 166 58 109T144 19T277 -13Q357 -12 413 22T499 117T529 260ZM108 512L404 667L362 742L66 590L108 512Z" />
<glyph unicode="&#xf1;" horiz-adv-x="554" d="M170 0V339Q191 355 214 371T262 397T312 407Q352 407 369 380T387 305V0H500V312Q500 366 485 408T434 476T339 501Q310 501 277 492T213 467T153 427L133 485H58V0H170ZM372 711Q371 697 363 687T342 677Q325 677
313 683T289 696Q278 706 264 710T230 715Q204 715 181 705T143 671T129 603H204Q205 616 214 626T235 637Q251 637 262 632T285 619Q296 610 309 604T343 598Q369 598 392 608T429 644T443 711H372Z" />
<glyph unicode="&#xf2;" horiz-adv-x="556" d="M277 -13Q200 -13 144 19T58 108T28 242Q28 320 59 377T146 466T279 498Q356 498 411 466T498 377T529 243Q529 167 498 109T410 20T277 -13ZM278 84Q320 84 350 105T396 162T413 243Q413 289 397 325T351 381T279
402Q239 402 208 381T161 324T143 243Q143 197 159 161T206 105T278 84ZM263 589L341 610L289 750H171L263 589Z" />
<glyph unicode="&#xf3;" horiz-adv-x="556" d="M277 -13Q200 -13 144 19T58 108T28 242Q28 320 59 377T146 466T279 498Q356 498 411 466T498 377T529 243Q529 167 498 109T410 20T277 -13ZM278 84Q320 84 350 105T396 162T413 243Q413 289 397 325T351 381T279
402Q239 402 208 381T161 324T143 243Q143 197 159 161T206 105T278 84ZM283 589L376 750H258L206 610L283 589Z" />
<glyph unicode="&#xf4;" horiz-adv-x="556" d="M277 -13Q200 -13 144 19T58 108T28 242Q28 320 59 377T146 466T279 498Q356 498 411 466T498 377T529 243Q529 167 498 109T410 20T277 -13ZM278 84Q320 84 350 105T396 162T413 243Q413 289 397 325T351 381T279
402Q239 402 208 381T161 324T143 243Q143 197 159 161T206 105T278 84ZM274 665L345 589L447 602L307 750H238L99 602L204 589L274 665Z" />
<glyph unicode="&#xf5;" horiz-adv-x="556" d="M277 -13Q200 -13 144 19T58 108T28 242Q28 320 59 377T146 466T279 498Q356 498 411 466T498 377T529 243Q529 167 498 109T410 20T277 -13ZM278 84Q320 84 350 105T396 162T413 243Q413 289 397 325T351 381T279
402Q239 402 208 381T161 324T143 243Q143 197 159 161T206 105T278 84ZM362 711Q361 697 353 687T332 677Q315 677 303 683T279 696Q268 706 254 710T220 715Q194 715 171 705T133 671T119 603H194Q195 616 204 626T225 637Q241 637 252 632T275 619Q286 610 299
604T333 598Q359 598 382 608T419 644T433 711H362Z" />
<glyph unicode="&#xf6;" horiz-adv-x="556" d="M277 -13Q200 -13 144 19T58 108T28 242Q28 320 59 377T146 466T279 498Q356 498 411 466T498 377T529 243Q529 167 498 109T410 20T277 -13ZM278 84Q320 84 350 105T396 162T413 243Q413 289 397 325T351 381T279
402Q239 402 208 381T161 324T143 243Q143 197 159 161T206 105T278 84ZM176 607Q201 607 217 624T234 666Q234 690 218 707T176 725Q151 725 134 708T116 666Q116 641 133 624T176 607ZM357 607Q383 607 400 624T417 666Q417 690 400 707T357 725Q334 725 316
708T298 666Q298 641 316 624T357 607Z" />
<glyph unicode="&#xf7;" horiz-adv-x="506" d="M252 360Q282 360 303 381T324 431Q324 461 303 482T252 503Q222 503 201 482T180 431Q180 402 201 381T252 360ZM466 318H30L39 229H476L466 318ZM253 32Q282 32 303 53T325 105Q325 135 304 156T253 177Q223 177
202 156T181 105Q181 75 202 54T253 32Z" />
<glyph unicode="&#xf8;" horiz-adv-x="563" d="M277 -13Q200 -13 144 19T58 108T28 242Q28 320 59 377T146 466T279 498Q356 498 411 466T498 377T529 243Q529 167 498 109T410 20T277 -13ZM278 84Q320 84 350 105T396 162T413 243Q413 289 397 325T351 381T279
402Q239 402 208 381T161 324T143 243Q143 197 159 161T206 105T278 84ZM233 54L149 96L329 422L410 370L233 54Z" />
<glyph unicode="&#xf9;" horiz-adv-x="554" d="M383 485V146Q363 130 340 115T291 89T241 79Q202 79 184 106T166 181V485H54V173Q54 119 69 76T119 9T215 -16Q244 -16 276 -7T341 19T400 58L419 0H496V485H383ZM262 589L340 610L288 750H170L262 589Z" />
<glyph unicode="&#xfa;" horiz-adv-x="554" d="M383 485V146Q363 130 340 115T291 89T241 79Q202 79 184 106T166 181V485H54V173Q54 119 69 76T119 9T215 -16Q244 -16 276 -7T341 19T400 58L419 0H496V485H383ZM282 589L375 750H257L205 610L282 589Z" />
<glyph unicode="&#xfb;" horiz-adv-x="554" d="M383 485V146Q363 130 340 115T291 89T241 79Q202 79 184 106T166 181V485H54V173Q54 119 69 76T119 9T215 -16Q244 -16 276 -7T341 19T400 58L419 0H496V485H383ZM272 665L343 589L445 602L305 750H236L97 602L202
589L272 665Z" />
<glyph unicode="&#xfc;" horiz-adv-x="554" d="M383 485V146Q363 130 340 115T291 89T241 79Q202 79 184 106T166 181V485H54V173Q54 119 69 76T119 9T215 -16Q244 -16 276 -7T341 19T400 58L419 0H496V485H383ZM175 607Q200 607 216 624T233 666Q233 690 217
707T175 725Q150 725 133 708T115 666Q115 641 132 624T175 607ZM356 607Q382 607 399 624T416 666Q416 690 399 707T356 725Q333 725 315 708T297 666Q297 641 315 624T356 607Z" />
<glyph unicode="&#xfd;" horiz-adv-x="488" d="M156 -43Q148 -65 129 -81T86 -109T38 -131L77 -222Q117 -212 154 -192T219 -142T262 -76L478 485H360L243 163L119 503L10 466L183 23L156 -43ZM243 589L336 750H218L166 610L243 589Z" />
<glyph unicode="&#xfe;" horiz-adv-x="541" d="M271 498Q346 498 400 467T484 378T514 242Q514 166 484 109T400 19T268 -13Q251 -13 226 -6T175 15V-208L64 -219V695L175 706V471Q200 484 226 491T271 498ZM268 84Q310 84 339 104T383 161T398 241Q398 289 384
325T340 381T269 402Q242 402 220 394T175 370V114Q197 98 220 91T268 84Z" />
<glyph unicode="&#xff;" horiz-adv-x="488" d="M156 -43Q148 -65 129 -81T86 -109T38 -131L77 -222Q117 -212 154 -192T219 -142T262 -76L478 485H360L243 163L119 503L10 466L183 23L156 -43ZM136 607Q161 607 177 624T194 666Q194 690 178 707T136 725Q111 725
94 708T76 666Q76 641 93 624T136 607ZM317 607Q343 607 360 624T377 666Q377 690 360 707T317 725Q294 725 276 708T258 666Q258 641 276 624T317 607Z" />
<glyph unicode="&#x2013;" horiz-adv-x="441" d="M402 317H30L40 229H411L402 317Z" />
<glyph unicode="&#x2014;" horiz-adv-x="545" d="M507 317H30L40 229H515L507 317Z" />
<glyph unicode="&#x2018;" horiz-adv-x="198" d="M93 457Q112 457 127 467T150 492T159 525Q159 549 142 569T108 589Q113 621 130 640T173 679L146 732Q112 714 84 682T41 612T25 537Q25 503 44 480T93 457Z" />
<glyph unicode="&#x2019;" horiz-adv-x="197" d="M98 732Q80 732 65 722T41 697T32 664Q32 649 40 634T60 609T84 599Q78 569 61 550T20 509L46 457Q80 476 108 508T151 578T167 652Q167 687 147 709T98 732Z" />
<glyph unicode="&#x201a;" horiz-adv-x="197" d="M98 133Q80 133 65 124T41 99T32 66Q32 50 40 35T60 11T84 0Q78 -30 61 -49T20 -89L46 -142Q80 -123 108 -91T151 -21T167 52Q167 88 147 110T98 133Z" />
<glyph unicode="&#x201c;" horiz-adv-x="373" d="M97 457Q117 457 132 467T155 492T164 525Q164 549 147 569T112 589Q118 621 135 640T178 679L151 732Q117 714 89 682T46 612T30 537Q30 503 49 480T97 457ZM273 457Q291 457 306 467T331 492T340 525Q340 541
332 555T311 580T288 589Q293 621 310 640T353 679L326 732Q292 714 264 682T221 612T206 537Q206 503 225 480T273 457Z" />
<glyph unicode="&#x201d;" horiz-adv-x="372" d="M274 732Q256 732 241 722T217 697T207 664Q207 640 224 620T260 599Q253 569 236 550T194 509L220 457Q256 476 282 508T325 578T342 652Q342 687 322 709T274 732ZM98 732Q80 732 65 722T41 697T32 664Q32 649
40 634T60 609T84 599Q78 569 61 550T20 509L46 457Q80 476 108 508T151 578T167 652Q167 687 147 709T98 732Z" />
<glyph unicode="&#x201e;" horiz-adv-x="372" d="M98 132Q80 132 65 123T41 98T32 66Q32 50 40 35T60 11T84 0Q78 -30 61 -49T20 -89L46 -142Q80 -123 108 -91T151 -21T167 52Q167 88 147 110T98 132ZM274 133Q256 133 241 124T217 99T207 66Q207 41 224 21T260
0Q253 -30 236 -49T194 -89L220 -142Q256 -123 282 -91T325 -21T342 52Q342 88 322 110T274 133Z" />
<glyph unicode="&#x2022;" horiz-adv-x="264" d="M132 228Q160 228 183 241T220 278T234 329Q234 357 220 380T183 416T131 430Q103 430 80 417T44 380T30 329Q30 301 43 278T80 242T132 228Z" />
<glyph unicode="&#x2039;" horiz-adv-x="227" d="M30 221L185 83L207 162L119 245L207 328L185 408L30 269V221Z" />
<glyph unicode="&#x203a;" horiz-adv-x="227" d="M197 269L42 408L20 328L107 245L20 162L42 83L197 221V269Z" />
</font>
</defs>
</svg>
