<?xml version="1.0" standalone="no"?>
<!DOCTYPE svg PUBLIC "-//W3C//DTD SVG 1.1//EN" "http://www.w3.org/Graphics/SVG/1.1/DTD/svg11.dtd">
<svg xmlns="http://www.w3.org/2000/svg">
<defs >
<font id="Catamaran" horiz-adv-x="583" ><font-face
    font-family="Catamaran Thin"
    units-per-em="1000"
    panose-1="0 0 0 0 0 0 0 0 0 0"
    ascent="1100"
    descent="-540"
    alphabetic="0" />
<glyph unicode=" " horiz-adv-x="225" />
<glyph unicode="!" horiz-adv-x="207" d="M52 244L156 196L170 702H35L52 244ZM103 146Q74 146 52 125T30 73Q30 42 51 21T103 0Q134 0 155 21T177 73Q177 104 156 125T103 146Z" />
<glyph unicode="&quot;" horiz-adv-x="394" d="M290 742Q270 742 254 731T227 703T217 667Q217 641 235 619T272 597Q264 565 247 546T204 503L233 443Q272 465 300 500T346 575T364 654Q364 693 343 717T290 742ZM104 742Q83 742 67 731T41 703T31 667Q31 650
40 634T62 608T87 597Q80 565 63 546T20 503L49 443Q86 465 116 500T163 575T180 654Q180 693 158 717T104 742Z" />
<glyph unicode="#" horiz-adv-x="585" d="M412 520L387 408H267L293 517L182 520L156 408H30L41 311H133L108 199H30L41 103H86L61 -9L171 -15L198 103H318L294 -9L404 -15L430 103H555L544 199H452L478 311H555L544 408H499L524 517L412 520ZM365 311L339 199H221L246
311H365Z" />
<glyph unicode="$" horiz-adv-x="527" d="M145 -128V5Q126 12 108 18T74 31T47 45L76 150Q97 140 125 129T185 111T246 103Q287 103 314 111T354 135T368 176Q368 199 349 217T299 252T238 288Q202 310 167 333T101 383T53 442T35 514Q35 569 65 612T155 678V794L243
808V694Q250 695 256 695T269 696Q278 696 285 696T300 693V794L389 808V673Q409 668 427 661T461 645L417 541Q397 551 374 560T326 576T271 583Q227 583 198 566T169 514Q169 489 187 470T235 435T297 397Q333 376 369 355T436 308T484 250T502 174Q502 119 471
75T379 8V-128H290V-11Q280 -11 270 -12T248 -13H233V-128H145Z" />
<glyph unicode="%" horiz-adv-x="932" d="M547 710L249 0L380 -4L679 706L547 710ZM192 702Q149 702 112 682T50 623T25 533Q25 480 49 442T111 383T191 363Q233 363 271 384T333 443T357 533Q357 587 333 624T272 682T192 702ZM192 608Q214 608 231 589T249 532Q249
507 241 491T219 465T191 456Q165 456 150 475T134 534Q134 558 142 574T163 599T192 608ZM743 338Q701 338 663 318T601 260T577 168Q577 115 601 77T663 19T743 -1Q785 -1 822 20T883 79T907 169Q907 223 884 261T823 318T743 338ZM743 245Q766 245 782 226T799
168Q799 145 792 128T771 101T743 91Q718 91 701 111T684 171Q684 195 693 211T715 236T743 245Z" />
<glyph unicode="&amp;" horiz-adv-x="683" d="M411 140Q389 124 362 115T301 106Q268 106 239 117T191 155T172 221Q173 249 183 274T213 321Q225 311 234 302T255 283L411 140ZM580 -15L658 82L579 150Q597 192 609 239T625 339L507 386Q506 344 499 308T479
241L319 385Q291 411 274 431T247 471T238 510Q238 530 247 546T274 572T315 583Q358 583 391 571T456 541L501 645Q460 668 412 682T314 696Q250 696 203 670T129 600T102 505Q102 478 110 455T132 411Q88 375 62 325T35 220Q35 144 71 93T167 16T301 -11Q365
-11 415 7T505 55L580 -15Z" />
<glyph unicode="&apos;" horiz-adv-x="210" d="M104 742Q83 742 67 731T41 703T31 667Q31 650 40 634T62 608T87 597Q80 565 63 546T20 503L49 443Q86 465 116 500T163 575T180 654Q180 693 158 717T104 742Z" />
<glyph unicode="(" horiz-adv-x="307" d="M276 -1Q256 25 237 64T202 148T178 238T169 322Q169 360 177 403T202 491T237 575T277 645L177 682Q137 624 109 566T65 447T50 321Q50 255 65 192T109 71T177 -39L276 -1Z" />
<glyph unicode=")" horiz-adv-x="307" d="M31 643Q52 618 71 579T104 495T127 404T136 321Q136 284 128 240T105 152T71 68T30 -2L130 -39Q169 19 198 77T242 196T257 321Q257 387 242 450T198 571T131 682L31 643Z" />
<glyph unicode="*" horiz-adv-x="388" d="M245 767H143L141 667L40 690L10 599L111 578L42 481L121 420L194 520L267 420L345 481L277 579L378 599L348 690L245 667V767Z" />
<glyph unicode="+" horiz-adv-x="538" d="M498 324H335V531L213 534V324H30L38 225H213V8L335 4V225H508L498 324Z" />
<glyph unicode="," horiz-adv-x="211" d="M105 146Q85 146 69 136T43 108T33 72Q33 54 42 38T64 11T88 0Q81 -31 64 -50T20 -92L50 -154Q87 -132 117 -97T164 -21T181 56Q181 96 159 121T105 146Z" />
<glyph unicode="-" horiz-adv-x="332" d="M292 325H30L41 223H302L292 325Z" />
<glyph unicode="." horiz-adv-x="206" d="M105 0Q135 0 155 21T176 73Q176 104 156 125T105 146Q73 146 52 125T30 72Q30 42 51 21T105 0Z" />
<glyph unicode="/" horiz-adv-x="454" d="M308 710L10 0L145 -4L444 706L308 710Z" />
<glyph unicode="0" horiz-adv-x="606" d="M25 285Q25 199 61 132T159 26T303 -13Q384 -13 447 26T545 133T581 288Q581 372 546 437T448 541T304 579Q223 579 160 541T61 437T25 285ZM144 288Q144 341 165 381T221 445T303 469Q350 469 386 445T443 379T464 283Q464
230 444 189T387 123T305 98Q258 98 222 122T165 190T144 288Z" />
<glyph unicode="1" horiz-adv-x="369" d="M302 0V566H216L10 475L59 378L173 422V0H302Z" />
<glyph unicode="2" horiz-adv-x="487" d="M231 579Q164 579 115 562T38 527L60 423Q78 433 103 445T157 465T217 474Q267 474 297 455T327 397Q327 379 316 358T283 312T227 259L25 87V0H467L455 99L202 98L297 178Q346 219 376 252T421 321T436 403Q436 453 412
493T341 556T231 579Z" />
<glyph unicode="3" horiz-adv-x="484" d="M232 579Q172 579 120 560T19 509L80 422Q107 440 145 457T229 474Q258 474 279 465T311 440T323 403Q323 366 288 344T191 321H125L143 220H185Q264 220 299 193T335 120Q335 92 319 71T276 40T220 29Q176 29 141 39T66
74L0 -13Q46 -37 104 -56T218 -76Q290 -76 343 -50T425 21T454 121Q454 163 439 195T402 248T361 273Q382 282 400 301T430 348T442 405Q442 452 419 491T349 555T232 579Z" />
<glyph unicode="4" horiz-adv-x="560" d="M540 165H435V571H338L10 166L27 59H304V-69H435V59H527L540 165ZM304 363V165H150L304 363Z" />
<glyph unicode="5" horiz-adv-x="512" d="M183 206Q190 221 212 237T269 253Q312 253 340 225T369 147Q369 94 333 64T244 33Q199 33 164 44T89 78L25 -13Q55 -30 90 -44T165 -67T241 -76Q317 -76 372 -48T457 31T487 147Q487 203 462 251T388 328T264 357Q244
357 225 354T190 342L196 461H438L451 566H86L68 206H183Z" />
<glyph unicode="6" horiz-adv-x="525" d="M79 300L104 217Q128 246 155 264T213 291T278 300Q308 300 332 286T370 247T384 190Q384 164 371 142T333 107T280 94Q241 94 211 111T164 166T146 261Q146 309 163 347T209 414T276 464T353 501T433 527L415 634Q367
628 313 609T208 558T116 482T50 380T25 252Q25 165 58 106T150 17T284 -13Q347 -13 395 13T472 87T500 195Q500 252 472 299T394 374T281 402Q237 402 202 388T138 351T79 300Z" />
<glyph unicode="7" horiz-adv-x="474" d="M258 -69L454 514L416 566H10L26 461H311L137 -34L258 -69Z" />
<glyph unicode="8" horiz-adv-x="514" d="M258 643Q194 643 148 619T76 556T51 468Q51 426 75 392T137 340Q109 331 84 307T42 251T25 185Q25 131 52 86T132 14T258 -13Q330 -13 382 14T461 86T489 185Q489 219 473 251T431 307T377 340Q403 352 422 371T453 415T464
468Q464 516 439 555T368 619T258 643ZM256 537Q295 537 321 517T347 468Q347 447 337 430T307 401T258 385Q213 392 190 413T167 468Q167 487 179 502T211 527T256 537ZM258 288Q313 279 343 249T373 183Q373 155 356 135T313 103T257 92Q228 92 202 103T159 134T142
183Q142 219 171 249T258 288Z" />
<glyph unicode="9" horiz-adv-x="525" d="M446 265L421 348Q398 320 371 302T312 275T247 266Q216 266 193 281T155 320T141 375Q141 403 154 425T191 459T245 472Q283 472 314 455T362 401T379 305Q379 257 362 220T316 152T249 101T171 66T92 39L110 -69Q158
-63 212 -44T317 7T410 84T476 186T500 313Q500 401 467 460T374 548T241 578Q179 578 130 552T53 480T25 370Q25 314 53 267T131 192T244 163Q290 163 324 177T387 215T446 265Z" />
<glyph unicode=":" horiz-adv-x="206" d="M105 327Q135 327 155 348T176 401Q176 431 156 452T104 474Q73 474 52 453T30 401Q30 370 51 349T105 327ZM105 0Q135 0 155 21T176 73Q176 104 156 125T104 147Q73 147 52 126T30 73Q30 42 51 21T105 0Z" />
<glyph unicode=";" horiz-adv-x="212" d="M109 327Q139 327 160 348T182 401Q182 432 161 453T109 474Q78 474 56 453T34 401Q34 370 56 349T109 327ZM105 147Q85 147 69 136T43 107T33 72Q33 55 42 38T64 11T88 1Q81 -32 64 -51T20 -92L50 -155Q87 -131 117 -96T164
-21T181 56Q181 96 159 121T105 147Z" />
<glyph unicode="&lt;" horiz-adv-x="348" d="M328 127L160 245L328 363L305 470L30 274V216L305 19L328 127Z" />
<glyph unicode="=" horiz-adv-x="516" d="M477 408H30L41 311H486L477 408ZM477 199H30L41 103H486L477 199Z" />
<glyph unicode="&gt;" horiz-adv-x="348" d="M318 274L43 470L20 362L188 244L20 127L43 19L318 215V274Z" />
<glyph unicode="?" horiz-adv-x="434" d="M204 701Q150 701 103 688T10 645L27 529Q77 563 123 578T201 593Q237 593 261 574T286 520Q286 479 240 443T123 383L131 218L224 179L240 316Q287 341 324 375T382 447T404 522Q404 576 382 616T316 678T204 701ZM170
146Q139 146 118 125T96 73Q96 42 117 21T170 0Q201 0 222 21T244 73Q244 104 223 125T170 146Z" />
<glyph unicode="@" horiz-adv-x="765" d="M557 389L521 434H441Q396 434 355 420T280 377T228 310T209 223Q209 151 252 106T387 60Q410 60 432 67T471 84Q487 72 507 66T551 59Q591 59 625 74T685 121T725 199T740 307Q740 371 716 425T649 519T547 581T421 603Q330
603 257 573T133 491T53 370T25 225Q25 152 53 93T129 -9T236 -74T357 -97Q407 -97 459 -90T567 -55L534 44Q507 30 477 22T420 11T367 8Q307 8 256 34T172 109T140 225Q140 288 163 338T226 425T316 480T419 499Q481 499 529 474T604 405T632 302Q632 258 620
227T592 179T556 162Q548 162 541 170T534 194L557 389ZM384 159Q362 159 348 168T329 193T324 223Q324 259 339 284T381 322T440 337H444L427 208Q426 200 426 191T426 173Q417 165 406 162T384 159Z" />
<glyph unicode="A" horiz-adv-x="659" d="M418 266H238L327 502L418 266ZM275 680L10 0H140L200 160H458L519 -10L649 8L385 680H275Z" />
<glyph unicode="B" horiz-adv-x="629" d="M364 0Q418 0 462 13T539 53T587 116T604 200Q604 263 575 304T499 369Q527 391 550 421T573 490Q573 559 545 600T466 661T349 680H85V0H364ZM330 572Q363 572 386 565T422 539T435 488Q435 459 419 440T375 412T310
403H214V572H330ZM363 298Q411 298 440 273T469 199Q469 170 455 150T415 118T354 107H214V298H363Z" />
<glyph unicode="C" horiz-adv-x="564" d="M543 650Q513 666 479 675T414 689T363 694Q288 694 228 668T125 594T58 481T35 337Q35 264 55 200T117 88T218 13T358 -14Q386 -14 420 -9T489 7T549 30L500 126Q469 113 432 104T352 95Q308 95 274 114T218 167T183
245T170 338Q170 416 195 470T263 555T359 585Q389 585 410 581T453 572T503 557L543 650Z" />
<glyph unicode="D" horiz-adv-x="691" d="M343 0Q444 2 513 43T619 161T656 344Q656 442 622 517T518 636T343 680H85V0H343ZM348 570Q408 570 446 543T503 466T521 344Q521 260 499 208T437 133T340 109H214V570H348Z" />
<glyph unicode="E" horiz-adv-x="581" d="M561 0L539 101H214V292H457L436 395H214V578H511L491 680H85V0H561Z" />
<glyph unicode="F" horiz-adv-x="510" d="M427 389H214V578H490L470 680H85V0H214V288H445L427 389Z" />
<glyph unicode="G" horiz-adv-x="629" d="M327 272H470V106Q451 101 427 98T370 95Q311 95 266 124T195 209T170 337Q170 400 187 446T235 523T306 569T391 585Q421 585 441 582T483 572T534 557L575 650Q545 666 510 675T442 689T389 694Q312 694 248 668T135
593T61 480T35 337Q35 240 75 160T191 33T373 -14Q415 -14 453 -8T525 10T585 36V372H337L327 272Z" />
<glyph unicode="H" horiz-adv-x="696" d="M611 0V680H482V392H214V685L85 680V0H214V288H482V0H611Z" />
<glyph unicode="I" horiz-adv-x="299" d="M214 0V680H85V0H214Z" />
<glyph unicode="J" horiz-adv-x="294" d="M88 87Q88 60 84 44T63 18T10 -6L62 -102Q122 -82 156 -61T204 -9T219 68V680H88V87Z" />
<glyph unicode="K" horiz-adv-x="658" d="M487 0L282 283L215 213V0H85V680H215V395L510 695L606 621L372 377L648 0H487Z" />
<glyph unicode="L" horiz-adv-x="544" d="M515 101H214V680H85V0H534L515 101Z" />
<glyph unicode="M" horiz-adv-x="770" d="M427 213L555 392V0H685V680H606L397 366L166 680H85V0H214V415L377 207L427 213Z" />
<glyph unicode="N" horiz-adv-x="744" d="M214 0V455L240 416L529 0H659V680H529V226L486 287L214 680H85V0H214Z" />
<glyph unicode="O" horiz-adv-x="737" d="M368 -14Q262 -14 188 33T74 160T35 337Q35 442 77 522T194 648T368 696Q475 696 549 649T662 522T701 345Q701 239 659 159T543 34T368 -14ZM368 95Q423 95 467 122T539 205T567 344Q567 415 544 469T476 554T370 586Q317
586 271 555T198 469T170 338Q170 267 194 212T262 126T368 95Z" />
<glyph unicode="P" horiz-adv-x="592" d="M214 0V237H289Q343 237 392 250T481 291T544 362T567 462Q567 540 531 588T433 658T297 680H85V0H214ZM293 572Q337 572 367 561T413 524T430 454Q428 416 411 392T365 356T296 344H214V572H293Z" />
<glyph unicode="Q" horiz-adv-x="737" d="M454 255L367 188L608 -36L684 31L454 255ZM368 696Q269 694 194 648T77 522T35 337Q35 240 74 160T187 33T368 -14Q469 -12 543 33T659 159T701 345Q701 442 663 521T550 648T368 696ZM170 338Q170 414 197 469T271 555T370
586Q431 586 475 555T543 469T567 344Q567 260 540 205T468 123T367 95Q307 95 263 126T194 212T170 338Z" />
<glyph unicode="R" horiz-adv-x="628" d="M294 572Q337 572 367 561T413 527T430 465Q430 429 413 408T365 375T296 364H214V572H294ZM85 680V0H214V258H274Q289 258 304 258T336 258L480 0H618L452 293Q502 317 534 362T567 471Q567 543 531 589T433 657T297 680H85Z" />
<glyph unicode="S" horiz-adv-x="527" d="M47 45Q64 34 89 24T143 6T199 -7T248 -13Q330 -13 386 12T472 78T502 174Q502 218 484 250T436 307T370 354T297 397Q265 418 235 434T187 470T169 514Q169 549 198 566T271 583Q300 583 325 577T374 561T417 541L461
645Q422 664 371 680T269 696Q195 696 143 672T63 607T35 514Q35 475 53 443T101 383T166 333T238 288Q269 270 299 253T348 217T368 176Q368 152 355 136T314 111T246 103Q217 103 186 110T126 129T76 150L47 45Z" />
<glyph unicode="T" horiz-adv-x="591" d="M560 680H10V578H217V0H348V578H581L560 680Z" />
<glyph unicode="U" horiz-adv-x="710" d="M206 680H75L76 247Q76 174 110 115T207 22T355 -11Q441 -10 503 23T600 115T635 247V680H504V257Q504 203 485 167T433 113T355 95Q312 95 278 112T225 165T206 257V680Z" />
<glyph unicode="V" horiz-adv-x="659" d="M140 690L10 672L274 -1H384L649 679H519L332 178L140 690Z" />
<glyph unicode="W" horiz-adv-x="925" d="M915 679L710 -1H600L462 496L324 -1H214L10 672L140 690L272 178L399 679H529L658 178L785 679H915Z" />
<glyph unicode="X" horiz-adv-x="637" d="M143 0L314 256L478 0H614L389 339L627 680H492L325 428L135 700L22 656L248 344L10 0H143Z" />
<glyph unicode="Y" horiz-adv-x="608" d="M362 0V260L598 680H462L296 396L138 694L10 657L232 265V0H362Z" />
<glyph unicode="Z" horiz-adv-x="578" d="M547 101H155L554 578L539 680H43L59 578H403L15 101L30 0H562L547 101Z" />
<glyph unicode="[" horiz-adv-x="361" d="M100 -88H351L332 13H229V594H332L351 696H100V-88Z" />
<glyph unicode="\" horiz-adv-x="454" d="M444 0L145 710L10 706L308 -4L444 0Z" />
<glyph unicode="]" horiz-adv-x="362" d="M262 696H10L28 594H131V13H28L10 -88H262V696Z" />
<glyph unicode="^" horiz-adv-x="454" d="M228 258L310 143H444L267 390H188L10 143H145L228 258Z" />
<glyph unicode="_" horiz-adv-x="442" d="M402 101H30L41 0H412L402 101Z" />
<glyph unicode="`" horiz-adv-x="205" d="M105 589L195 614L144 753H10L105 589Z" />
<glyph unicode="a" horiz-adv-x="503" d="M154 145Q154 171 172 192T224 213H322V139Q297 115 270 103T215 91Q197 91 184 98T162 118T154 145ZM102 346Q129 358 169 368T243 378Q279 378 299 358T321 301V300H226Q144 299 93 260T42 145Q42 75 85 32T217 -12Q253
-12 285 6T345 52L367 0H452V319Q452 371 424 411T347 475T241 498Q221 498 187 492T119 477T67 454L102 346Z" />
<glyph unicode="b" horiz-adv-x="554" d="M131 0L194 83V706L65 695V0H131ZM150 323Q185 355 215 371T280 387Q318 387 343 369T381 319T394 245Q394 204 382 171T343 118T280 99Q246 99 215 113T150 167L113 79Q128 56 156 35T217 1T280 -12Q360 -12 415 20T499
110T529 245Q529 322 500 379T416 467T285 498Q251 498 220 487T163 456T113 408L150 323Z" />
<glyph unicode="c" horiz-adv-x="473" d="M414 132Q379 116 348 108T285 99Q249 99 220 117T175 168T159 242Q159 284 175 316T219 368T284 387Q318 387 348 379T414 354L451 447Q427 464 396 475T334 492T283 498Q205 498 147 467T58 378T25 242Q25 165 57 108T147
19T283 -12Q304 -12 334 -7T396 9T451 38L414 132Z" />
<glyph unicode="d" horiz-adv-x="572" d="M377 91L439 0H507V706L377 695V91ZM404 163Q369 131 339 115T274 99Q239 99 213 117T173 168T159 241Q159 284 172 316T212 368T275 387Q308 387 338 373T405 319L441 407Q426 430 399 451T338 485T273 498Q195 498 140
466T55 376T25 241Q25 165 54 108T139 20T269 -12Q304 -12 334 -1T392 30T441 78L404 163Z" />
<glyph unicode="e" horiz-adv-x="515" d="M490 204V244Q490 313 467 371T394 463T269 498Q194 498 139 467T55 378T25 242Q25 165 56 108T149 19T306 -12Q348 -12 380 -5T439 16T488 48L450 142Q418 123 385 111T309 99Q261 99 231 112T185 148T163 204H490ZM164
291Q170 323 184 344T219 376T266 387Q292 387 312 377T347 345T367 291H164Z" />
<glyph unicode="f" horiz-adv-x="373" d="M11 385H86V0H218V385H350L309 483H218V502Q218 541 233 565T282 590Q294 590 307 587T336 576L373 671Q363 680 347 687T311 698T276 702Q216 702 174 680T109 618T86 521V483H12L11 385Z" />
<glyph unicode="g" horiz-adv-x="568" d="M507 485H439L377 390V-22Q377 -70 341 -97T246 -126Q209 -125 172 -115T90 -83L51 -175Q71 -188 98 -198T154 -216T208 -226T249 -230Q326 -230 384 -207T474 -137T507 -23V485ZM404 163Q369 131 339 115T274 99Q239
99 213 117T173 168T159 241Q159 284 172 316T212 368T275 387Q308 387 338 373T405 319L441 407Q426 430 399 451T338 485T273 498Q195 498 140 466T55 376T25 241Q25 165 54 108T139 20T269 -12Q304 -12 334 -1T392 30T441 78L404 163Z" />
<glyph unicode="h" horiz-adv-x="576" d="M194 335Q211 347 231 361T275 384T324 393Q356 393 375 369T394 298V0H524V304Q524 360 510 404T460 475T358 501Q332 501 301 494T236 471T171 434L194 335ZM194 0V706L65 695V0H194Z" />
<glyph unicode="i" horiz-adv-x="240" d="M186 0V485H55V0H186ZM120 553Q150 553 171 574T192 627Q192 658 171 679T119 700Q89 700 68 679T47 627Q47 596 68 575T120 553Z" />
<glyph unicode="j" horiz-adv-x="261" d="M135 553Q117 553 100 563T73 590T63 627Q63 658 83 679T135 700Q167 700 188 679T210 627Q210 596 189 575T135 553ZM202 485V-11Q202 -57 190 -90T144 -149T46 -194L-5 -95Q31 -82 47 -67T67 -30T71 20V485H202Z" />
<glyph unicode="k" horiz-adv-x="517" d="M194 0V159L247 204L368 0H517L339 288L475 406L402 499L194 308V706L65 695V0H194Z" />
<glyph unicode="l" horiz-adv-x="259" d="M194 0V706L65 695V0H194Z" />
<glyph unicode="m" horiz-adv-x="855" d="M185 0V335Q202 347 221 361T261 384T305 393Q327 393 340 382T359 351T365 298V0H495V324Q495 380 480 419T431 480T339 501Q317 501 287 494T225 471T162 434L140 485H55V0H185ZM494 335Q511 347 530 361T570 384T614
393Q636 393 648 382T667 351T674 298V0H804V324Q804 380 789 419T740 480T648 501Q625 501 596 494T534 471T471 434L494 335Z" />
<glyph unicode="n" horiz-adv-x="567" d="M185 0V335Q202 347 222 361T267 384T315 393Q347 393 366 369T385 298V0H515V304Q515 360 501 404T451 475T349 501Q323 501 292 494T227 471T162 434L140 485H55V0H185Z" />
<glyph unicode="o" horiz-adv-x="567" d="M284 -12Q205 -12 147 19T57 107T25 242Q26 320 57 377T147 466T284 498Q364 498 421 467T511 379T543 244Q543 167 511 109T421 20T284 -12ZM285 99Q322 99 349 118T393 170T409 244Q409 286 393 318T349 368T284 387Q248
387 220 368T175 317T159 242Q159 200 175 168T220 118T285 99Z" />
<glyph unicode="p" horiz-adv-x="550" d="M190 -209V406L127 485H61V-219L190 -209ZM146 323Q181 355 211 371T276 387Q314 387 339 369T377 319T390 245Q390 204 378 171T339 118T276 99Q242 99 211 113T146 167L109 79Q124 56 152 35T213 1T276 -12Q356 -12
411 20T495 110T525 245Q525 322 496 379T412 467T281 498Q247 498 216 487T159 456T109 408L146 323Z" />
<glyph unicode="q" horiz-adv-x="568" d="M439 485L377 389V-219L507 -209V485H439ZM404 163Q369 131 339 115T274 99Q239 99 213 117T173 168T159 241Q159 284 172 316T212 368T275 387Q308 387 338 373T405 319L441 407Q426 430 399 451T338 485T273 498Q195
498 140 466T55 376T25 241Q25 165 54 108T139 20T269 -12Q304 -12 334 -1T392 30T441 78L404 163Z" />
<glyph unicode="r" horiz-adv-x="367" d="M185 0V296Q213 321 244 340T305 370T357 381L331 485Q305 485 275 472T215 441T166 404L123 485H55V0H185Z" />
<glyph unicode="s" horiz-adv-x="422" d="M27 38Q50 21 81 10T144 -7T195 -12Q294 -12 345 28T397 139Q397 182 373 213T311 268T232 304Q207 313 182 324T157 351Q157 368 173 380T215 393Q248 393 278 384T343 360L382 447Q358 464 327 475T267 492T216 498Q128
498 78 459T27 350Q27 310 51 281T113 233T188 200Q216 192 234 182T263 161T273 135Q273 121 260 112T228 98T193 93Q175 93 155 97T112 108T66 125L27 38Z" />
<glyph unicode="t" horiz-adv-x="381" d="M292 483H204V622L75 599V483H10L9 385H75V155Q75 99 99 60T165 1T268 -20Q284 -20 303 -16T339 -5T366 10L328 104Q314 98 301 95T275 92Q240 92 222 116T204 178V385H332L292 483Z" />
<glyph unicode="u" horiz-adv-x="567" d="M381 485V149Q365 137 345 124T301 102T251 93Q219 93 200 117T181 187V485H51V181Q51 125 65 81T115 10T217 -16Q243 -16 274 -8T339 15T404 52L425 0H511V485H381Z" />
<glyph unicode="v" horiz-adv-x="502" d="M301 0L492 485H355L250 191L138 503L10 465L189 0H301Z" />
<glyph unicode="w" horiz-adv-x="717" d="M551 0L707 485H570L501 202L426 485H283L213 202L139 503L10 465L155 0H265L352 296L444 0H551Z" />
<glyph unicode="x" horiz-adv-x="510" d="M154 0L251 146L341 0H484L335 228L500 485H358L258 330L148 501L27 464L175 247L10 0H154Z" />
<glyph unicode="y" horiz-adv-x="503" d="M154 -23Q146 -45 125 -62T77 -92T27 -115L73 -222Q116 -212 156 -190T229 -136T276 -64L493 485H356L251 191L138 504L10 464L177 34L154 -23Z" />
<glyph unicode="z" horiz-adv-x="443" d="M413 485H26L51 378H254L13 69L31 0H430L420 105H176L420 411L413 485Z" />
<glyph unicode="{" horiz-adv-x="294" d="M191 309Q210 326 218 350T226 408Q226 431 220 446T207 476Q201 488 196 501T191 532Q191 540 200 549T229 559H271L284 659H226Q152 659 118 625T84 533Q84 520 87 506T95 476Q102 451 109 430T117 395Q117 375 104
363T75 351H30V265H75Q91 265 104 253T117 221Q117 207 111 187T98 148Q93 131 89 115T84 84Q84 29 118 -6T226 -42H284L271 58H229Q210 58 201 67T191 85Q191 105 196 119T209 148Q216 162 221 176T226 208Q226 239 218 265T191 309Z" />
<glyph unicode="|" horiz-adv-x="299" d="M85 713V0L214 -10V703L85 713Z" />
<glyph unicode="}" horiz-adv-x="292" d="M101 309Q82 291 74 267T66 209Q66 187 72 171T85 141Q91 129 96 116T101 85Q101 77 92 68T63 58H21L8 -42H66Q140 -42 174 -8T208 84Q208 97 205 111T197 141Q191 166 183 187T175 222Q175 242 188 254T217 266H262V352H217Q201
352 189 364T176 396Q176 410 182 429T194 469Q199 486 203 502T208 532Q208 589 174 624T66 659H8L21 559H63Q82 559 91 550T101 532Q101 513 96 498T83 469Q76 456 71 442T66 408Q66 377 74 352T101 309Z" />
<glyph unicode="~" horiz-adv-x="479" d="M30 172H146Q148 192 156 200T172 209Q195 209 210 205T239 194Q256 189 274 184T323 178Q356 178 384 195T431 249T449 346H333Q332 326 323 317T306 308Q284 308 269 312T239 322Q223 328 205 333T156 339Q124 339 95
323T48 270T30 172Z" />
<glyph unicode="&#xa0;" horiz-adv-x="225" />
<glyph unicode="&#xa1;" horiz-adv-x="207" d="M103 555Q134 555 155 576T177 629Q177 659 156 680T103 702Q74 702 53 681T31 629Q31 598 52 577T103 555ZM156 458L51 505L35 0H170L156 458Z" />
<glyph unicode="&#xa2;" horiz-adv-x="473" d="M358 451V611L228 598V455L358 451ZM359 36L229 34V-115H359V36ZM414 132Q379 116 348 108T285 99Q249 99 220 117T175 168T159 242Q159 284 175 316T219 368T284 387Q318 387 348 379T414 354L451 447Q427 464 396
475T334 492T283 498Q205 498 147 467T58 378T25 242Q25 165 57 108T147 19T283 -12Q304 -12 334 -7T396 9T451 38L414 132Z" />
<glyph unicode="&#xa3;" horiz-adv-x="506" d="M58 0H496L475 101H230Q241 121 246 146T251 199V291H412L369 390H251V485Q251 523 266 547T316 572Q328 572 342 569T370 560L407 652Q398 662 381 669T345 680T309 684Q250 684 208 662T143 600T121 503V390H45V291H121V187Q121
149 106 125T47 101L58 0Z" />
<glyph unicode="&#xa4;" horiz-adv-x="701" d="M110 -85L216 23Q246 7 281 -3T353 -13Q390 -12 423 -4T485 21L590 -85L671 11L575 108Q592 136 601 170T613 243Q611 280 602 314T574 376L671 473L590 569L485 464Q455 479 423 488T352 498Q316 498 281 488T216
461L110 569L30 473L129 372Q113 346 104 312T95 241Q95 205 103 172T128 111L30 11L110 -85ZM478 242Q478 206 460 177T414 129T351 111Q319 111 291 128T246 176T228 242Q229 278 246 307T291 354T351 372Q384 372 413 355T460 308T478 242Z" />
<glyph unicode="&#xa5;" horiz-adv-x="608" d="M76 314L86 218H532L522 314H76ZM76 162L86 66H532L522 162H76ZM362 0V260L598 680H462L296 396L138 694L10 657L232 265V0H362Z" />
<glyph unicode="&#xa6;" horiz-adv-x="299" d="M85 713V417L214 406V703L85 713ZM85 297V0L214 -10V288L85 297Z" />
<glyph unicode="&#xa7;" horiz-adv-x="601" d="M413 80Q466 93 502 118T557 179T576 258Q576 302 558 334T510 391T444 438T372 482Q338 502 309 518T261 554T243 598Q243 633 272 650T345 667Q375 667 400 661T449 645T492 625L535 729Q496 747 445 763T343 780Q269
780 217 756T137 691T109 598Q109 559 127 527T174 467T239 417T312 371Q343 354 373 336T422 301T442 260Q442 224 412 205T320 186L413 80ZM47 -61Q64 -71 89 -81T143 -100T199 -114T248 -119Q330 -119 386 -94T472 -28T502 68Q502 112 484 144T436 201T370 248T297
292Q265 312 235 328T187 364T169 408Q169 443 198 460T271 478L187 582Q138 569 104 544T53 484T35 408Q35 369 53 337T101 277T166 227T238 181Q269 164 299 146T348 111T368 70Q368 46 355 30T314 5T246 -4Q217 -4 186 4T126 23T76 44L47 -61Z" />
<glyph unicode="&#xa8;" horiz-adv-x="341" d="M77 603Q104 603 121 621T139 667Q139 694 122 713T77 732Q49 732 30 713T10 667Q10 640 29 622T77 603ZM266 603Q293 603 312 621T331 667Q331 694 312 713T266 732Q240 732 221 713T201 667Q201 640 220 622T266 603Z" />
<glyph unicode="&#xa9;" horiz-adv-x="823" d="M799 336Q799 416 772 485T694 607T572 689T411 719Q322 719 251 690T129 608T52 486T25 336Q25 257 52 188T129 65T251 -17T411 -46Q500 -46 571 -17T693 65T771 187T799 336ZM109 337Q109 425 146 494T251 604T412
645Q505 645 572 605T677 495T714 337Q714 250 677 180T573 70T411 29Q318 29 251 69T146 180T109 337ZM430 102Q449 102 476 106T531 121T579 148L544 245Q512 229 488 221T432 213Q386 213 360 245T334 337Q334 375 345 402T379 444T432 459Q453 459 470 456T505
446T544 428L579 526Q558 541 530 551T476 566T430 571Q363 571 311 542T229 461T199 337Q199 265 227 213T307 131T430 102Z" />
<glyph unicode="&#xaa;" horiz-adv-x="327" d="M121 475Q121 485 128 491T152 498H207V471Q192 460 177 457T145 453Q133 453 127 459T121 475ZM65 590Q83 597 110 604T160 612Q176 612 187 604T202 581L203 576H148Q94 577 60 548T25 469Q25 423 53 393T142 363Q165
363 188 373T229 397L254 371H302V583Q302 618 286 644T237 686T159 702Q136 702 114 698T73 687T42 673L65 590Z" />
<glyph unicode="&#xab;" horiz-adv-x="401" d="M199 221L360 83L381 169L298 245L381 321L360 408L199 269V221ZM30 221L190 83L213 169L128 245L213 321L190 408L30 269V221Z" />
<glyph unicode="&#xac;" horiz-adv-x="514" d="M476 406H10L18 304H375V117L484 112V356L476 406Z" />
<glyph unicode="&#xad;" horiz-adv-x="120" />
<glyph unicode="&#xae;" horiz-adv-x="733" d="M708 488Q708 584 667 660T549 782T366 827Q263 827 186 782T67 660T25 488Q25 393 66 317T185 195T367 150Q472 150 548 195T666 317T708 488ZM103 488Q103 566 134 626T225 720T366 755Q448 755 507 721T598 626T630
488Q630 412 598 352T507 257T366 221Q284 222 225 257T135 352T103 488ZM354 605Q378 605 394 602T420 590T429 562Q429 545 420 537T394 525T355 521H320V605H354ZM540 304L460 465Q488 479 507 504T526 566Q526 606 506 631T453 668T379 681H229V304H320V447H348Q355
447 361 447T374 447L436 304H540Z" />
<glyph unicode="&#xaf;" horiz-adv-x="282" d="M10 613H272L262 716H10V613Z" />
<glyph unicode="&#xb0;" horiz-adv-x="259" d="M130 724Q99 724 71 709T27 668T10 610Q10 578 26 552T71 512T130 497Q162 497 189 511T232 552T249 610Q249 642 233 667T189 708T130 724ZM169 607Q169 592 158 580T130 569Q114 569 103 581T91 610Q91 624 102
636T130 648Q146 648 157 636T169 607Z" />
<glyph unicode="&#xb1;" horiz-adv-x="469" d="M430 387H293V531L182 534V387H30L40 298H182V145L293 140V298H439L430 387ZM435 90H33L40 0H439L435 90Z" />
<glyph unicode="&#xb2;" horiz-adv-x="372" d="M175 771Q140 771 110 765T56 749T13 728L57 644Q75 653 93 660T131 671T168 675Q184 675 195 670T213 655T219 636Q219 601 205 578T162 531L25 419V337H352L338 427H183L236 470Q291 516 315 553T340 635Q340 668
323 698T269 750T175 771Z" />
<glyph unicode="&#xb3;" horiz-adv-x="371" d="M174 771Q128 771 90 756T15 717L62 637Q81 651 102 663T156 675Q182 675 197 666T212 638Q212 627 208 614T189 592T143 583H94L107 493H138Q178 493 199 476T220 426Q220 412 211 400T187 381T150 374Q122 374
101 382T50 409L0 326Q34 303 78 291T164 279Q218 279 258 298T319 352T341 427Q341 458 330 482T302 521T271 540Q286 546 300 561T323 596T332 639Q332 692 293 731T174 771Z" />
<glyph unicode="&#xb4;" horiz-adv-x="205" d="M100 589L195 753H61L10 614L100 589Z" />
<glyph unicode="&#xb5;" horiz-adv-x="577" d="M191 -209V350L61 316V-219L191 -209ZM391 485V149Q375 137 355 124T311 102T261 93Q229 93 210 117T191 187V485H61V181Q61 125 74 81T124 10T227 -16Q253 -16 284 -8T349 15T414 52L435 0H521V485H391Z" />
<glyph unicode="&#xb6;" horiz-adv-x="909" d="M458 0V578H660V0H791V578H885V680H293Q220 680 159 658T62 588T25 462Q25 404 48 362T110 292T199 251T304 237H328V0H458Z" />
<glyph unicode="&#xb7;" horiz-adv-x="206" d="M105 189Q135 189 155 210T176 262Q176 292 156 313T105 335Q73 335 52 314T30 262Q30 231 51 210T105 189Z" />
<glyph unicode="&#xb8;" horiz-adv-x="241" d="M50 -75Q74 -77 94 -83T127 -99T140 -120Q140 -130 129 -133T105 -137Q92 -137 73 -131T40 -117L10 -193Q26 -206 56 -213T105 -221Q138 -221 166 -210T213 -176T231 -118Q231 -100 223 -83T198 -52T161 -30L179
13H86L50 -75Z" />
<glyph unicode="&#xb9;" horiz-adv-x="309" d="M243 337V763H167L10 694L56 611L126 643V337H243Z" />
<glyph unicode="&#xba;" horiz-adv-x="385" d="M192 702Q141 702 104 682T46 623T25 533Q25 481 44 443T99 385T187 363Q239 364 278 384T339 442T361 531Q361 583 341 621T284 680T192 702ZM194 613Q226 613 238 591T250 530Q250 504 244 487T224 461T189 453Q160
453 148 473T135 533Q135 561 142 578T163 604T194 613Z" />
<glyph unicode="&#xbb;" horiz-adv-x="403" d="M202 269L43 408L20 321L105 245L20 169L43 83L202 221V269ZM373 269L212 408L190 321L276 245L190 169L212 83L373 221V269Z" />
<glyph unicode="&#xbc;" horiz-adv-x="917" d="M243 337V763H167L10 694L56 611L126 643V337H243ZM896 14H807V321H724L477 14L489 -82H687V-166H807V-82H886L896 14ZM687 121V14H598L687 121ZM622 700L35 -134H175L762 700H622Z" />
<glyph unicode="&#xbd;" horiz-adv-x="927" d="M243 337V763H167L10 694L56 611L126 643V337H243ZM729 324Q694 324 664 318T610 302T567 281L611 197Q629 206 647 213T685 224T722 228Q738 228 749 223T767 208T773 189Q773 154 759 131T716 84L579 -28V-110H906L892
-20H737L790 23Q845 69 869 106T894 188Q894 221 877 251T823 303T729 324ZM622 700L35 -134H175L762 700H622Z" />
<glyph unicode="&#xbe;" horiz-adv-x="901" d="M174 771Q128 771 90 756T15 717L62 637Q81 651 102 663T156 675Q182 675 197 666T212 638Q212 627 208 614T189 592T143 583H94L107 493H138Q178 493 199 476T220 426Q220 412 211 400T187 381T150 374Q122 374
101 382T50 409L0 326Q34 303 78 291T164 279Q218 279 258 298T319 352T341 427Q341 458 330 482T302 521T271 540Q286 546 300 561T323 596T332 639Q332 692 293 731T174 771ZM661 700L74 -134H214L801 700H661ZM881 16H792V323H709L462 16L474 -80H672V-164H792V-80H871L881
16ZM672 123V16H583L672 123Z" />
<glyph unicode="&#xbf;" horiz-adv-x="433" d="M264 517Q295 517 316 538T338 591Q338 621 317 642T264 664Q234 664 213 643T191 591Q191 560 212 539T264 517ZM229 -37Q284 -37 331 -24T423 19L407 136Q357 100 311 86T232 71Q197 71 173 90T148 143Q148 185
194 222T312 282L303 447L211 485L194 349Q148 324 111 290T52 217T30 142Q30 90 52 50T119 -14T229 -37Z" />
<glyph unicode="&#xc0;" horiz-adv-x="659" d="M418 266H238L327 502L418 266ZM275 680L10 0H140L200 160H458L519 -10L649 8L385 680H275ZM286 739L376 764L325 903H191L286 739Z" />
<glyph unicode="&#xc1;" horiz-adv-x="659" d="M418 266H238L327 502L418 266ZM275 680L10 0H140L200 160H458L519 -10L649 8L385 680H275ZM366 739L461 903H327L276 764L366 739Z" />
<glyph unicode="&#xc2;" horiz-adv-x="659" d="M418 266H238L327 502L418 266ZM275 680L10 0H140L200 160H458L519 -10L649 8L385 680H275ZM325 804L390 740L510 755L358 904H286L135 756L258 740L325 804Z" />
<glyph unicode="&#xc3;" horiz-adv-x="659" d="M418 266H238L327 502L418 266ZM275 680L10 0H140L200 160H458L519 -10L649 8L385 680H275ZM402 866Q401 854 393 845T374 835Q354 835 342 840T318 853Q308 861 295 865T262 870Q236 870 211 859T171 821T155 750H241Q242
760 250 770T269 781Q288 781 298 776T318 764Q329 757 341 751T375 745Q402 745 426 756T466 794T482 866H402Z" />
<glyph unicode="&#xc4;" horiz-adv-x="659" d="M418 266H238L327 502L418 266ZM275 680L10 0H140L200 160H458L519 -10L649 8L385 680H275ZM233 753Q260 753 277 771T295 817Q295 844 278 863T233 882Q205 882 186 863T166 817Q166 790 185 772T233 753ZM422 753Q449
753 468 771T487 817Q487 844 468 863T422 882Q396 882 377 863T357 817Q357 790 376 772T422 753Z" />
<glyph unicode="&#xc5;" horiz-adv-x="659" d="M418 266H238L327 502L418 266ZM275 680L10 0H140L200 160H458L519 -10L649 8L385 680H275ZM325 943Q296 943 272 930T233 894T218 842Q218 799 250 772T325 744Q354 744 378 756T417 791T432 842Q432 871 417 893T378
929T325 943ZM325 802Q309 802 298 814T286 842Q286 858 297 869T325 881Q342 881 353 870T364 842Q364 826 353 814T325 802Z" />
<glyph unicode="&#xc6;" horiz-adv-x="962" d="M466 0H942L922 101H597V292H840L819 395H597V578H893L874 680H453L0 8L124 -10L234 160H466V0ZM466 502V266H304L466 502Z" />
<glyph unicode="&#xc7;" horiz-adv-x="564" d="M543 650Q513 666 479 675T414 689T363 694Q288 694 228 668T125 594T58 481T35 337Q35 264 55 200T117 88T218 13T358 -14Q386 -14 420 -9T489 7T549 30L500 126Q469 113 432 104T352 95Q308 95 274 114T218 167T183
245T170 338Q170 416 195 470T263 555T359 585Q389 585 410 581T453 572T503 557L543 650ZM280 -75Q304 -77 324 -83T357 -99T370 -120Q370 -130 359 -133T335 -137Q322 -137 303 -131T270 -117L240 -193Q256 -206 286 -213T335 -221Q368 -221 396 -210T443 -176T461
-118Q461 -100 453 -83T428 -52T391 -30L409 13H316L280 -75Z" />
<glyph unicode="&#xc8;" horiz-adv-x="581" d="M561 0L539 101H214V292H457L436 395H214V578H511L491 680H85V0H561ZM261 739L351 764L300 903H166L261 739Z" />
<glyph unicode="&#xc9;" horiz-adv-x="581" d="M561 0L539 101H214V292H457L436 395H214V578H511L491 680H85V0H561ZM341 739L436 903H302L251 764L341 739Z" />
<glyph unicode="&#xca;" horiz-adv-x="581" d="M561 0L539 101H214V292H457L436 395H214V578H511L491 680H85V0H561ZM300 804L365 740L485 755L333 904H261L110 756L233 740L300 804Z" />
<glyph unicode="&#xcb;" horiz-adv-x="581" d="M561 0L539 101H214V292H457L436 395H214V578H511L491 680H85V0H561ZM208 753Q235 753 252 771T270 817Q270 844 253 863T208 882Q180 882 161 863T141 817Q141 790 160 772T208 753ZM397 753Q424 753 443 771T462
817Q462 844 443 863T397 882Q371 882 352 863T332 817Q332 790 351 772T397 753Z" />
<glyph unicode="&#xcc;" horiz-adv-x="299" d="M214 0V680H85V0H214ZM111 739L201 764L150 903H16L111 739Z" />
<glyph unicode="&#xcd;" horiz-adv-x="299" d="M214 0V680H85V0H214ZM191 739L286 903H152L101 764L191 739Z" />
<glyph unicode="&#xce;" horiz-adv-x="299" d="M214 0V680H85V0H214ZM406 804L471 740L591 755L439 904H367L216 756L339 740L406 804Z" />
<glyph unicode="&#xcf;" horiz-adv-x="299" d="M214 0V680H85V0H214ZM314 753Q341 753 358 771T376 817Q376 844 359 863T314 882Q286 882 267 863T247 817Q247 790 266 772T314 753ZM503 753Q530 753 549 771T568 817Q568 844 549 863T503 882Q477 882 458 863T438
817Q438 790 457 772T503 753Z" />
<glyph unicode="&#xd0;" horiz-adv-x="691" d="M295 292L286 392H17L29 292H295ZM343 -1Q443 1 512 43T619 162T656 344Q656 442 622 517T518 636T343 680H85V0L343 -1ZM348 570Q408 570 446 543T503 466T521 344Q521 260 499 208T437 133T340 109H214V570H348Z" />
<glyph unicode="&#xd1;" horiz-adv-x="744" d="M214 0V455L240 416L529 0H659V680H529V226L486 287L214 680H85V0H214ZM454 866Q453 854 445 845T426 835Q406 835 394 840T370 853Q360 861 347 865T314 870Q288 870 263 859T223 821T207 750H293Q294 760 302 770T321
781Q340 781 350 776T370 764Q381 757 393 751T427 745Q454 745 478 756T518 794T534 866H454Z" />
<glyph unicode="&#xd2;" horiz-adv-x="737" d="M368 -14Q262 -14 188 33T74 160T35 337Q35 442 77 522T194 648T368 696Q475 696 549 649T662 522T701 345Q701 239 659 159T543 34T368 -14ZM368 95Q423 95 467 122T539 205T567 344Q567 415 544 469T476 554T370
586Q317 586 271 555T198 469T170 338Q170 267 194 212T262 126T368 95ZM327 739L417 764L366 903H232L327 739Z" />
<glyph unicode="&#xd3;" horiz-adv-x="737" d="M368 -14Q262 -14 188 33T74 160T35 337Q35 442 77 522T194 648T368 696Q475 696 549 649T662 522T701 345Q701 239 659 159T543 34T368 -14ZM368 95Q423 95 467 122T539 205T567 344Q567 415 544 469T476 554T370
586Q317 586 271 555T198 469T170 338Q170 267 194 212T262 126T368 95ZM407 739L502 903H368L317 764L407 739Z" />
<glyph unicode="&#xd4;" horiz-adv-x="737" d="M368 -14Q262 -14 188 33T74 160T35 337Q35 442 77 522T194 648T368 696Q475 696 549 649T662 522T701 345Q701 239 659 159T543 34T368 -14ZM368 95Q423 95 467 122T539 205T567 344Q567 415 544 469T476 554T370
586Q317 586 271 555T198 469T170 338Q170 267 194 212T262 126T368 95ZM366 804L431 740L551 755L399 904H327L176 756L299 740L366 804Z" />
<glyph unicode="&#xd5;" horiz-adv-x="737" d="M368 -14Q262 -14 188 33T74 160T35 337Q35 442 77 522T194 648T368 696Q475 696 549 649T662 522T701 345Q701 239 659 159T543 34T368 -14ZM368 95Q423 95 467 122T539 205T567 344Q567 415 544 469T476 554T370
586Q317 586 271 555T198 469T170 338Q170 267 194 212T262 126T368 95ZM443 866Q442 854 434 845T415 835Q395 835 383 840T359 853Q349 861 336 865T303 870Q277 870 252 859T212 821T196 750H282Q283 760 291 770T310 781Q329 781 339 776T359 764Q370 757 382
751T416 745Q443 745 467 756T507 794T523 866H443Z" />
<glyph unicode="&#xd6;" horiz-adv-x="737" d="M368 -14Q262 -14 188 33T74 160T35 337Q35 442 77 522T194 648T368 696Q475 696 549 649T662 522T701 345Q701 239 659 159T543 34T368 -14ZM368 95Q423 95 467 122T539 205T567 344Q567 415 544 469T476 554T370
586Q317 586 271 555T198 469T170 338Q170 267 194 212T262 126T368 95ZM274 753Q301 753 318 771T336 817Q336 844 319 863T274 882Q246 882 227 863T207 817Q207 790 226 772T274 753ZM463 753Q490 753 509 771T528 817Q528 844 509 863T463 882Q437 882 418
863T398 817Q398 790 417 772T463 753Z" />
<glyph unicode="&#xd7;" horiz-adv-x="569" d="M346 256L523 29H390L283 167L164 29H30L223 257L47 484H179L286 347L405 484H539L346 256Z" />
<glyph unicode="&#xd8;" horiz-adv-x="737" d="M368 -14Q262 -14 188 33T74 160T35 337Q35 442 77 522T194 648T368 696Q475 696 549 649T662 522T701 345Q701 239 659 159T543 34T368 -14ZM368 95Q423 95 467 122T539 205T567 344Q567 415 544 469T476 554T370
586Q317 586 271 555T198 469T170 338Q170 267 194 212T262 126T368 95ZM322 52L215 123L423 622L531 549L322 52Z" />
<glyph unicode="&#xd9;" horiz-adv-x="710" d="M206 680H75L76 247Q76 174 110 115T207 22T355 -11Q441 -10 503 23T600 115T635 247V680H504V257Q504 203 485 167T433 113T355 95Q312 95 278 112T225 165T206 257V680ZM314 739L404 764L353 903H219L314 739Z" />
<glyph unicode="&#xda;" horiz-adv-x="710" d="M206 680H75L76 247Q76 174 110 115T207 22T355 -11Q441 -10 503 23T600 115T635 247V680H504V257Q504 203 485 167T433 113T355 95Q312 95 278 112T225 165T206 257V680ZM394 739L489 903H355L304 764L394 739Z" />
<glyph unicode="&#xdb;" horiz-adv-x="710" d="M206 680H75L76 247Q76 174 110 115T207 22T355 -11Q441 -10 503 23T600 115T635 247V680H504V257Q504 203 485 167T433 113T355 95Q312 95 278 112T225 165T206 257V680ZM353 804L418 740L538 755L386 904H314L163
756L286 740L353 804Z" />
<glyph unicode="&#xdc;" horiz-adv-x="710" d="M206 680H75L76 247Q76 174 110 115T207 22T355 -11Q441 -10 503 23T600 115T635 247V680H504V257Q504 203 485 167T433 113T355 95Q312 95 278 112T225 165T206 257V680ZM261 753Q288 753 305 771T323 817Q323 844
306 863T261 882Q233 882 214 863T194 817Q194 790 213 772T261 753ZM450 753Q477 753 496 771T515 817Q515 844 496 863T450 882Q424 882 405 863T385 817Q385 790 404 772T450 753Z" />
<glyph unicode="&#xdd;" horiz-adv-x="608" d="M362 0V260L598 680H462L296 396L138 694L10 657L232 265V0H362ZM335 739L430 903H296L245 764L335 739Z" />
<glyph unicode="&#xde;" horiz-adv-x="607" d="M297 600Q372 600 433 578T530 508T567 382Q567 325 544 282T482 212T393 171T289 157H214V0H85V680H214V600H297ZM296 264Q335 264 364 275T411 311T430 374Q430 418 414 444T367 481T293 492H214V264H296Z" />
<glyph unicode="&#xdf;" horiz-adv-x="626" d="M65 0H194V471Q194 508 208 534T248 575T306 590Q349 590 380 566T411 499Q411 460 380 432T295 403H260V298H354Q396 298 427 270T459 199Q459 173 443 153T402 120T345 107H254V0H354Q427 0 481 23T565 91T596
195Q596 240 577 277T528 339T466 372Q489 383 507 405T536 454T547 508Q547 572 514 615T426 680T300 702Q226 702 173 673T93 593T65 473V0Z" />
<glyph unicode="&#xe0;" horiz-adv-x="503" d="M154 145Q154 171 172 192T224 213H322V139Q297 115 270 103T215 91Q197 91 184 98T162 118T154 145ZM102 346Q129 358 169 368T243 378Q279 378 299 358T321 301V300H226Q144 299 93 260T42 145Q42 75 85 32T217
-12Q253 -12 285 6T345 52L367 0H452V319Q452 371 424 411T347 475T241 498Q221 498 187 492T119 477T67 454L102 346ZM237 589L327 614L276 753H142L237 589Z" />
<glyph unicode="&#xe1;" horiz-adv-x="503" d="M154 145Q154 171 172 192T224 213H322V139Q297 115 270 103T215 91Q197 91 184 98T162 118T154 145ZM102 346Q129 358 169 368T243 378Q279 378 299 358T321 301V300H226Q144 299 93 260T42 145Q42 75 85 32T217
-12Q253 -12 285 6T345 52L367 0H452V319Q452 371 424 411T347 475T241 498Q221 498 187 492T119 477T67 454L102 346ZM264 589L359 753H225L174 614L264 589Z" />
<glyph unicode="&#xe2;" horiz-adv-x="503" d="M154 145Q154 171 172 192T224 213H322V139Q297 115 270 103T215 91Q197 91 184 98T162 118T154 145ZM102 346Q129 358 169 368T243 378Q279 378 299 358T321 301V300H226Q144 299 93 260T42 145Q42 75 85 32T217
-12Q253 -12 285 6T345 52L367 0H452V319Q452 371 424 411T347 475T241 498Q221 498 187 492T119 477T67 454L102 346ZM250 654L315 589L435 605L283 753H211L60 605L183 589L250 654Z" />
<glyph unicode="&#xe3;" horiz-adv-x="503" d="M154 145Q154 171 172 192T224 213H322V139Q297 115 270 103T215 91Q197 91 184 98T162 118T154 145ZM102 346Q129 358 169 368T243 378Q279 378 299 358T321 301V300H226Q144 299 93 260T42 145Q42 75 85 32T217
-12Q253 -12 285 6T345 52L367 0H452V319Q452 371 424 411T347 475T241 498Q221 498 187 492T119 477T67 454L102 346ZM332 716Q331 704 323 695T304 685Q284 685 272 690T248 703Q238 711 225 715T192 720Q166 720 141 709T101 671T85 600H171Q172 610 180 620T199
631Q217 631 228 626T248 615Q259 608 271 602T305 595Q332 595 356 606T396 644T412 716H332Z" />
<glyph unicode="&#xe4;" horiz-adv-x="503" d="M154 145Q154 171 172 192T224 213H322V139Q297 115 270 103T215 91Q197 91 184 98T162 118T154 145ZM102 346Q129 358 169 368T243 378Q279 378 299 358T321 301V300H226Q144 299 93 260T42 145Q42 75 85 32T217
-12Q253 -12 285 6T345 52L367 0H452V319Q452 371 424 411T347 475T241 498Q221 498 187 492T119 477T67 454L102 346ZM150 603Q177 603 194 621T212 667Q212 694 195 713T150 732Q122 732 103 713T83 667Q83 640 102 622T150 603ZM339 603Q366 603 385 621T404
667Q404 694 385 713T339 732Q313 732 294 713T274 667Q274 640 293 622T339 603Z" />
<glyph unicode="&#xe5;" horiz-adv-x="503" d="M154 145Q154 171 172 192T224 213H322V139Q297 115 270 103T215 91Q197 91 184 98T162 118T154 145ZM102 346Q129 358 169 368T243 378Q279 378 299 358T321 301V300H226Q144 299 93 260T42 145Q42 75 85 32T217
-12Q253 -12 285 6T345 52L367 0H452V319Q452 371 424 411T347 475T241 498Q221 498 187 492T119 477T67 454L102 346ZM246 793Q217 793 193 780T154 744T139 692Q139 649 171 622T246 594Q275 594 299 606T338 641T353 692Q353 721 338 743T299 779T246 793ZM246
652Q230 652 219 664T207 692Q207 708 218 719T246 731Q263 731 274 720T285 692Q285 676 274 664T246 652Z" />
<glyph unicode="&#xe6;" horiz-adv-x="813" d="M788 204H461Q467 171 483 148T529 112T607 99Q650 99 683 111T748 142L786 48Q764 31 737 17T679 -5T604 -13Q532 -13 477 7T387 63Q370 46 347 29T293 0T217 -12Q128 -12 85 31T42 145Q42 220 93 259T226 300H321V301Q320
337 300 357T243 378Q209 378 169 368T102 346L67 454Q86 467 119 476T186 492T241 498Q288 498 329 483T401 439Q431 468 473 483T567 498Q643 498 692 463T764 371T788 244V204ZM462 291H666Q659 324 645 345T611 376T565 387Q538 387 518 376T483 344T462 291ZM325
213H224Q202 213 186 204T162 179T154 145Q154 131 162 119T183 99T215 91Q247 91 269 98T307 117T338 144Q333 160 330 177T325 213Z" />
<glyph unicode="&#xe7;" horiz-adv-x="473" d="M414 132Q379 116 348 108T285 99Q249 99 220 117T175 168T159 242Q159 284 175 316T219 368T284 387Q318 387 348 379T414 354L451 447Q427 464 396 475T334 492T283 498Q205 498 147 467T58 378T25 242Q25 165
57 108T147 19T283 -12Q304 -12 334 -7T396 9T451 38L414 132ZM193 -75Q217 -77 237 -83T270 -99T283 -120Q283 -130 272 -133T248 -137Q235 -137 216 -131T183 -117L153 -193Q169 -206 199 -213T248 -221Q281 -221 309 -210T356 -176T374 -118Q374 -100 366 -83T341
-52T304 -30L322 13H229L193 -75Z" />
<glyph unicode="&#xe8;" horiz-adv-x="515" d="M490 204V244Q490 313 467 371T394 463T269 498Q194 498 139 467T55 378T25 242Q25 165 56 108T149 19T306 -12Q348 -12 380 -5T439 16T488 48L450 142Q418 123 385 111T309 99Q261 99 231 112T185 148T163 204H490ZM164
291Q170 323 184 344T219 376T266 387Q292 387 312 377T347 345T367 291H164ZM248 589L338 614L287 753H153L248 589Z" />
<glyph unicode="&#xe9;" horiz-adv-x="515" d="M490 204V244Q490 313 467 371T394 463T269 498Q194 498 139 467T55 378T25 242Q25 165 56 108T149 19T306 -12Q348 -12 380 -5T439 16T488 48L450 142Q418 123 385 111T309 99Q261 99 231 112T185 148T163 204H490ZM164
291Q170 323 184 344T219 376T266 387Q292 387 312 377T347 345T367 291H164ZM276 589L371 753H237L186 614L276 589Z" />
<glyph unicode="&#xea;" horiz-adv-x="515" d="M490 204V244Q490 313 467 371T394 463T269 498Q194 498 139 467T55 378T25 242Q25 165 56 108T149 19T306 -12Q348 -12 380 -5T439 16T488 48L450 142Q418 123 385 111T309 99Q261 99 231 112T185 148T163 204H490ZM164
291Q170 323 184 344T219 376T266 387Q292 387 312 377T347 345T367 291H164ZM262 654L327 589L447 605L295 753H223L72 605L195 589L262 654Z" />
<glyph unicode="&#xeb;" horiz-adv-x="515" d="M490 204V244Q490 313 467 371T394 463T269 498Q194 498 139 467T55 378T25 242Q25 165 56 108T149 19T306 -12Q348 -12 380 -5T439 16T488 48L450 142Q418 123 385 111T309 99Q261 99 231 112T185 148T163 204H490ZM164
291Q170 323 184 344T219 376T266 387Q292 387 312 377T347 345T367 291H164ZM162 603Q189 603 206 621T224 667Q224 694 207 713T162 732Q134 732 115 713T95 667Q95 640 114 622T162 603ZM351 603Q378 603 397 621T416 667Q416 694 397 713T351 732Q325 732 306
713T286 667Q286 640 305 622T351 603Z" />
<glyph unicode="&#xec;" horiz-adv-x="240" d="M186 0V485H55V0H186ZM358 589L448 614L397 753H263L358 589Z" />
<glyph unicode="&#xed;" horiz-adv-x="240" d="M186 0V485H55V0H186ZM129 589L224 753H90L39 614L129 589Z" />
<glyph unicode="&#xee;" horiz-adv-x="240" d="M186 0V485H55V0H186ZM371 654L436 589L556 605L404 753H332L181 605L304 589L371 654Z" />
<glyph unicode="&#xef;" horiz-adv-x="240" d="M186 0V485H55V0H186ZM271 603Q298 603 315 621T333 667Q333 694 316 713T271 732Q243 732 224 713T204 667Q204 640 223 622T271 603ZM460 603Q487 603 506 621T525 667Q525 694 506 713T460 732Q434 732 415 713T395
667Q395 640 414 622T460 603Z" />
<glyph unicode="&#xf0;" horiz-adv-x="567" d="M543 270Q543 346 508 421T411 562T273 676T114 749L64 654Q137 624 200 582T309 488T382 375T409 244Q409 203 393 170T350 118T285 99Q249 99 220 117T175 168T159 242Q159 284 175 316T219 368T284 387Q319 387
347 380T398 360T437 331L482 402Q460 427 428 449T356 484T274 498Q201 498 145 467T57 378T25 242Q25 165 57 108T147 19T284 -12Q363 -12 421 21T511 118T543 270ZM105 484L417 653L367 742L54 577L105 484Z" />
<glyph unicode="&#xf1;" horiz-adv-x="567" d="M185 0V335Q202 347 222 361T267 384T315 393Q347 393 366 369T385 298V0H515V304Q515 360 501 404T451 475T349 501Q323 501 292 494T227 471T162 434L140 485H55V0H185ZM374 716Q373 704 365 695T346 685Q326 685
314 690T290 703Q280 711 267 715T234 720Q208 720 183 709T143 671T127 600H213Q214 610 222 620T241 631Q259 631 270 626T290 615Q301 608 313 602T347 595Q374 595 398 606T438 644T454 716H374Z" />
<glyph unicode="&#xf2;" horiz-adv-x="567" d="M284 -12Q205 -12 147 19T57 107T25 242Q26 320 57 377T147 466T284 498Q364 498 421 467T511 379T543 244Q543 167 511 109T421 20T284 -12ZM285 99Q322 99 349 118T393 170T409 244Q409 286 393 318T349 368T284
387Q248 387 220 368T175 317T159 242Q159 200 175 168T220 118T285 99ZM264 589L354 614L303 753H169L264 589Z" />
<glyph unicode="&#xf3;" horiz-adv-x="567" d="M284 -12Q205 -12 147 19T57 107T25 242Q26 320 57 377T147 466T284 498Q364 498 421 467T511 379T543 244Q543 167 511 109T421 20T284 -12ZM285 99Q322 99 349 118T393 170T409 244Q409 286 393 318T349 368T284
387Q248 387 220 368T175 317T159 242Q159 200 175 168T220 118T285 99ZM292 589L387 753H253L202 614L292 589Z" />
<glyph unicode="&#xf4;" horiz-adv-x="567" d="M284 -12Q205 -12 147 19T57 107T25 242Q26 320 57 377T147 466T284 498Q364 498 421 467T511 379T543 244Q543 167 511 109T421 20T284 -12ZM285 99Q322 99 349 118T393 170T409 244Q409 286 393 318T349 368T284
387Q248 387 220 368T175 317T159 242Q159 200 175 168T220 118T285 99ZM278 654L343 589L463 605L311 753H239L88 605L211 589L278 654Z" />
<glyph unicode="&#xf5;" horiz-adv-x="567" d="M284 -12Q205 -12 147 19T57 107T25 242Q26 320 57 377T147 466T284 498Q364 498 421 467T511 379T543 244Q543 167 511 109T421 20T284 -12ZM285 99Q322 99 349 118T393 170T409 244Q409 286 393 318T349 368T284
387Q248 387 220 368T175 317T159 242Q159 200 175 168T220 118T285 99ZM361 716Q360 704 352 695T333 685Q313 685 301 690T277 703Q267 711 254 715T221 720Q195 720 170 709T130 671T114 600H200Q201 610 209 620T228 631Q246 631 257 626T277 615Q288 608 300
602T334 595Q361 595 385 606T425 644T441 716H361Z" />
<glyph unicode="&#xf6;" horiz-adv-x="567" d="M284 -12Q205 -12 147 19T57 107T25 242Q26 320 57 377T147 466T284 498Q364 498 421 467T511 379T543 244Q543 167 511 109T421 20T284 -12ZM285 99Q322 99 349 118T393 170T409 244Q409 286 393 318T349 368T284
387Q248 387 220 368T175 317T159 242Q159 200 175 168T220 118T285 99ZM179 603Q206 603 223 621T241 667Q241 694 224 713T179 732Q151 732 132 713T112 667Q112 640 131 622T179 603ZM368 603Q395 603 414 621T433 667Q433 694 414 713T368 732Q342 732 323
713T303 667Q303 640 322 622T368 603Z" />
<glyph unicode="&#xf7;" horiz-adv-x="509" d="M254 359Q285 359 308 382T332 436Q332 469 309 491T254 513Q221 513 199 491T176 436Q176 405 198 382T254 359ZM468 325H30L39 223H479L468 325ZM254 24Q285 24 308 47T331 102Q331 135 308 157T253 179Q221 179
199 157T176 102Q176 70 198 47T254 24Z" />
<glyph unicode="&#xf8;" horiz-adv-x="568" d="M284 -12Q205 -12 147 19T57 107T25 242Q26 320 57 377T147 466T284 498Q364 498 421 467T511 379T543 244Q543 167 511 109T421 20T284 -12ZM285 99Q322 99 349 118T393 170T409 244Q409 286 393 318T349 368T284
387Q248 387 220 368T175 317T159 242Q159 200 175 168T220 118T285 99ZM248 76L155 118L314 397L404 340L248 76Z" />
<glyph unicode="&#xf9;" horiz-adv-x="567" d="M381 485V149Q365 137 345 124T301 102T251 93Q219 93 200 117T181 187V485H51V181Q51 125 65 81T115 10T217 -16Q243 -16 274 -8T339 15T404 52L425 0H511V485H381ZM268 589L358 614L307 753H173L268 589Z" />
<glyph unicode="&#xfa;" horiz-adv-x="567" d="M381 485V149Q365 137 345 124T301 102T251 93Q219 93 200 117T181 187V485H51V181Q51 125 65 81T115 10T217 -16Q243 -16 274 -8T339 15T404 52L425 0H511V485H381ZM296 589L391 753H257L206 614L296 589Z" />
<glyph unicode="&#xfb;" horiz-adv-x="567" d="M381 485V149Q365 137 345 124T301 102T251 93Q219 93 200 117T181 187V485H51V181Q51 125 65 81T115 10T217 -16Q243 -16 274 -8T339 15T404 52L425 0H511V485H381ZM282 654L347 589L467 605L315 753H243L92 605L215
589L282 654Z" />
<glyph unicode="&#xfc;" horiz-adv-x="567" d="M381 485V149Q365 137 345 124T301 102T251 93Q219 93 200 117T181 187V485H51V181Q51 125 65 81T115 10T217 -16Q243 -16 274 -8T339 15T404 52L425 0H511V485H381ZM182 603Q209 603 226 621T244 667Q244 694 227
713T182 732Q154 732 135 713T115 667Q115 640 134 622T182 603ZM371 603Q398 603 417 621T436 667Q436 694 417 713T371 732Q345 732 326 713T306 667Q306 640 325 622T371 603Z" />
<glyph unicode="&#xfd;" horiz-adv-x="503" d="M154 -23Q146 -45 125 -62T77 -92T27 -115L73 -222Q116 -212 156 -190T229 -136T276 -64L493 485H356L251 191L138 504L10 464L177 34L154 -23ZM256 590L351 754H217L166 615L256 590Z" />
<glyph unicode="&#xfe;" horiz-adv-x="550" d="M281 498Q357 498 411 467T495 379T525 245Q525 168 496 111T411 21T276 -12Q259 -12 236 -5T190 14V-209L61 -219V695L190 706V474Q212 485 236 491T281 498ZM276 99Q313 99 339 118T377 170T390 245Q390 287 377
318T339 368T276 387Q253 387 233 380T190 358V127Q212 112 232 106T276 99Z" />
<glyph unicode="&#xff;" horiz-adv-x="503" d="M154 -23Q146 -45 125 -62T77 -92T27 -115L73 -222Q116 -212 156 -190T229 -136T276 -64L493 485H356L251 191L138 504L10 464L177 34L154 -23ZM142 604Q169 604 186 622T204 668Q204 695 187 714T142 733Q114 733
95 714T75 668Q75 641 94 623T142 604ZM331 604Q358 604 377 622T396 668Q396 695 377 714T331 733Q305 733 286 714T266 668Q266 641 285 623T331 604Z" />
<glyph unicode="&#x2013;" horiz-adv-x="442" d="M402 325H30L41 223H412L402 325Z" />
<glyph unicode="&#x2014;" horiz-adv-x="550" d="M511 325H30L41 223H520L511 325Z" />
<glyph unicode="&#x2018;" horiz-adv-x="211" d="M94 443Q116 443 132 454T158 482T168 517Q168 545 149 567T113 588Q120 622 137 641T181 682L152 742Q114 722 84 687T37 612T20 533Q20 495 41 469T94 443Z" />
<glyph unicode="&#x2019;" horiz-adv-x="210" d="M104 742Q83 742 67 731T41 703T31 667Q31 650 40 634T62 608T87 597Q80 565 63 546T20 503L49 443Q86 465 116 500T163 575T180 654Q180 693 158 717T104 742Z" />
<glyph unicode="&#x201a;" horiz-adv-x="210" d="M104 146Q83 146 67 136T41 108T31 72Q31 54 40 38T62 11T87 0Q80 -31 63 -50T20 -92L49 -154Q86 -132 116 -97T163 -21T180 56Q180 96 158 121T104 146Z" />
<glyph unicode="&#x201c;" horiz-adv-x="396" d="M104 443Q126 443 142 454T168 482T178 517Q178 545 159 567T123 588Q130 622 147 641T191 682L162 742Q124 722 94 687T47 612T30 533Q30 495 51 469T104 443ZM291 443Q311 443 327 454T354 482T364 517Q364 536
355 552T332 578T308 588Q315 622 332 641T376 682L346 742Q309 722 279 687T233 612T216 533Q216 495 237 469T291 443Z" />
<glyph unicode="&#x201d;" horiz-adv-x="394" d="M290 742Q270 742 254 731T227 703T217 667Q217 641 235 619T272 597Q264 565 247 546T204 503L233 443Q272 465 300 500T346 575T364 654Q364 693 343 717T290 742ZM104 742Q83 742 67 731T41 703T31 667Q31 650
40 634T62 608T87 597Q80 565 63 546T20 503L49 443Q86 465 116 500T163 575T180 654Q180 693 158 717T104 742Z" />
<glyph unicode="&#x201e;" horiz-adv-x="394" d="M104 146Q83 146 67 135T41 107T31 72Q31 54 40 38T62 11T87 0Q80 -32 63 -51T20 -92L49 -154Q86 -132 116 -97T163 -21T180 56Q180 96 158 121T104 146ZM290 146Q270 146 254 136T227 108T217 72Q217 45 235 23T272
0Q264 -31 247 -50T204 -92L233 -154Q272 -132 300 -97T346 -21T364 56Q364 96 343 121T290 146Z" />
<glyph unicode="&#x2022;" horiz-adv-x="278" d="M138 223Q169 223 193 237T232 275T248 330Q248 360 233 384T193 423T138 438Q108 438 83 424T44 385T30 330Q30 300 44 276T83 237T138 223Z" />
<glyph unicode="&#x2039;" horiz-adv-x="233" d="M30 221L190 83L213 174L132 245L213 316L190 408L30 269V221Z" />
<glyph unicode="&#x203a;" horiz-adv-x="232" d="M202 269L42 408L20 317L98 246L20 174L42 83L202 221V269Z" />
</font>
</defs>
</svg>
