<?xml version="1.0" standalone="no"?>
<!DOCTYPE svg PUBLIC "-//W3C//DTD SVG 1.1//EN" "http://www.w3.org/Graphics/SVG/1.1/DTD/svg11.dtd">
<svg xmlns="http://www.w3.org/2000/svg">
<defs >
<font id="Rosario" horiz-adv-x="493" ><font-face
    font-family="Rosario SemiBold"
    units-per-em="1000"
    panose-1="0 0 0 0 0 0 0 0 0 0"
    ascent="977"
    descent="-235"
    alphabetic="0" />
<glyph unicode=" " horiz-adv-x="234" />
<glyph unicode="!" horiz-adv-x="246" d="M130 730H261L160 218H87L130 730ZM172 67Q172 35 148 11T92 -13Q65 -13 48 4T30 48Q30 69 41 87T72 116T111 127Q137 127 154 110T172 67Z" />
<glyph unicode="&quot;" horiz-adv-x="300" d="M101 442H76L62 554L86 728H173L148 553L101 442ZM244 442H218L204 554L229 728H315L291 553L244 442Z" />
<glyph unicode="#" horiz-adv-x="640" d="M442 296H558V225H433L402 0H327L358 225H250L219 0H145L176 225H58V296H185L203 426H84V498H213L243 724H318L287 498H396L426 724H499L469 498H583V426H460L442 296ZM260 296H368L386 426H277L260 296Z" />
<glyph unicode="$" horiz-adv-x="535" d="M360 701Q387 701 417 695T476 677T527 648L477 568Q459 585 437 596T392 613T344 619Q312 619 283 607T236 570T218 512Q218 484 237 465T286 429T350 397T414 358T463 306T483 230Q483 157 447 103T351 19T220 -11Q167
-11 114 3T13 46L65 137Q90 116 113 101T163 79T222 71Q260 71 292 89T345 138T366 206Q366 237 347 258T298 295T234 328T170 365T120 415T101 487Q101 560 137 607T233 678T360 701ZM249 27L211 -133H130L195 27H249ZM313 671L348 822H431L370 671H313Z" />
<glyph unicode="%" horiz-adv-x="946" d="M689 731H768L291 -4H213L689 731ZM292 731Q342 731 373 711T419 656T434 574Q434 502 409 442T338 345T224 309Q175 309 144 330T97 388T82 471Q82 542 107 601T180 695T292 731ZM279 669Q239 669 213 640T174 565T161
469Q161 430 176 401T237 371Q280 371 305 400T342 475T354 573Q354 611 339 640T279 669ZM755 412Q805 412 836 392T882 335T897 253Q897 184 872 124T800 27T687 -10Q638 -10 607 11T561 68T546 151Q546 223 570 282T642 377T755 412ZM742 350Q701 350 675 321T637
245T624 148Q624 110 639 82T700 53Q742 53 767 81T804 155T816 253Q816 291 802 320T742 350ZM292 731H703L695 669H279L292 731Z" />
<glyph unicode="&amp;" horiz-adv-x="647" d="M231 421L245 354Q203 344 174 320T128 263T112 195Q112 158 128 128T175 80T248 62Q308 62 349 84T412 141T434 219Q434 251 421 284T382 347L452 389Q486 358 502 319T519 239Q519 193 499 149T441 69T348 12T223
-9Q153 -9 104 14T30 77T5 168Q5 220 32 270T110 360T231 421ZM389 740Q427 740 465 727T540 685L480 616Q432 668 388 668Q358 668 335 644T300 576T287 473Q287 395 303 326T349 204T424 118Q456 92 491 79T562 66Q578 66 593 68T623 75L635 1Q611 -4 589 -6T546
-9Q512 -9 478 -2T410 20T347 56Q294 95 257 156T200 296T180 463Q180 548 208 610T284 706T389 740ZM392 424H623L607 347H382L392 424Z" />
<glyph unicode="&apos;" horiz-adv-x="157" d="M145 553L98 442H73L58 554L83 728H169L145 553Z" />
<glyph unicode="(" horiz-adv-x="323" d="M367 727Q260 611 205 480T149 194Q149 104 174 26T249 -130L170 -143Q115 -63 84 27T52 216Q52 316 83 409T168 585T291 740L367 727Z" />
<glyph unicode=")" horiz-adv-x="328" d="M305 381Q305 281 274 188T189 11T66 -143L-10 -130Q97 -14 152 117T208 402Q208 492 183 571T109 727L187 740Q243 660 274 569T305 381Z" />
<glyph unicode="*" horiz-adv-x="479" d="M254 736H347L306 588H257L254 736ZM313 584L450 655L471 563L322 535L313 584ZM127 651L251 583L230 539L89 560L127 651ZM230 530L266 499L179 369L113 423L230 530ZM274 499L317 527L408 425L325 366L274 499Z" />
<glyph unicode="+" horiz-adv-x="642" d="M321 0H243L272 208H62L73 286H283L312 493H390L361 286H572L561 208H350L321 0Z" />
<glyph unicode="," horiz-adv-x="243" d="M176 56Q176 18 156 -17T105 -80T43 -129L12 -92Q27 -80 40 -67T61 -40T69 -17Q69 -7 60 1T41 23T31 56Q31 90 53 109T105 129Q138 129 157 108T176 56Z" />
<glyph unicode="-" horiz-adv-x="319" d="M38 216L50 299H282L270 216H38Z" />
<glyph unicode="." horiz-adv-x="232" d="M163 69Q163 36 138 12T81 -13Q54 -13 36 5T18 49Q18 71 30 89T61 119T100 131Q127 131 145 114T163 69Z" />
<glyph unicode="/" horiz-adv-x="293" d="M-16 -4L246 728H325L64 -4H-16Z" />
<glyph unicode="0" horiz-adv-x="555" d="M309 506Q376 506 422 479T492 403T516 292Q516 236 499 182T448 83T364 13T245 -13Q181 -13 135 15T63 93T38 202Q38 265 57 320T113 417T199 482T309 506ZM301 435Q253 435 222 412T172 353T145 274T137 192Q137 135
163 97T254 58Q301 58 332 80T382 139T409 217T417 300Q417 338 406 368T370 417T301 435Z" />
<glyph unicode="1" horiz-adv-x="383" d="M293 495L238 82H342L331 0H24L35 82H142L183 390L74 360L66 415L233 495H293Z" />
<glyph unicode="2" horiz-adv-x="450" d="M278 510Q338 510 379 483T421 399Q421 352 398 308T336 223T251 148T157 83H411L378 -1H-8L2 66Q59 101 114 139T214 218T286 299T313 379Q313 408 296 420T252 432Q217 432 175 414T103 369L60 435Q109 471 167 490T278 510Z" />
<glyph unicode="3" horiz-adv-x="394" d="M253 511Q310 511 344 486T379 410Q379 367 355 327T291 253T205 196Q239 196 270 183T322 144T342 76Q342 20 316 -25T243 -103T138 -157T15 -188T-114 -197L-111 -146Q-49 -142 11 -130T121 -93T199 -29T229 66Q229
106 205 124T144 143Q130 143 114 140T81 132L62 185Q92 198 128 219T196 266T249 322T270 384Q270 407 258 420T223 433Q191 433 151 415T82 369L40 438Q90 474 146 492T253 511Z" />
<glyph unicode="4" horiz-adv-x="486" d="M307 498H420L362 83H466L431 0H350L324 -185H222L248 0H-24L-18 48L307 498ZM300 375L94 83H259L300 375Z" />
<glyph unicode="5" horiz-adv-x="385" d="M165 497H430L387 396H192L140 303Q216 273 262 226T308 109Q308 44 278 -10T195 -106T77 -173T-58 -208L-65 -158Q8 -140 66 -106T159 -22T193 95Q193 155 148 198T35 265L165 497Z" />
<glyph unicode="6" horiz-adv-x="534" d="M523 731L540 676Q457 642 386 591T261 475T177 340T147 192Q147 151 158 122T192 76T244 60Q287 60 318 86T366 152T383 231Q383 273 361 305T287 337Q257 337 222 325T151 289L175 362Q213 388 253 400T330 413Q385
413 423 392T480 334T500 254Q500 200 479 152T420 67T333 9T228 -13Q175 -13 131 9T61 75T34 188Q34 261 60 331T134 463T243 578T377 670T523 731Z" />
<glyph unicode="7" horiz-adv-x="427" d="M66 497H451L444 445L74 -187H-46L339 405H28L66 497Z" />
<glyph unicode="8" horiz-adv-x="480" d="M318 730Q358 730 393 716T449 673T471 600Q471 544 434 487T321 384L275 431Q324 458 351 502T378 589Q378 626 358 644T310 663Q281 663 258 646T223 602T210 544Q210 501 238 474T303 417Q336 393 367 366T420 302T442
214Q442 146 409 96T321 17T200 -11Q152 -11 112 6T46 57T21 141Q21 189 42 231T103 310T197 377L240 329Q180 296 149 250T118 150Q118 104 143 81T204 58Q239 58 267 77T311 125T327 189Q327 224 308 249T260 296T201 344Q174 366 151 391T113 448T98 520Q98
571 117 610T169 676T240 716T318 730Z" />
<glyph unicode="9" horiz-adv-x="537" d="M311 510Q364 510 408 488T478 422T505 309Q505 236 479 167T405 37T297 -73T164 -159T18 -214L2 -158Q84 -127 155 -79T279 31T362 162T392 306Q392 347 380 376T347 422T294 438Q252 438 220 412T171 346T154 267Q154
224 177 193T252 161Q282 161 316 173T387 209L363 135Q325 110 285 98T209 85Q150 85 113 107T57 165T39 245Q39 299 60 347T119 431T206 489T311 510Z" />
<glyph unicode=":" horiz-adv-x="247" d="M214 366Q212 335 188 313T132 290Q104 290 86 309T70 357Q72 388 97 410T152 433Q180 433 198 414T214 366ZM172 63Q170 33 145 10T90 -13Q62 -13 44 7T28 54Q30 85 55 107T109 130Q138 130 156 111T172 63Z" />
<glyph unicode=";" horiz-adv-x="252" d="M219 368Q219 346 207 328T177 298T137 286Q110 286 92 304T74 348Q74 381 99 405T156 429Q184 429 201 412T219 368ZM105 129Q138 129 157 108T176 56Q176 18 156 -17T105 -80T43 -129L12 -92Q27 -80 40 -67T61 -40T69
-17Q69 -7 60 1T41 23T31 56Q31 90 53 109T105 129Z" />
<glyph unicode="&lt;" horiz-adv-x="630" d="M72 278L601 501L590 418L177 246L541 72L529 -9L63 215L72 278Z" />
<glyph unicode="=" horiz-adv-x="630" d="M86 381H585L574 304H75L86 381ZM60 190H558L547 112H48L60 190Z" />
<glyph unicode="&gt;" horiz-adv-x="630" d="M43 72L455 246L92 418L103 501L570 278L561 215L31 -9L43 72Z" />
<glyph unicode="?" horiz-adv-x="433" d="M282 728Q325 728 360 713T416 667T437 591Q437 539 416 504T362 445T298 402Q263 382 238 363T213 315Q213 308 217 298T234 280T269 273L241 203Q195 206 168 222T130 262T118 307Q118 347 137 375T186 423T245 462Q280
484 304 508T328 571Q328 607 308 623T257 639Q213 639 168 611L142 690Q177 709 213 718T282 728ZM173 130Q199 130 217 113T235 69Q235 37 210 12T152 -13Q125 -13 108 5T90 49Q90 82 115 106T173 130Z" />
<glyph unicode="@" horiz-adv-x="1022" d="M554 732Q641 732 718 705T855 627T948 501T982 331Q982 270 965 210T916 101T837 23T732 -6Q702 -6 675 -1T627 20T593 67H589Q563 27 524 7T448 -13Q392 -13 357 16T306 92T290 197Q290 252 305 307T352 407T430 479T542
506Q568 506 599 496T657 460L681 497H734Q719 397 709 330T692 221T682 156T677 121T676 101Q676 82 689 70T736 58Q776 58 808 81T862 144T897 231T909 331Q909 412 881 474T804 580T691 646T554 669Q447 669 366 629T231 520T149 369T121 201Q121 126 142 58T205
-65T311 -150T461 -182Q514 -182 567 -167L585 -228Q555 -235 524 -239T461 -244Q357 -244 280 -207T151 -107T74 37T48 204Q48 281 68 357T129 500T231 620T372 702T554 732ZM545 434Q506 434 477 416T428 364T399 288T389 199Q389 143 407 102T467 60Q500 60
524 82T565 141T595 224T613 320L626 409Q586 434 545 434Z" />
<glyph unicode="A" horiz-adv-x="596" d="M409 728L553 0H436L393 231H179L72 0H-29L312 728H409ZM331 581L214 312H378L331 581Z" />
<glyph unicode="B" horiz-adv-x="573" d="M550 581Q550 535 530 497T474 433T394 397Q456 384 495 342T534 232Q534 168 510 124T444 52T352 13T243 0H29L118 665L116 728H350Q387 728 422 722T487 699T533 654T550 581ZM433 565Q433 595 420 612T384 637T334
645H225L197 436H295Q336 436 367 451T415 495T433 565ZM420 240Q420 281 400 305T346 340T276 351H185L150 83H253Q302 83 340 101T399 154T420 240Z" />
<glyph unicode="C" horiz-adv-x="586" d="M311 -11Q239 -11 187 14T100 83T49 183T32 300Q32 378 57 455T131 597T252 700T415 740Q449 740 487 733T561 709T621 665L553 591Q526 625 486 641T406 657Q345 657 298 627T217 546T167 434T150 312Q150 249 169 195T229
107T331 73Q373 73 418 85T512 123L542 60Q507 37 470 22T394 -2T311 -11Z" />
<glyph unicode="D" horiz-adv-x="672" d="M643 434Q643 352 619 274T548 135T430 37T267 0H29L118 665L115 728H368Q437 728 488 707T574 646T626 553T643 434ZM526 427Q526 469 517 508T488 578T435 627T353 645H225L150 83H274Q328 83 369 104T440 161T489 241T517
334T526 427Z" />
<glyph unicode="E" horiz-adv-x="503" d="M115 728H538L527 645H223L193 415H427L415 332H182L149 83H452L441 0H29L118 665L115 728Z" />
<glyph unicode="F" horiz-adv-x="468" d="M115 728H507L496 645H224L194 415H407L396 333H182L137 0H28L117 665L115 728Z" />
<glyph unicode="G" horiz-adv-x="667" d="M422 739Q457 739 500 731T582 706T647 658L579 588Q553 613 529 628T477 651T411 658Q341 658 291 626T210 540T163 423T148 300Q148 258 157 218T185 146T238 94T320 74Q368 74 406 97T469 157T499 240L507 304H350L360
381H628Q614 285 602 191T582 0H525L505 75Q457 32 406 11T291 -10Q202 -10 145 29T60 134T32 282Q32 369 57 451T131 598T253 701T422 739Z" />
<glyph unicode="H" horiz-adv-x="673" d="M452 0L497 335H182L138 0H28L118 665L115 728H235L194 418H508L550 728H659L561 0H452Z" />
<glyph unicode="I" horiz-adv-x="251" d="M117 728H237L139 0H30L120 665L117 728Z" />
<glyph unicode="J" horiz-adv-x="253" d="M120 728H240L151 72Q144 14 130 -36T89 -125T19 -187T-93 -216L-97 -152Q-59 -146 -34 -127T5 -79T28 -17T40 46L123 664L120 728Z" />
<glyph unicode="K" horiz-adv-x="558" d="M235 728L138 0H28L118 665L115 728H235ZM480 728H588L339 398L509 0H388L223 386L480 728Z" />
<glyph unicode="L" horiz-adv-x="465" d="M237 728L151 83H432L420 0H29L118 665L116 728H237Z" />
<glyph unicode="M" horiz-adv-x="808" d="M271 728L372 269Q377 246 379 222T384 169Q394 199 403 222T424 268L644 728H795L697 0H587L654 499Q656 519 660 540T667 584Q658 561 649 540T629 499L389 -2H320L211 498Q208 513 203 536T194 585Q192 561 190 540T186
498L118 0H28L117 665L115 728H271Z" />
<glyph unicode="N" horiz-adv-x="678" d="M251 728L474 271Q480 258 488 240T505 198Q507 220 508 238T511 275L573 728H664L565 -5H485L226 525Q218 542 211 558T195 595Q194 574 193 557T189 522L119 0H29L118 665L116 728H251Z" />
<glyph unicode="O" horiz-adv-x="708" d="M302 -10Q233 -10 182 13T98 77T49 173T32 292Q32 375 55 454T126 598T242 700T404 738Q498 738 558 700T648 594T678 438Q678 354 654 274T582 130T464 28T302 -10ZM317 71Q371 71 412 94T481 155T528 241T554 339T562
433Q562 490 547 541T496 624T394 657Q340 657 299 634T230 573T183 487T157 389T148 294Q148 239 163 188T215 104T317 71Z" />
<glyph unicode="P" horiz-adv-x="539" d="M116 728H324Q384 728 433 710T513 651T543 542Q543 462 508 406T411 320T269 290H178L139 0H30L119 665L116 728ZM226 645L190 371H280Q327 371 360 394T410 454T427 535Q427 588 399 616T316 645H226Z" />
<glyph unicode="Q" horiz-adv-x="708" d="M1077 -168Q1015 -190 960 -204T837 -219Q778 -219 718 -200T598 -152T483 -93T376 -40Q350 -27 324 -22T274 -12Q188 1 135 42T57 147T32 289Q32 372 56 452T127 596T244 700T406 739Q499 739 559 699T649 591T678 436Q678
351 653 270T577 123T447 21Q460 17 472 12T496 -1Q537 -23 586 -47T686 -93T788 -127T883 -141Q910 -141 940 -136T1001 -124T1058 -109L1077 -168ZM317 71Q371 71 411 94T481 155T528 240T554 338T563 433Q563 474 555 514T528 586T476 637T395 657Q342 657 301
634T231 572T184 486T157 388T148 294Q148 239 163 188T216 104T317 71Z" />
<glyph unicode="R" horiz-adv-x="567" d="M138 0H28L118 665L115 728H342Q399 728 446 709T521 650T550 546Q550 487 528 441T466 363T379 315L534 0H414L228 377H256Q333 377 383 418T434 540Q434 593 403 618T321 644H224L138 0Z" />
<glyph unicode="S" horiz-adv-x="501" d="M336 739Q363 739 393 733T453 715T503 686L453 606Q436 623 414 634T368 651T320 657Q288 657 259 645T212 608T194 550Q194 517 213 494T262 453T326 415T390 372T439 314T459 230Q459 157 423 103T327 19T196 -11Q143
-11 90 3T-11 46L41 137Q66 116 89 101T139 79T198 71Q236 71 268 89T321 138T342 206Q342 242 323 266T274 310T210 347T146 389T96 444T77 525Q77 598 113 645T209 716T336 739Z" />
<glyph unicode="T" horiz-adv-x="518" d="M47 728H563L551 645H349L262 0H150L236 645H35L47 728Z" />
<glyph unicode="U" horiz-adv-x="648" d="M219 728L154 243Q153 233 153 225T152 208Q152 167 167 136T212 88T290 71Q346 71 386 94T450 159T481 252L545 728H635L572 267Q561 186 528 124T432 26T271 -10Q212 -10 169 5T97 47T55 114T41 203Q41 217 42 231T45
260L99 666L96 728H219Z" />
<glyph unicode="V" horiz-adv-x="538" d="M155 728Q180 590 207 452T252 175Q287 267 328 359T412 544T497 728H596L258 -2H181L40 728H155Z" />
<glyph unicode="W" horiz-adv-x="833" d="M154 728Q163 654 171 592T186 476T199 371T210 272T219 169Q236 224 253 275T289 376T330 480T376 595T429 728H522Q532 654 540 592T555 476T568 371T578 271T586 169Q605 226 623 276T660 377T700 480T745 594T798
728H890L604 -3H502Q494 70 486 129T471 239T459 338T449 434T440 538Q422 483 405 433T369 335T330 236T287 127T235 -3H134L40 728H154Z" />
<glyph unicode="X" horiz-adv-x="555" d="M475 728H596L80 0H-41L475 728ZM202 728L518 0H392L77 728H202Z" />
<glyph unicode="Y" horiz-adv-x="499" d="M162 728L272 457L451 728H557L302 343L256 0H146L192 345L39 728H162Z" />
<glyph unicode="Z" horiz-adv-x="539" d="M98 728H553L548 658L130 83H481L466 0H-17L-12 74L405 645H87L98 728Z" />
<glyph unicode="[" horiz-adv-x="324" d="M237 674L134 -77H242L234 -131H32L150 728H353L345 674H237Z" />
<glyph unicode="\" horiz-adv-x="359" d="M-6 728H73L332 0H254L-6 728Z" />
<glyph unicode="]" horiz-adv-x="319" d="M-11 -130L-3 -76H105L208 675H100L107 728H309L191 -130H-11Z" />
<glyph unicode="^" horiz-adv-x="618" d="M329 385L99 0H17L312 494H375L531 0H448L329 385Z" />
<glyph unicode="_" horiz-adv-x="478" d="M-17 -135L-6 -61H494L483 -135H-17Z" />
<glyph unicode="`" horiz-adv-x="280" d="M225 734L304 576H214L92 734H225Z" />
<glyph unicode="a" horiz-adv-x="511" d="M419 497H472Q457 397 447 330T430 221T421 156T416 121T415 101Q415 85 421 74T445 63Q455 63 467 66T488 73L502 17Q483 5 459 -2T413 -10Q379 -10 357 12T332 67H328Q302 27 263 7T187 -13Q131 -13 96 16T45 92T28
197Q28 252 43 307T90 407T169 479T280 506Q309 506 344 494T407 449V378Q374 407 345 420T284 434Q245 434 216 416T166 364T137 288T127 199Q127 143 145 102T206 60Q238 60 262 82T304 141T334 224T352 320L365 413L419 497Z" />
<glyph unicode="b" horiz-adv-x="499" d="M34 37L122 710L120 766H226L184 447Q198 461 219 474T266 497T318 507Q372 507 406 480T455 405T470 300Q470 238 454 182T405 82T325 13T214 -13Q172 -13 124 -1T34 37L89 105Q119 78 151 69T214 59Q256 59 285 79T333
134T362 209T371 291Q371 351 354 389T295 427Q270 427 246 415T202 387T172 358L131 63L34 37Z" />
<glyph unicode="c" horiz-adv-x="421" d="M376 385Q355 407 331 418T281 429Q242 429 213 411T165 362T137 293T128 216Q128 137 157 100T238 63Q264 63 295 71T361 95L387 36Q347 12 306 0T219 -13Q158 -13 116 14T51 91T29 205Q29 265 47 318T99 414T180 481T288
506Q324 506 361 495T435 457L376 385Z" />
<glyph unicode="d" horiz-adv-x="513" d="M405 712L403 766H509Q490 634 473 518T443 311T423 166T415 99Q415 85 421 74T445 63Q455 63 467 66T488 73L502 17Q483 5 459 -2T413 -10Q379 -10 357 12T332 67H328Q302 27 263 7T187 -13Q131 -13 96 16T45 92T28 197Q28
252 43 307T90 407T169 479T280 506Q309 506 344 494T407 449V378Q374 407 345 420T284 434Q245 434 216 416T166 364T137 288T127 199Q127 143 145 102T206 60Q238 60 262 82T305 141T334 224T352 320L405 712Z" />
<glyph unicode="e" horiz-adv-x="460" d="M293 506Q332 506 365 494T418 457T439 391Q439 354 420 319T360 256T259 212T115 198V269Q162 266 202 275T273 301T320 341T337 389Q337 410 322 422T283 434Q245 434 216 415T168 365T138 295T128 217Q128 138 161
102T250 66Q280 66 316 76T390 106L421 48Q411 41 394 31T352 11T299 -6T236 -13Q162 -13 117 17T50 96T29 206Q29 260 46 313T97 410T180 480T293 506Z" />
<glyph unicode="f" horiz-adv-x="283" d="M-98 -157Q-54 -167 -26 -156T19 -116T40 -44L103 421H29L38 493Q52 493 68 495T98 506T119 538Q131 584 146 625T186 700T247 753T342 773Q380 773 413 762T473 732L429 664Q410 682 390 691T343 701Q305 701 281 681T243
630T221 562T209 493H324L314 421H199L135 -54Q120 -164 53 -205T-113 -219L-98 -157Z" />
<glyph unicode="g" horiz-adv-x="488" d="M419 497H472L405 30Q398 -15 385 -61T345 -145T273 -207T160 -230Q120 -230 88 -221T32 -201T-2 -180L48 -100Q67 -121 95 -137T155 -153Q207 -153 237 -134T282 -82T304 -7L312 43H308Q289 19 256 3T187 -13Q131 -13
96 16T45 92T28 197Q28 252 43 307T90 407T169 479T280 506Q309 506 344 494T407 449V378Q374 407 345 420T284 434Q245 434 216 416T166 364T137 288T127 199Q127 143 145 102T206 60Q238 60 262 82T304 141T334 224T352 320L365 413L419 497Z" />
<glyph unicode="h" horiz-adv-x="492" d="M230 766L185 441Q215 467 253 487T333 507Q372 507 400 494T442 453T457 380Q457 356 454 332L418 56L420 0H313L354 312Q356 323 357 334T358 357Q358 376 353 391T336 414T301 423Q283 423 264 416T228 398T197 377T176
360L127 0H31L126 711L124 766H230Z" />
<glyph unicode="i" horiz-adv-x="227" d="M237 678Q237 649 216 626T163 602Q138 602 122 618T106 659Q106 688 128 711T181 735Q206 735 221 718T237 678ZM196 493L137 57L139 0H34L92 438L91 493H196Z" />
<glyph unicode="j" horiz-adv-x="229" d="M238 678Q238 649 216 625T164 601Q139 601 123 618T107 659Q107 689 128 712T181 735Q206 735 222 719T238 678ZM198 493L137 44Q131 1 119 -43T86 -127T29 -193T-60 -226L-72 -174Q-30 -154 -8 -122T23 -51T38 25L95
438L93 493H198Z" />
<glyph unicode="k" horiz-adv-x="486" d="M340 507Q378 507 404 494T445 457T460 400Q460 349 424 298T306 214Q328 162 358 108T426 0H315Q279 57 248 120T193 242Q251 252 288 272T344 318T362 371Q362 398 346 410T306 423Q287 423 263 414T213 387T166 347V421Q190
445 219 465T279 496T340 507ZM234 766L130 0H33L129 711L127 766H234Z" />
<glyph unicode="l" horiz-adv-x="231" d="M234 766L139 56L140 0H33L129 711L127 766H234Z" />
<glyph unicode="m" horiz-adv-x="760" d="M174 504Q176 496 178 484T181 460T182 436Q204 454 227 470T276 496T333 506Q372 506 402 489T447 429Q468 448 493 466T547 495T607 506Q634 506 656 500T693 479T718 440T727 381Q727 369 727 358T724 334L687 56L688
0H584L626 317Q627 326 628 336T629 356Q629 376 624 391T606 414T569 423Q540 423 507 403T452 363L405 0H308L350 318Q352 327 353 337T354 357Q354 375 349 390T331 414T296 423Q279 423 262 416T228 399T198 379T179 363L130 0H34L82 358Q85 383 85 408Q85
437 80 460T70 491L174 504Z" />
<glyph unicode="n" d="M174 504Q177 493 179 475T182 437Q203 454 227 470T280 496T338 507Q365 507 387 500T425 479T451 440T460 380Q460 356 457 332L420 56L422 0H316L358 313Q360 324 361 335T362 358Q362 377 357 391T340 414T304 423Q287 423 268 416T231
398T200 377T179 360L130 0H34L82 353Q84 367 84 381T85 408Q85 429 83 446T77 475T70 491L174 504Z" />
<glyph unicode="o" horiz-adv-x="498" d="M215 -13Q149 -13 108 17T48 97T29 203Q29 256 45 310T94 408T173 479T283 506Q349 506 389 476T449 397T469 291Q469 238 452 184T403 86T324 14T215 -13ZM223 58Q260 58 287 78T332 133T360 207T370 289Q370 328 361
361T330 415T274 435Q238 435 211 415T165 361T138 287T128 205Q128 166 137 133T168 79T223 58Z" />
<glyph unicode="p" horiz-adv-x="504" d="M324 507Q378 507 411 480T460 405T476 300Q476 238 460 182T411 82T330 13T220 -13Q193 -13 170 -9T129 0L107 -169L110 -224H3L79 344Q81 360 82 376T84 409Q84 428 81 449T70 491L172 504Q177 484 178 470T181 439Q198
457 220 472T269 497T324 507ZM300 427Q276 427 252 415T208 387T177 358L140 80Q156 71 176 65T220 59Q261 59 290 79T339 134T368 209T377 291Q377 351 360 389T300 427Z" />
<glyph unicode="q" horiz-adv-x="491" d="M419 497H472L380 -168L383 -223H276L312 43H308Q289 19 256 3T187 -13Q131 -13 96 16T45 92T28 197Q28 252 43 307T90 407T169 479T280 506Q309 506 344 494T407 449V378Q374 407 345 420T284 434Q245 434 216 416T166
364T137 288T127 199Q127 143 145 102T206 60Q238 60 262 82T304 141T334 224T352 320L365 413L419 497Z" />
<glyph unicode="r" horiz-adv-x="334" d="M176 504Q182 484 184 459T186 407Q206 432 233 454T293 490T360 504L326 397Q280 397 244 373T176 306L134 0H36L83 360Q85 371 86 383T87 409Q87 427 84 451T70 494L176 504Z" />
<glyph unicode="s" horiz-adv-x="374" d="M327 403Q307 419 284 426T236 434Q216 434 197 427T165 404T153 366Q153 342 171 327T217 297T273 266T319 223T338 155Q338 99 311 62T240 6T145 -13Q106 -13 68 -2T-4 30L43 101Q66 84 92 72T145 59Q168 59 188 68T221
95T234 138Q234 165 216 182T170 212T115 242T68 283T49 346Q49 402 77 437T149 489T241 506Q274 506 308 498T369 474L327 403Z" />
<glyph unicode="t" horiz-adv-x="300" d="M238 632Q228 596 220 563T204 493H318L294 421H193L155 124Q154 120 154 113T153 99Q153 82 160 71T189 60Q203 60 221 63T258 70L267 10Q259 7 240 2T197 -7T153 -12Q123 -12 101 -4T66 26T54 81Q54 87 55 94T56 107T57
116L98 421H29L39 493Q71 493 92 505T130 548T164 632H238Z" />
<glyph unicode="u" horiz-adv-x="505" d="M179 493L136 170Q135 161 135 153T134 136Q134 101 148 83T192 65Q213 65 232 76T268 107T298 155T322 217T338 292L359 442L356 493H463L410 125Q409 119 409 113T408 102Q408 83 414 73T435 62Q447 62 460 66T479 73L493
16Q486 12 471 6T437 -5T402 -11Q384 -11 366 -2T336 24T322 65H318Q309 53 295 40T261 15T216 -4T161 -12Q97 -12 66 21T34 115Q34 133 37 153L76 442L73 493H179Z" />
<glyph unicode="v" horiz-adv-x="418" d="M131 493Q145 426 156 374T175 280T189 201T200 126Q215 168 231 207T265 287T307 379T360 493H455L221 -5H133L29 493H131Z" />
<glyph unicode="w" horiz-adv-x="623" d="M130 493Q138 435 145 390T157 307T166 234T172 159Q184 195 197 229T227 302T263 386T308 493H392Q402 425 410 368T424 260T434 159Q447 198 461 235T491 310T526 393T568 493H659L443 -5H365Q357 52 351 96T339 178T329
255T321 339Q308 298 293 260T261 181T224 95T180 -5H103L29 493H130Z" />
<glyph unicode="x" horiz-adv-x="424" d="M163 493L402 0H292L54 493H163ZM340 493H451L82 0H-28L340 493Z" />
<glyph unicode="y" horiz-adv-x="414" d="M-39 -157Q-7 -156 19 -144T65 -109T103 -59T135 2L31 493H133Q144 443 153 398T170 309T186 220T199 126Q216 174 235 218T274 306T316 396T362 493H455L214 -28Q187 -87 152 -132T69 -203T-48 -230L-39 -157Z" />
<glyph unicode="z" horiz-adv-x="426" d="M80 493H421V439L135 73H383L372 0H5V54L288 421H70L80 493Z" />
<glyph unicode="{" horiz-adv-x="350" d="M217 -141Q135 -141 107 -96T89 26L112 188Q115 208 112 227T96 259T59 272L66 325Q94 325 109 339T133 375T144 418L165 571Q175 646 215 691T336 737H375L368 683Q333 683 313 676T282 651T267 597L243 429Q240 404
232 378T208 331T164 298Q189 287 199 266T210 220T207 168L182 -4Q178 -39 183 -57T207 -80T260 -86L252 -141H217Z" />
<glyph unicode="|" horiz-adv-x="236" d="M138 743H220L99 -112H17L138 743Z" />
<glyph unicode="}" horiz-adv-x="321" d="M146 737Q228 737 256 693T274 571L252 409Q248 379 258 352T304 324L297 272Q270 272 254 258T231 222T220 179L199 26Q189 -49 149 -95T28 -141H-12L-5 -87Q31 -87 51 -80T81 -54T96 0L120 168Q124 193 131 219T155
266T199 299Q175 310 165 331T154 377T157 429L181 601Q187 636 181 653T157 677T104 683L111 737H146Z" />
<glyph unicode="~" horiz-adv-x="559" d="M523 298Q506 276 480 253T426 215T370 199Q341 199 317 209T271 233T225 257T174 268Q156 268 140 257T110 229T86 196L36 246Q52 272 75 295T127 333T185 348Q216 348 243 338T294 315T339 291T381 280Q410 280 435
303T476 350L523 298Z" />
<glyph unicode="&#xa0;" horiz-adv-x="234" />
<glyph unicode="&#xa1;" horiz-adv-x="245" d="M118 -233H-13L88 279H161L118 -233ZM76 430Q76 462 100 485T156 509Q183 509 200 492T218 449Q218 428 207 410T177 381T137 370Q111 370 94 387T76 430Z" />
<glyph unicode="&#xa2;" horiz-adv-x="492" d="M320 485Q353 485 388 474T451 441L394 375Q374 393 353 403T305 413Q260 413 230 383T183 305T167 207Q167 148 194 117T268 86Q317 86 379 117L403 55Q361 33 324 22T242 11Q157 11 110 63T63 202Q63 261 82 312T135
403T217 463T320 485ZM244 38L206 -123H125L190 38H244ZM284 465L319 617H403L342 465H284Z" />
<glyph unicode="&#xa3;" horiz-adv-x="581" d="M23 84H116L175 502Q184 566 217 610T300 678T412 701Q473 701 515 674T582 595L490 548Q479 577 457 598T400 620Q368 620 345 605T307 565T289 510L229 84H521L509 0H11L23 84ZM68 291L89 363H431L410 291H68Z" />
<glyph unicode="&#xa4;" horiz-adv-x="536" d="M296 460Q359 460 403 423L464 476L514 418L449 361Q457 343 461 323T465 280Q465 241 453 207T418 143L468 87L401 29L356 81Q330 63 300 53T238 43Q206 43 179 53T130 81L70 29L20 88L84 143Q69 178 69 221Q69
259 81 295T115 361L66 418L133 476L179 422Q205 441 235 450T296 460ZM287 389Q250 389 220 367T171 308T152 226Q152 173 181 144T247 115Q278 115 307 132T358 184T382 266Q385 320 359 354T287 389Z" />
<glyph unicode="&#xa5;" horiz-adv-x="604" d="M223 701L342 423L535 701H637L371 319L326 0H213L258 319L96 701H223ZM91 389H571L550 318H70L91 389ZM72 251H552L530 180H50L72 251Z" />
<glyph unicode="&#xa6;" horiz-adv-x="238" d="M138 743H220L171 393H88L138 743ZM66 235H149L99 -115H17L66 235Z" />
<glyph unicode="&#xa7;" horiz-adv-x="454" d="M394 774Q409 774 426 771T456 763T477 756L451 684Q445 687 427 693T392 700Q380 700 369 696T348 683T331 661T320 630T316 588Q316 563 318 523T325 434T335 333T345 231T352 140T355 70Q355 41 348 13T325 -40T284
-80T222 -102Q214 -148 189 -177T130 -219T58 -232Q31 -232 10 -226T-24 -214L4 -146Q10 -148 20 -151T41 -158T60 -161Q85 -161 101 -148T125 -112T133 -57Q133 -27 131 15T124 106T115 205T106 303T98 389T95 454Q95 508 109 549T152 615T230 645Q238 689 261
717T318 760T394 774ZM226 564Q202 551 194 522T186 459Q186 437 189 395T198 298T208 185T218 73T224 -24Q238 -16 246 -3T259 30T263 72Q263 109 260 156T252 256T242 363T233 469T226 564Z" />
<glyph unicode="&#xa8;" horiz-adv-x="286" d="M177 663Q177 636 157 616T108 595Q86 595 72 610T57 646Q57 674 78 694T125 714Q148 714 162 700T177 663ZM344 663Q344 636 323 616T275 595Q253 595 238 610T223 646Q223 674 244 694T291 714Q315 714 329 700T344 663Z" />
<glyph unicode="&#xa9;" horiz-adv-x="641" d="M595 250Q595 194 574 145T514 57T427 -2T321 -24Q264 -24 215 -3T127 56T68 144T47 250Q47 306 68 356T127 444T214 503T321 524Q377 524 426 503T514 444T573 357T595 250ZM556 250Q556 315 524 368T439 453T321
485Q256 485 203 454T118 369T86 250Q86 186 118 133T203 47T321 15Q386 15 439 47T524 132T556 250ZM441 116Q411 100 388 92T329 84Q281 84 247 106T195 166T177 251Q177 324 220 370T338 417Q363 417 389 408T436 383L400 337Q383 350 368 357T330 364Q303 364
286 346T261 303T253 254Q253 229 261 202T288 157T337 138Q359 138 376 146T410 169L441 116Z" />
<glyph unicode="&#xaa;" horiz-adv-x="367" d="M236 718Q253 718 274 711T311 687L329 713H366Q352 634 344 585T331 508T325 469T323 452Q323 442 327 435T342 427Q349 427 357 429T371 434L380 396Q368 389 352 384T321 378Q300 378 286 391T267 425H263Q245
400 220 389T169 377Q132 377 109 395T73 443T61 508Q61 544 72 581T107 649T162 699T236 718ZM234 668Q201 668 178 644T143 583T131 511Q131 477 143 452T181 427Q211 427 230 451T262 514T281 595L289 643Q277 656 263 662T234 668ZM74 265L83 321H320L312 265H74Z"
/>
<glyph unicode="&#xab;" horiz-adv-x="454" d="M231 177L164 167L35 332L206 498L273 486L134 331L231 177ZM390 177L321 167L192 332L363 498L432 486L291 331L390 177Z" />
<glyph unicode="&#xac;" horiz-adv-x="638" d="M502 273H79L90 344H585L548 84H475L502 273Z" />
<glyph unicode="&#xad;" horiz-adv-x="319" d="M38 216L50 299H282L270 216H38Z" />
<glyph unicode="&#xae;" horiz-adv-x="470" d="M490 606Q490 550 463 504T389 430T286 402Q229 402 183 429T110 503T82 606Q82 663 109 709T183 783T286 810Q342 810 388 783T462 710T490 606ZM456 606Q456 653 433 691T372 753T286 776Q239 776 201 753T139
692T116 606Q116 560 139 522T200 460T286 437Q333 437 371 460T433 521T456 606ZM203 724H293Q325 724 349 711T373 658Q373 637 360 622T329 600L402 494H337L272 590H257V494H203V724ZM257 682V632H279Q298 632 308 638T319 660Q319 671 310 676T286 682H257Z"
/>
<glyph unicode="&#xaf;" horiz-adv-x="300" d="M63 689H362L353 620H54L63 689Z" />
<glyph unicode="&#xb0;" horiz-adv-x="389" d="M393 614Q393 567 369 529T307 468T222 445Q167 445 130 481T93 573Q93 618 117 656T180 718T263 741Q320 741 356 705T393 614ZM328 605Q328 636 308 657T255 679Q230 679 208 666T173 630T159 580Q159 549 178
528T231 507Q256 507 278 520T314 556T328 605Z" />
<glyph unicode="&#xb1;" horiz-adv-x="632" d="M335 99H257L279 258H69L80 335H290L312 493H390L368 335H578L568 259H358L335 99ZM43 76H542L532 0H33L43 76Z" />
<glyph unicode="&#xb2;" horiz-adv-x="455" d="M91 482Q96 485 117 502T170 546T236 605T301 673T350 743T369 806Q369 832 353 847T309 863Q286 863 264 855T223 836T194 817T183 808L154 864Q154 864 167 874T204 897T262 921T335 931Q382 931 410 916T451 876T464
822Q464 789 450 755T412 688T358 625T293 567T224 517H438L406 436H91V482Z" />
<glyph unicode="&#xb3;" horiz-adv-x="455" d="M99 483Q220 489 286 526T352 619Q352 645 337 657T300 672T257 676Q243 676 233 675T223 674L221 726Q242 730 266 737T312 756T349 785T363 828Q363 845 349 854T311 863Q280 863 244 848T183 813L154 866Q191
894 242 912T337 931Q365 931 391 924T435 900T453 853Q453 822 439 799T401 759T352 733Q393 727 419 703T445 636Q445 616 437 590T407 536T348 484T250 444T103 424L99 483Z" />
<glyph unicode="&#xb4;" horiz-adv-x="287" d="M204 734H336L168 576H79L204 734Z" />
<glyph unicode="&#xb5;" horiz-adv-x="584" d="M234 493Q221 399 213 338T200 241T193 187T190 160T189 145Q189 116 201 94T248 71Q267 71 285 77T320 92T350 111T371 128L412 438L408 493H516Q508 431 501 378T488 281T478 202T470 143T465 104T463 88Q463 79
466 74T477 68Q486 68 496 70T514 76T526 80L536 19Q530 17 518 13T491 3T460 -6T429 -11Q402 -11 388 8T372 58Q357 43 334 27T284 0T231 -12Q199 -12 171 2L145 -186H46L130 438L126 493H234Z" />
<glyph unicode="&#xb6;" horiz-adv-x="510" d="M113 -109Q117 -110 121 -110T129 -111Q158 -111 176 -91T198 -42L245 294Q194 294 156 314T95 373T73 464Q73 540 105 597T194 686T330 718H531L522 657H466L375 10Q371 -21 355 -45T313 -85T257 -100Q253 -100
249 -100T240 -99Q225 -127 197 -143T135 -160Q116 -160 96 -154L113 -109ZM356 657L258 -42Q287 -42 300 -25T318 15L408 657H356Z" />
<glyph unicode="&#xb7;" horiz-adv-x="289" d="M219 267Q219 234 194 210T138 186Q111 186 94 203T76 247Q76 279 101 303T156 327Q184 327 201 310T219 267Z" />
<glyph unicode="&#xb8;" horiz-adv-x="210" d="M128 -115Q128 -147 107 -169T52 -203T-19 -219L-31 -168Q-17 -166 0 -161T30 -146T43 -119Q43 -102 28 -93T-8 -76L47 10H106L73 -44Q83 -48 96 -56T118 -79T128 -115Z" />
<glyph unicode="&#xb9;" horiz-adv-x="455" d="M113 504H235L278 830L156 795L144 853L318 921H381L326 504H424L415 436H104L113 504Z" />
<glyph unicode="&#xba;" horiz-adv-x="355" d="M369 578Q369 540 358 504T324 439T269 393T195 375Q153 375 124 393T81 444T67 515Q67 553 79 589T113 654T168 701T241 719Q284 719 312 700T355 650T369 578ZM297 578Q297 599 292 619T273 653T234 667Q208 667
190 653T161 614T144 565T139 518Q139 497 144 476T164 440T202 426Q228 426 246 441T276 481T292 530T297 578ZM61 265L69 321H307L298 265H61Z" />
<glyph unicode="&#xbb;" horiz-adv-x="454" d="M30 178L172 333L74 487L144 498L272 333L98 167L30 178ZM189 178L330 333L233 487L302 498L429 333L255 167L189 178Z" />
<glyph unicode="&#xbc;" horiz-adv-x="1119" d="M774 731H853L377 -4H299L774 731ZM86 314H208L251 640L129 605L117 663L291 731H354L299 314H397L388 246H77L86 314ZM899 106H672L679 151L959 484H1055L1006 174H1080L1048 106H995L979 0H883L899 106ZM947 372L782
174H910L947 372Z" />
<glyph unicode="&#xbd;" horiz-adv-x="1119" d="M774 731H853L377 -4H299L774 731ZM86 314H208L251 640L129 605L117 663L291 731H354L299 314H397L388 246H77L86 314ZM693 46Q698 49 719 66T773 110T839 169T903 237T952 307T971 370Q971 396 955 412T911 428Q888
428 866 420T825 400T796 381T785 372L756 428Q756 428 769 438T807 461T864 485T937 495Q984 495 1012 480T1053 440T1066 387Q1066 353 1052 319T1014 252T960 189T895 131T826 81H1041L1008 0H693V46Z" />
<glyph unicode="&#xbe;" horiz-adv-x="1119" d="M774 731H853L377 -4H299L774 731ZM72 293Q193 299 259 336T325 429Q325 455 310 467T273 482T230 486Q216 486 206 485T196 484L194 536Q215 540 239 547T285 566T322 595T336 638Q336 655 322 664T284 673Q253
673 217 658T156 623L127 676Q164 704 215 722T310 741Q338 741 364 734T408 710T426 663Q426 632 412 609T374 569T325 543Q366 537 392 513T418 446Q418 426 410 400T380 346T321 294T223 254T76 234L72 293ZM899 106H672L679 151L959 484H1055L1006 174H1080L1048
106H995L979 0H883L899 106ZM947 372L782 174H910L947 372Z" />
<glyph unicode="&#xbf;" horiz-adv-x="431" d="M152 -234Q110 -234 75 -219T18 -173T-3 -97Q-3 -45 18 -10T72 49T136 91Q172 111 197 130T222 178Q222 187 218 197T201 214T165 221L194 291Q241 288 267 271T305 232T317 187Q317 147 298 119T249 71T190 31Q154
9 130 -15T106 -77Q106 -113 127 -129T178 -145Q222 -145 266 -117L292 -197Q258 -216 222 -225T152 -234ZM262 363Q235 363 218 381T200 425Q200 457 225 481T282 506Q309 506 326 489T344 445Q344 412 319 388T262 363Z" />
<glyph unicode="&#xc0;" horiz-adv-x="596" d="M409 728L553 0H436L393 231H179L72 0H-29L312 728H409ZM331 581L214 312H378L331 581ZM329 913L412 776H322L196 913H329Z" />
<glyph unicode="&#xc1;" horiz-adv-x="596" d="M409 728L553 0H436L393 231H179L72 0H-29L312 728H409ZM331 581L214 312H378L331 581ZM439 913H572L408 776H318L439 913Z" />
<glyph unicode="&#xc2;" horiz-adv-x="596" d="M409 728L553 0H436L393 231H179L72 0H-29L312 728H409ZM331 581L214 312H378L331 581ZM373 833L297 780H221L339 910H429L513 780H435L373 833Z" />
<glyph unicode="&#xc3;" horiz-adv-x="596" d="M409 728L553 0H436L393 231H179L72 0H-29L312 728H409ZM331 581L214 312H378L331 581ZM543 893Q539 866 524 842T486 801T433 785Q405 785 383 795T342 815T299 825Q286 825 274 817T258 796H201Q207 825 222 849T262
888T316 904Q344 904 365 895T406 875T445 865Q458 865 471 872T488 893H543Z" />
<glyph unicode="&#xc4;" horiz-adv-x="596" d="M409 728L553 0H436L393 231H179L72 0H-29L312 728H409ZM331 581L214 312H378L331 581ZM350 853Q350 826 330 806T281 785Q259 785 245 800T230 836Q230 864 251 884T298 904Q321 904 335 890T350 853ZM517 853Q517
826 496 806T448 785Q426 785 411 800T396 836Q396 864 417 884T464 904Q487 904 502 890T517 853Z" />
<glyph unicode="&#xc5;" horiz-adv-x="596" d="M409 728L553 0H436L393 231H179L72 0H-29L312 728H409ZM331 581L214 312H378L331 581ZM394 996Q433 996 459 970T485 905Q485 874 469 848T427 806T369 790Q330 790 304 816T277 880Q277 912 293 938T336 980T394
996ZM385 937Q365 937 351 923T336 888Q336 871 347 860T376 848Q396 848 411 862T426 897Q426 913 414 925T385 937Z" />
<glyph unicode="&#xc6;" horiz-adv-x="840" d="M413 230H211L62 0H-40L390 665L385 728H875L863 645H582L552 415H780L768 333H539L506 83H787L776 0H382L413 230ZM266 313H425L468 635L266 313Z" />
<glyph unicode="&#xc7;" horiz-adv-x="586" d="M311 -11Q239 -11 187 14T100 83T49 183T32 300Q32 378 57 455T131 597T252 700T415 740Q449 740 487 733T561 709T621 665L553 591Q526 625 486 641T406 657Q345 657 298 627T217 546T167 434T150 312Q150 249 169
195T229 107T331 73Q373 73 418 85T512 123L542 60Q507 37 470 22T394 -2T311 -11ZM355 -115Q355 -147 334 -169T279 -203T208 -219L196 -168Q210 -166 227 -161T258 -146T271 -119Q271 -102 256 -93T219 -76L274 10H334L301 -44Q310 -48 323 -56T345 -79T355 -115Z"
/>
<glyph unicode="&#xc8;" horiz-adv-x="503" d="M115 728H538L527 645H223L193 415H427L415 332H182L149 83H452L441 0H29L118 665L115 728ZM303 913L386 776H296L170 913H303Z" />
<glyph unicode="&#xc9;" horiz-adv-x="503" d="M115 728H538L527 645H223L193 415H427L415 332H182L149 83H452L441 0H29L118 665L115 728ZM413 913H546L382 776H292L413 913Z" />
<glyph unicode="&#xca;" horiz-adv-x="503" d="M115 728H538L527 645H223L193 415H427L415 332H182L149 83H452L441 0H29L118 665L115 728ZM347 833L271 780H195L313 910H403L487 780H409L347 833Z" />
<glyph unicode="&#xcb;" horiz-adv-x="503" d="M115 728H538L527 645H223L193 415H427L415 332H182L149 83H452L441 0H29L118 665L115 728ZM324 853Q324 826 304 806T255 785Q233 785 219 800T204 836Q204 864 225 884T272 904Q295 904 309 890T324 853ZM491 853Q491
826 470 806T422 785Q400 785 385 800T370 836Q370 864 391 884T438 904Q461 904 476 890T491 853Z" />
<glyph unicode="&#xcc;" horiz-adv-x="251" d="M117 728H237L139 0H30L120 665L117 728ZM406 913L489 776H399L273 913H406Z" />
<glyph unicode="&#xcd;" horiz-adv-x="251" d="M117 728H237L139 0H30L120 665L117 728ZM260 913H393L229 776H139L260 913Z" />
<glyph unicode="&#xce;" horiz-adv-x="251" d="M117 728H237L139 0H30L120 665L117 728ZM450 833L374 780H298L416 910H506L590 780H512L450 833Z" />
<glyph unicode="&#xcf;" horiz-adv-x="251" d="M117 728H237L139 0H30L120 665L117 728ZM428 853Q428 826 408 806T359 785Q337 785 323 800T308 836Q308 864 329 884T376 904Q399 904 413 890T428 853ZM595 853Q595 826 574 806T526 785Q504 785 489 800T474
836Q474 864 495 884T542 904Q565 904 580 890T595 853Z" />
<glyph unicode="&#xd0;" horiz-adv-x="672" d="M643 434Q643 352 619 274T548 135T430 37T267 0H29L118 665L115 728H368Q437 728 488 707T574 646T626 553T643 434ZM526 427Q526 469 517 508T488 578T435 627T353 645H225L150 83H274Q328 83 369 104T440 161T489
241T517 334T526 427ZM283 401H608L597 326H272L283 401Z" />
<glyph unicode="&#xd1;" horiz-adv-x="678" d="M251 728L474 271Q480 258 488 240T505 198Q507 220 508 238T511 275L573 728H664L565 -5H485L226 525Q218 542 211 558T195 595Q194 574 193 557T189 522L119 0H29L118 665L116 728H251ZM579 893Q575 866 560 842T522
801T469 785Q441 785 419 795T378 815T335 825Q322 825 310 817T294 796H237Q243 825 258 849T298 888T352 904Q380 904 401 895T442 875T481 865Q494 865 507 872T524 893H579Z" />
<glyph unicode="&#xd2;" horiz-adv-x="708" d="M302 -10Q233 -10 182 13T98 77T49 173T32 292Q32 375 55 454T126 598T242 700T404 738Q498 738 558 700T648 594T678 438Q678 354 654 274T582 130T464 28T302 -10ZM317 71Q371 71 412 94T481 155T528 241T554 339T562
433Q562 490 547 541T496 624T394 657Q340 657 299 634T230 573T183 487T157 389T148 294Q148 239 163 188T215 104T317 71ZM379 913L462 776H372L246 913H379Z" />
<glyph unicode="&#xd3;" horiz-adv-x="708" d="M302 -10Q233 -10 182 13T98 77T49 173T32 292Q32 375 55 454T126 598T242 700T404 738Q498 738 558 700T648 594T678 438Q678 354 654 274T582 130T464 28T302 -10ZM317 71Q371 71 412 94T481 155T528 241T554 339T562
433Q562 490 547 541T496 624T394 657Q340 657 299 634T230 573T183 487T157 389T148 294Q148 239 163 188T215 104T317 71ZM489 913H622L458 776H368L489 913Z" />
<glyph unicode="&#xd4;" horiz-adv-x="708" d="M302 -10Q233 -10 182 13T98 77T49 173T32 292Q32 375 55 454T126 598T242 700T404 738Q498 738 558 700T648 594T678 438Q678 354 654 274T582 130T464 28T302 -10ZM317 71Q371 71 412 94T481 155T528 241T554 339T562
433Q562 490 547 541T496 624T394 657Q340 657 299 634T230 573T183 487T157 389T148 294Q148 239 163 188T215 104T317 71ZM423 833L347 780H271L389 910H479L563 780H485L423 833Z" />
<glyph unicode="&#xd5;" horiz-adv-x="708" d="M302 -10Q233 -10 182 13T98 77T49 173T32 292Q32 375 55 454T126 598T242 700T404 738Q498 738 558 700T648 594T678 438Q678 354 654 274T582 130T464 28T302 -10ZM317 71Q371 71 412 94T481 155T528 241T554 339T562
433Q562 490 547 541T496 624T394 657Q340 657 299 634T230 573T183 487T157 389T148 294Q148 239 163 188T215 104T317 71ZM594 893Q590 866 575 842T537 801T484 785Q456 785 434 795T393 815T350 825Q337 825 325 817T309 796H252Q258 825 273 849T313 888T367
904Q395 904 416 895T457 875T496 865Q509 865 522 872T539 893H594Z" />
<glyph unicode="&#xd6;" horiz-adv-x="708" d="M302 -10Q233 -10 182 13T98 77T49 173T32 292Q32 375 55 454T126 598T242 700T404 738Q498 738 558 700T648 594T678 438Q678 354 654 274T582 130T464 28T302 -10ZM317 71Q371 71 412 94T481 155T528 241T554 339T562
433Q562 490 547 541T496 624T394 657Q340 657 299 634T230 573T183 487T157 389T148 294Q148 239 163 188T215 104T317 71ZM401 853Q401 826 381 806T332 785Q310 785 296 800T281 836Q281 864 302 884T349 904Q372 904 386 890T401 853ZM568 853Q568 826 547
806T499 785Q477 785 462 800T447 836Q447 864 468 884T515 904Q538 904 553 890T568 853Z" />
<glyph unicode="&#xd7;" horiz-adv-x="534" d="M260 194L90 46L45 99L215 247L86 396L147 448L274 300L444 448L489 396L319 247L448 99L387 46L260 194Z" />
<glyph unicode="&#xd8;" horiz-adv-x="708" d="M302 -10Q233 -10 182 13T98 77T49 173T32 292Q32 375 55 454T126 598T242 700T404 738Q498 738 558 700T648 594T678 438Q678 354 654 274T582 130T464 28T302 -10ZM317 71Q371 71 412 94T481 155T528 241T554 339T562
433Q562 490 547 541T496 624T394 657Q340 657 299 634T230 573T183 487T157 389T148 294Q148 239 163 188T215 104T317 71ZM323 -55L272 -12L901 784L954 742L323 -55Z" />
<glyph unicode="&#xd9;" horiz-adv-x="648" d="M219 728L154 243Q153 233 153 225T152 208Q152 167 167 136T212 88T290 71Q346 71 386 94T450 159T481 252L545 728H635L572 267Q561 186 528 124T432 26T271 -10Q212 -10 169 5T97 47T55 114T41 203Q41 217 42
231T45 260L99 666L96 728H219ZM354 913L437 776H347L221 913H354Z" />
<glyph unicode="&#xda;" horiz-adv-x="648" d="M219 728L154 243Q153 233 153 225T152 208Q152 167 167 136T212 88T290 71Q346 71 386 94T450 159T481 252L545 728H635L572 267Q561 186 528 124T432 26T271 -10Q212 -10 169 5T97 47T55 114T41 203Q41 217 42
231T45 260L99 666L96 728H219ZM464 913H597L433 776H343L464 913Z" />
<glyph unicode="&#xdb;" horiz-adv-x="648" d="M219 728L154 243Q153 233 153 225T152 208Q152 167 167 136T212 88T290 71Q346 71 386 94T450 159T481 252L545 728H635L572 267Q561 186 528 124T432 26T271 -10Q212 -10 169 5T97 47T55 114T41 203Q41 217 42
231T45 260L99 666L96 728H219ZM398 833L322 780H246L364 910H454L538 780H460L398 833Z" />
<glyph unicode="&#xdc;" horiz-adv-x="648" d="M219 728L154 243Q153 233 153 225T152 208Q152 167 167 136T212 88T290 71Q346 71 386 94T450 159T481 252L545 728H635L572 267Q561 186 528 124T432 26T271 -10Q212 -10 169 5T97 47T55 114T41 203Q41 217 42
231T45 260L99 666L96 728H219ZM375 853Q375 826 355 806T306 785Q284 785 270 800T255 836Q255 864 276 884T323 904Q346 904 360 890T375 853ZM542 853Q542 826 521 806T473 785Q451 785 436 800T421 836Q421 864 442 884T489 904Q512 904 527 890T542 853Z"
/>
<glyph unicode="&#xdd;" horiz-adv-x="499" d="M162 728L272 457L451 728H557L302 343L256 0H146L192 345L39 728H162ZM385 913H518L354 776H264L385 913Z" />
<glyph unicode="&#xde;" horiz-adv-x="556" d="M246 728L231 613H317Q378 613 427 596T506 540T536 433Q536 370 515 322T455 241T368 192T263 175H171L147 0H38L127 665L125 728H246ZM183 256H273Q319 256 352 278T402 337T420 420Q420 472 392 501T309 530H219L183
256Z" />
<glyph unicode="&#xdf;" horiz-adv-x="539" d="M-178 -192L-134 -122Q-127 -127 -117 -134T-94 -148T-61 -154Q-26 -154 -4 -131T26 -48L89 417H17L27 493Q50 493 65 497T91 511T109 542Q129 602 157 646T229 714T336 738Q380 738 415 724T472 680T493 607Q493
562 477 530T438 476T390 436T350 403T334 366Q334 340 351 323T394 292T445 263T488 222T505 155Q505 100 479 63T411 6T318 -13Q283 -13 245 -2T177 30L224 101Q244 83 268 72T319 60Q353 60 377 80T402 138Q402 165 385 182T342 212T291 241T248 281T230 346Q230
383 246 409T286 455T333 495T373 538T389 595Q389 622 373 639T327 657Q293 657 270 640T231 596T208 537T195 477L123 -52Q111 -140 65 -185T-57 -230Q-91 -230 -115 -222T-155 -206T-178 -192Z" />
<glyph unicode="&#xe0;" horiz-adv-x="511" d="M419 497H472Q457 397 447 330T430 221T421 156T416 121T415 101Q415 85 421 74T445 63Q455 63 467 66T488 73L502 17Q483 5 459 -2T413 -10Q379 -10 357 12T332 67H328Q302 27 263 7T187 -13Q131 -13 96 16T45 92T28
197Q28 252 43 307T90 407T169 479T280 506Q309 506 344 494T407 449V378Q374 407 345 420T284 434Q245 434 216 416T166 364T137 288T127 199Q127 143 145 102T206 60Q238 60 262 82T304 141T334 224T352 320L365 413L419 497ZM264 734L343 576H253L131 734H264Z"
/>
<glyph unicode="&#xe1;" horiz-adv-x="511" d="M419 497H472Q457 397 447 330T430 221T421 156T416 121T415 101Q415 85 421 74T445 63Q455 63 467 66T488 73L502 17Q483 5 459 -2T413 -10Q379 -10 357 12T332 67H328Q302 27 263 7T187 -13Q131 -13 96 16T45 92T28
197Q28 252 43 307T90 407T169 479T280 506Q309 506 344 494T407 449V378Q374 407 345 420T284 434Q245 434 216 416T166 364T137 288T127 199Q127 143 145 102T206 60Q238 60 262 82T304 141T334 224T352 320L365 413L419 497ZM377 734H509L341 576H252L377 734Z"
/>
<glyph unicode="&#xe2;" horiz-adv-x="511" d="M419 497H472Q457 397 447 330T430 221T421 156T416 121T415 101Q415 85 421 74T445 63Q455 63 467 66T488 73L502 17Q483 5 459 -2T413 -10Q379 -10 357 12T332 67H328Q302 27 263 7T187 -13Q131 -13 96 16T45 92T28
197Q28 252 43 307T90 407T169 479T280 506Q309 506 344 494T407 449V378Q374 407 345 420T284 434Q245 434 216 416T166 364T137 288T127 199Q127 143 145 102T206 60Q238 60 262 82T304 141T334 224T352 320L365 413L419 497ZM309 653L230 580H154L274 729H364L446
579H368L309 653Z" />
<glyph unicode="&#xe3;" horiz-adv-x="511" d="M419 497H472Q457 397 447 330T430 221T421 156T416 121T415 101Q415 85 421 74T445 63Q455 63 467 66T488 73L502 17Q483 5 459 -2T413 -10Q379 -10 357 12T332 67H328Q302 27 263 7T187 -13Q131 -13 96 16T45 92T28
197Q28 252 43 307T90 407T169 479T280 506Q309 506 344 494T407 449V378Q374 407 345 420T284 434Q245 434 216 416T166 364T137 288T127 199Q127 143 145 102T206 60Q238 60 262 82T304 141T334 224T352 320L365 413L419 497ZM478 703Q474 677 459 652T421 612T368
596Q340 596 318 606T277 625T234 635Q221 635 209 628T193 607H136Q142 635 157 659T197 699T251 715Q279 715 300 705T341 685T380 675Q393 675 406 682T423 703H478Z" />
<glyph unicode="&#xe4;" horiz-adv-x="511" d="M419 497H472Q457 397 447 330T430 221T421 156T416 121T415 101Q415 85 421 74T445 63Q455 63 467 66T488 73L502 17Q483 5 459 -2T413 -10Q379 -10 357 12T332 67H328Q302 27 263 7T187 -13Q131 -13 96 16T45 92T28
197Q28 252 43 307T90 407T169 479T280 506Q309 506 344 494T407 449V378Q374 407 345 420T284 434Q245 434 216 416T166 364T137 288T127 199Q127 143 145 102T206 60Q238 60 262 82T304 141T334 224T352 320L365 413L419 497ZM285 663Q285 636 265 616T216 595Q194
595 180 610T165 646Q165 674 186 694T233 714Q256 714 270 700T285 663ZM452 663Q452 636 431 616T383 595Q361 595 346 610T331 646Q331 674 352 694T399 714Q423 714 437 700T452 663Z" />
<glyph unicode="&#xe5;" horiz-adv-x="511" d="M419 497H472Q457 397 447 330T430 221T421 156T416 121T415 101Q415 85 421 74T445 63Q455 63 467 66T488 73L502 17Q483 5 459 -2T413 -10Q379 -10 357 12T332 67H328Q302 27 263 7T187 -13Q131 -13 96 16T45 92T28
197Q28 252 43 307T90 407T169 479T280 506Q309 506 344 494T407 449V378Q374 407 345 420T284 434Q245 434 216 416T166 364T137 288T127 199Q127 143 145 102T206 60Q238 60 262 82T304 141T334 224T352 320L365 413L419 497ZM322 763Q362 763 388 737T414 672Q414
641 398 615T355 573T297 557Q259 557 233 583T206 648Q206 679 222 705T265 747T322 763ZM314 704Q294 704 280 690T265 655Q265 638 276 627T304 615Q324 615 339 629T355 664Q355 680 343 692T314 704Z" />
<glyph unicode="&#xe6;" horiz-adv-x="769" d="M374 138Q356 97 331 63T271 8T187 -13Q131 -13 96 16T45 92T28 197Q28 252 43 307T90 407T169 479T280 506Q300 506 326 501T381 480T437 428L407 378Q374 407 345 420T284 434Q245 434 216 416T166 364T137 288T127
199Q127 143 145 102T206 60Q245 60 272 90T317 168T345 273L374 138ZM554 66Q593 66 630 82T695 118L730 48Q721 41 704 31T662 11T608 -6T545 -13Q472 -13 426 17T359 96T338 206Q338 260 355 313T406 410T489 480T602 506Q641 506 674 494T728 457T749 391Q749
354 730 319T670 256T569 212T425 198V269Q461 266 493 271T554 288T602 314T634 348T646 389Q646 410 631 422T593 434Q555 434 526 415T477 365T447 295T437 217Q437 175 448 141T485 87T554 66Z" />
<glyph unicode="&#xe7;" horiz-adv-x="421" d="M376 385Q355 407 331 418T281 429Q242 429 213 411T165 362T137 293T128 216Q128 137 157 100T238 63Q264 63 295 71T361 95L387 36Q347 12 306 0T219 -13Q158 -13 116 14T51 91T29 205Q29 265 47 318T99 414T180
481T288 506Q324 506 361 495T435 457L376 385ZM267 -115Q267 -147 246 -169T191 -203T120 -219L108 -168Q122 -166 139 -161T170 -146T183 -119Q183 -102 168 -93T131 -76L186 10H246L213 -44Q222 -48 235 -56T257 -79T267 -115Z" />
<glyph unicode="&#xe8;" horiz-adv-x="460" d="M293 506Q332 506 365 494T418 457T439 391Q439 354 420 319T360 256T259 212T115 198V269Q162 266 202 275T273 301T320 341T337 389Q337 410 322 422T283 434Q245 434 216 415T168 365T138 295T128 217Q128 138
161 102T250 66Q280 66 316 76T390 106L421 48Q411 41 394 31T352 11T299 -6T236 -13Q162 -13 117 17T50 96T29 206Q29 260 46 313T97 410T180 480T293 506ZM265 734L344 576H254L132 734H265Z" />
<glyph unicode="&#xe9;" horiz-adv-x="460" d="M293 506Q332 506 365 494T418 457T439 391Q439 354 420 319T360 256T259 212T115 198V269Q162 266 202 275T273 301T320 341T337 389Q337 410 322 422T283 434Q245 434 216 415T168 365T138 295T128 217Q128 138
161 102T250 66Q280 66 316 76T390 106L421 48Q411 41 394 31T352 11T299 -6T236 -13Q162 -13 117 17T50 96T29 206Q29 260 46 313T97 410T180 480T293 506ZM378 734H510L342 576H253L378 734Z" />
<glyph unicode="&#xea;" horiz-adv-x="460" d="M293 506Q332 506 365 494T418 457T439 391Q439 354 420 319T360 256T259 212T115 198V269Q162 266 202 275T273 301T320 341T337 389Q337 410 322 422T283 434Q245 434 216 415T168 365T138 295T128 217Q128 138
161 102T250 66Q280 66 316 76T390 106L421 48Q411 41 394 31T352 11T299 -6T236 -13Q162 -13 117 17T50 96T29 206Q29 260 46 313T97 410T180 480T293 506ZM311 653L232 580H156L276 729H366L448 579H370L311 653Z" />
<glyph unicode="&#xeb;" horiz-adv-x="460" d="M293 506Q332 506 365 494T418 457T439 391Q439 354 420 319T360 256T259 212T115 198V269Q162 266 202 275T273 301T320 341T337 389Q337 410 322 422T283 434Q245 434 216 415T168 365T138 295T128 217Q128 138
161 102T250 66Q280 66 316 76T390 106L421 48Q411 41 394 31T352 11T299 -6T236 -13Q162 -13 117 17T50 96T29 206Q29 260 46 313T97 410T180 480T293 506ZM286 663Q286 636 266 616T217 595Q195 595 181 610T166 646Q166 674 187 694T234 714Q257 714 271 700T286
663ZM453 663Q453 636 432 616T384 595Q362 595 347 610T332 646Q332 674 353 694T400 714Q424 714 438 700T453 663Z" />
<glyph unicode="&#xec;" horiz-adv-x="227" d="M139 0H34L92 438L91 493H196L137 57L139 0ZM122 734L201 576H111L-11 734H122Z" />
<glyph unicode="&#xed;" horiz-adv-x="227" d="M139 0H34L92 438L91 493H196L137 57L139 0ZM235 734H367L199 576H110L235 734Z" />
<glyph unicode="&#xee;" horiz-adv-x="227" d="M139 0H34L92 438L91 493H196L137 57L139 0ZM423 653L344 580H268L388 729H478L560 579H482L423 653Z" />
<glyph unicode="&#xef;" horiz-adv-x="227" d="M139 0H34L92 438L91 493H196L137 57L139 0ZM399 663Q399 636 379 616T330 595Q308 595 294 610T279 646Q279 674 300 694T347 714Q370 714 384 700T399 663ZM566 663Q566 636 545 616T497 595Q475 595 460 610T445
646Q445 674 466 694T513 714Q537 714 551 700T566 663Z" />
<glyph unicode="&#xf0;" horiz-adv-x="521" d="M286 507Q299 507 311 505T334 500Q320 535 304 568T270 630L168 575L138 624L240 679Q228 695 217 709T195 735L268 777Q279 766 291 752T316 720L422 777L447 726L349 673Q381 624 410 565T458 440T477 304Q477
243 459 187T407 86T326 16T218 -10Q156 -10 113 18T49 94T27 202Q27 261 46 316T99 414T181 482T286 507ZM277 437Q241 437 216 419T174 370T148 308T135 246T131 199Q131 165 139 134T169 81T227 60Q259 60 283 76T324 118T352 176T367 240T372 299Q372 333 364
364T335 416T277 437Z" />
<glyph unicode="&#xf1;" d="M174 504Q177 493 179 475T182 437Q203 454 227 470T280 496T338 507Q365 507 387 500T425 479T451 440T460 380Q460 356 457 332L420 56L422 0H316L358 313Q360 324 361 335T362 358Q362 377 357 391T340 414T304 423Q287 423 268
416T231 398T200 377T179 360L130 0H34L82 353Q84 367 84 381T85 408Q85 429 83 446T77 475T70 491L174 504ZM481 703Q477 677 462 652T424 612T371 596Q343 596 321 606T280 625T237 635Q224 635 212 628T196 607H139Q145 635 160 659T200 699T254 715Q282 715
303 705T344 685T383 675Q396 675 409 682T426 703H481Z" />
<glyph unicode="&#xf2;" horiz-adv-x="498" d="M215 -13Q149 -13 108 17T48 97T29 203Q29 256 45 310T94 408T173 479T283 506Q349 506 389 476T449 397T469 291Q469 238 452 184T403 86T324 14T215 -13ZM223 58Q260 58 287 78T332 133T360 207T370 289Q370 328
361 361T330 415T274 435Q238 435 211 415T165 361T138 287T128 205Q128 166 137 133T168 79T223 58ZM260 734L339 576H249L127 734H260Z" />
<glyph unicode="&#xf3;" horiz-adv-x="498" d="M215 -13Q149 -13 108 17T48 97T29 203Q29 256 45 310T94 408T173 479T283 506Q349 506 389 476T449 397T469 291Q469 238 452 184T403 86T324 14T215 -13ZM223 58Q260 58 287 78T332 133T360 207T370 289Q370 328
361 361T330 415T274 435Q238 435 211 415T165 361T138 287T128 205Q128 166 137 133T168 79T223 58ZM373 734H505L337 576H248L373 734Z" />
<glyph unicode="&#xf4;" horiz-adv-x="498" d="M215 -13Q149 -13 108 17T48 97T29 203Q29 256 45 310T94 408T173 479T283 506Q349 506 389 476T449 397T469 291Q469 238 452 184T403 86T324 14T215 -13ZM223 58Q260 58 287 78T332 133T360 207T370 289Q370 328
361 361T330 415T274 435Q238 435 211 415T165 361T138 287T128 205Q128 166 137 133T168 79T223 58ZM306 653L227 580H151L271 729H361L443 579H365L306 653Z" />
<glyph unicode="&#xf5;" horiz-adv-x="498" d="M215 -13Q149 -13 108 17T48 97T29 203Q29 256 45 310T94 408T173 479T283 506Q349 506 389 476T449 397T469 291Q469 238 452 184T403 86T324 14T215 -13ZM223 58Q260 58 287 78T332 133T360 207T370 289Q370 328
361 361T330 415T274 435Q238 435 211 415T165 361T138 287T128 205Q128 166 137 133T168 79T223 58ZM474 703Q470 677 455 652T417 612T364 596Q336 596 314 606T273 625T230 635Q217 635 205 628T189 607H132Q138 635 153 659T193 699T247 715Q275 715 296 705T337
685T376 675Q389 675 402 682T419 703H474Z" />
<glyph unicode="&#xf6;" horiz-adv-x="498" d="M215 -13Q149 -13 108 17T48 97T29 203Q29 256 45 310T94 408T173 479T283 506Q349 506 389 476T449 397T469 291Q469 238 452 184T403 86T324 14T215 -13ZM223 58Q260 58 287 78T332 133T360 207T370 289Q370 328
361 361T330 415T274 435Q238 435 211 415T165 361T138 287T128 205Q128 166 137 133T168 79T223 58ZM281 663Q281 636 261 616T212 595Q190 595 176 610T161 646Q161 674 182 694T229 714Q252 714 266 700T281 663ZM448 663Q448 636 427 616T379 595Q357 595 342
610T327 646Q327 674 348 694T395 714Q419 714 433 700T448 663Z" />
<glyph unicode="&#xf7;" horiz-adv-x="630" d="M409 425Q409 393 385 370T329 347Q304 347 287 363T270 405Q270 437 294 460T349 484Q375 484 392 467T409 425ZM72 284H571L560 207H62L72 284ZM362 87Q362 66 351 48T322 20T283 9Q257 9 240 25T222 67Q222 99
246 122T302 145Q327 145 344 129T362 87Z" />
<glyph unicode="&#xf8;" horiz-adv-x="498" d="M215 -13Q149 -13 108 17T48 97T29 203Q29 256 45 310T94 408T173 479T283 506Q349 506 389 476T449 397T469 291Q469 238 452 184T403 86T324 14T215 -13ZM223 58Q260 58 287 78T332 133T360 207T370 289Q370 328
361 361T330 415T274 435Q238 435 211 415T165 361T138 287T128 205Q128 166 137 133T168 79T223 58ZM300 -71L251 -33L716 581L767 543L300 -71Z" />
<glyph unicode="&#xf9;" horiz-adv-x="505" d="M179 493L136 170Q135 161 135 153T134 136Q134 101 148 83T192 65Q213 65 232 76T268 107T298 155T322 217T338 292L359 442L356 493H463L410 125Q409 119 409 113T408 102Q408 83 414 73T435 62Q447 62 460 66T479
73L493 16Q486 12 471 6T437 -5T402 -11Q384 -11 366 -2T336 24T322 65H318Q309 53 295 40T261 15T216 -4T161 -12Q97 -12 66 21T34 115Q34 133 37 153L76 442L73 493H179ZM504 734L583 576H493L371 734H504Z" />
<glyph unicode="&#xfa;" horiz-adv-x="505" d="M179 493L136 170Q135 161 135 153T134 136Q134 101 148 83T192 65Q213 65 232 76T268 107T298 155T322 217T338 292L359 442L356 493H463L410 125Q409 119 409 113T408 102Q408 83 414 73T435 62Q447 62 460 66T479
73L493 16Q486 12 471 6T437 -5T402 -11Q384 -11 366 -2T336 24T322 65H318Q309 53 295 40T261 15T216 -4T161 -12Q97 -12 66 21T34 115Q34 133 37 153L76 442L73 493H179ZM361 734H493L325 576H236L361 734Z" />
<glyph unicode="&#xfb;" horiz-adv-x="505" d="M179 493L136 170Q135 161 135 153T134 136Q134 101 148 83T192 65Q213 65 232 76T268 107T298 155T322 217T338 292L359 442L356 493H463L410 125Q409 119 409 113T408 102Q408 83 414 73T435 62Q447 62 460 66T479
73L493 16Q486 12 471 6T437 -5T402 -11Q384 -11 366 -2T336 24T322 65H318Q309 53 295 40T261 15T216 -4T161 -12Q97 -12 66 21T34 115Q34 133 37 153L76 442L73 493H179ZM293 653L214 580H138L258 729H348L430 579H352L293 653Z" />
<glyph unicode="&#xfc;" horiz-adv-x="505" d="M179 493L136 170Q135 161 135 153T134 136Q134 101 148 83T192 65Q213 65 232 76T268 107T298 155T322 217T338 292L359 442L356 493H463L410 125Q409 119 409 113T408 102Q408 83 414 73T435 62Q447 62 460 66T479
73L493 16Q486 12 471 6T437 -5T402 -11Q384 -11 366 -2T336 24T322 65H318Q309 53 295 40T261 15T216 -4T161 -12Q97 -12 66 21T34 115Q34 133 37 153L76 442L73 493H179ZM269 663Q269 636 249 616T200 595Q178 595 164 610T149 646Q149 674 170 694T217 714Q240
714 254 700T269 663ZM436 663Q436 636 415 616T367 595Q345 595 330 610T315 646Q315 674 336 694T383 714Q407 714 421 700T436 663Z" />
<glyph unicode="&#xfd;" horiz-adv-x="414" d="M-39 -157Q-7 -156 19 -144T65 -109T103 -59T135 2L31 493H133Q144 443 153 398T170 309T186 220T199 126Q216 174 235 218T274 306T316 396T362 493H455L214 -28Q187 -87 152 -132T69 -203T-48 -230L-39 -157ZM331
734H463L295 576H206L331 734Z" />
<glyph unicode="&#xfe;" horiz-adv-x="520" d="M325 506Q383 506 419 479T473 407T490 310Q490 248 473 191T423 88T342 15T234 -12Q206 -12 179 -3T134 19L110 -169L112 -224H6L130 711L129 766H236L193 446Q218 474 252 490T325 506ZM305 434Q274 434 251 417T211
371T183 308T165 236T153 167Q151 148 149 130T145 96Q163 77 186 68T234 59Q275 59 303 82T350 143T377 225T386 310Q386 343 379 371T355 416T305 434Z" />
<glyph unicode="&#xff;" horiz-adv-x="414" d="M-39 -157Q-7 -156 19 -144T65 -109T103 -59T135 2L31 493H133Q144 443 153 398T170 309T186 220T199 126Q216 174 235 218T274 306T316 396T362 493H455L214 -28Q187 -87 152 -132T69 -203T-48 -230L-39 -157ZM240
663Q240 636 220 616T171 595Q149 595 135 610T120 646Q120 674 141 694T188 714Q211 714 225 700T240 663ZM407 663Q407 636 386 616T338 595Q316 595 301 610T286 646Q286 674 307 694T354 714Q378 714 392 700T407 663Z" />
<glyph unicode="&#x2013;" horiz-adv-x="482" d="M-3 220L8 294H489L478 220H-3Z" />
<glyph unicode="&#x2014;" horiz-adv-x="832" d="M-3 220L8 294H839L828 220H-3Z" />
<glyph unicode="&#x2018;" horiz-adv-x="215" d="M171 732L203 695Q187 682 174 669T154 644T146 620Q146 611 155 602T174 580T184 547Q184 514 162 494T111 474Q78 474 59 496T39 548Q39 586 59 620T110 683T171 732Z" />
<glyph unicode="&#x2019;" horiz-adv-x="252" d="M213 657Q213 619 193 585T142 522T81 473L49 509Q58 518 71 530T95 557T106 585Q106 595 97 604T78 626T68 658Q68 691 90 711T142 731Q175 731 194 710T213 657Z" />
<glyph unicode="&#x201a;" horiz-adv-x="252" d="M176 56Q176 18 156 -17T105 -80T43 -129L12 -92Q21 -84 34 -72T58 -45T68 -17Q68 -7 59 1T40 23T30 56Q30 90 52 109T105 129Q137 129 156 108T176 56Z" />
<glyph unicode="&#x201c;" horiz-adv-x="404" d="M169 732L202 695Q186 682 173 669T153 644T145 620Q145 611 154 602T173 580T183 547Q183 514 161 494T109 474Q76 474 57 496T38 548Q38 586 58 620T108 683T169 732ZM359 732L392 695Q376 682 363 669T343 644T335
620Q335 611 344 602T363 580T373 547Q373 514 351 494T299 474Q266 474 247 496T228 548Q228 586 248 620T298 683T359 732Z" />
<glyph unicode="&#x201d;" horiz-adv-x="442" d="M213 657Q213 619 193 585T142 522T81 473L49 509Q58 518 71 530T95 557T106 585Q106 595 97 604T78 626T68 658Q68 691 90 711T142 731Q175 731 194 710T213 657ZM403 657Q403 619 383 585T332 522T271 473L239
509Q248 518 261 530T285 557T295 585Q295 595 286 604T267 626T257 658Q257 691 279 711T332 731Q365 731 384 710T403 657Z" />
<glyph unicode="&#x201e;" horiz-adv-x="440" d="M175 56Q175 18 155 -16T105 -79T44 -128L11 -92Q27 -80 40 -67T60 -40T68 -17Q68 -7 59 1T40 23T30 57Q30 90 52 109T104 129Q137 129 156 108T175 56ZM365 56Q365 18 345 -16T295 -79T234 -128L201 -92Q217 -80
230 -67T250 -40T258 -17Q258 -7 249 1T230 23T220 57Q220 90 242 109T294 129Q327 129 346 108T365 56Z" />
<glyph unicode="&#x2022;" horiz-adv-x="422" d="M370 378Q370 334 348 297T288 237T207 215Q151 215 117 250T82 337Q82 380 104 417T165 476T245 499Q300 499 335 464T370 378Z" />
<glyph unicode="&#x2039;" horiz-adv-x="304" d="M45 330L205 497L272 484L145 330L254 176L186 166L45 330Z" />
<glyph unicode="&#x203a;" horiz-adv-x="310" d="M41 175L172 329L64 483L133 496L270 329L107 165L41 175Z" />
</font>
</defs>
</svg>
