<?xml version="1.0" standalone="no"?>
<!DOCTYPE svg PUBLIC "-//W3C//DTD SVG 1.1//EN" "http://www.w3.org/Graphics/SVG/1.1/DTD/svg11.dtd">
<svg xmlns="http://www.w3.org/2000/svg">
<defs >
<font id="Rosario" horiz-adv-x="493" ><font-face
    font-family="Rosario"
    units-per-em="1000"
    panose-1="0 0 0 0 0 0 0 0 0 0"
    ascent="977"
    descent="-235"
    alphabetic="0" />
<glyph unicode=" " horiz-adv-x="234" />
<glyph unicode="!" horiz-adv-x="246" d="M120 732H268L167 219H77L120 732ZM176 73Q176 39 150 14T90 -12Q62 -12 44 6T25 52Q25 74 37 93T70 124T111 136Q139 136 157 118T176 73Z" />
<glyph unicode="&quot;" horiz-adv-x="300" d="M94 449H73L52 559L76 732H170L146 559L94 449ZM241 449H219L199 559L223 732H317L293 559L241 449Z" />
<glyph unicode="#" horiz-adv-x="640" d="M450 297H556V208H438L410 0H321L349 208H255L227 0H138L166 208H60V297H178L196 425H86V514H208L237 732H326L297 514H391L420 732H509L480 514H582V425H468L450 297ZM267 297H361L379 425H285L267 297Z" />
<glyph unicode="$" horiz-adv-x="536" d="M367 706Q393 706 426 699T492 678T543 646L484 554Q469 571 444 583T391 603T341 610Q313 610 288 599T248 565T232 512Q232 485 251 467T300 433T363 401T426 364T475 314T494 240Q494 163 456 106T355 19T217 -12Q161
-12 103 2T-2 49L61 157Q81 135 106 119T159 93T218 84Q253 84 283 99T332 141T351 204Q351 232 332 251T283 287T220 319T156 355T107 405T88 476Q88 557 127 608T229 682T367 706ZM261 43L221 -128H129L197 43H261ZM307 674L343 834H437L375 674H307Z" />
<glyph unicode="%" horiz-adv-x="988" d="M697 732H791L316 0H223L697 732ZM303 732Q354 732 387 712T435 656T451 572Q451 501 425 441T351 344T236 308Q186 308 153 330T103 390T87 476Q87 547 113 605T188 697T303 732ZM289 658Q253 658 229 630T193 560T181
472Q181 437 195 410T250 382Q288 382 311 408T345 478T356 568Q356 603 343 630T289 658ZM786 414Q837 414 870 394T919 337T935 252Q935 183 909 123T834 27T719 -10Q669 -10 636 11T587 70T571 156Q571 228 597 286T671 379T786 414ZM772 340Q735 340 712 312T677
241T665 152Q665 117 679 91T733 64Q771 64 794 90T828 159T839 248Q839 283 826 311T772 340ZM303 732H703L693 658H289L303 732Z" />
<glyph unicode="&amp;" horiz-adv-x="659" d="M231 424L242 350Q208 338 182 316T141 264T126 201Q126 161 142 132T188 86T255 69Q312 69 354 91T420 150T444 228Q444 257 431 287T390 343L472 389Q509 359 525 323T542 247Q542 200 519 155T455 72T356 13T229
-9Q160 -9 109 13T29 76T1 172Q1 225 30 274T111 362T231 424ZM392 746Q433 746 475 731T560 684L490 603Q436 665 388 665Q361 665 342 644T311 586T300 496Q300 416 313 346T354 222T422 134Q458 103 489 89T555 75Q572 75 589 78T626 86L640 4Q611 -2 584 -5T531
-9Q496 -9 464 -2T400 20T335 61Q285 100 250 162T196 302T177 469Q177 549 204 611T280 710T392 746ZM401 431H636L622 343H390L401 431Z" />
<glyph unicode="&apos;" horiz-adv-x="157" d="M146 559L94 449H73L52 559L76 732H170L146 559Z" />
<glyph unicode="(" horiz-adv-x="323" d="M379 727Q272 612 215 486T157 199Q157 105 185 26T265 -130L172 -146Q114 -65 80 28T45 222Q45 323 77 415T165 590T290 743L379 727Z" />
<glyph unicode=")" horiz-adv-x="328" d="M313 375Q313 274 281 181T193 6T68 -146L-21 -130Q86 -15 143 111T201 397Q201 491 173 570T94 727L186 743Q245 662 279 569T313 375Z" />
<glyph unicode="*" horiz-adv-x="490" d="M246 741H357L311 585H253L246 741ZM311 585L456 664L481 556L321 528L311 585ZM124 659L253 585L228 531L79 552L124 659ZM228 531L270 495L180 356L101 419L228 531ZM270 495L321 528L420 423L321 352L270 495Z" />
<glyph unicode="+" horiz-adv-x="642" d="M325 0H237L266 204H61L73 292H278L307 497H395L366 293H571L559 205H354L325 0Z" />
<glyph unicode="," horiz-adv-x="235" d="M181 62Q181 22 159 -15T103 -83T38 -134L5 -93Q14 -85 27 -72T51 -43T61 -16Q61 -6 52 2T34 24T25 59Q25 94 49 116T104 139Q139 139 160 117T181 62Z" />
<glyph unicode="-" horiz-adv-x="313" d="M43 210L56 305H277L264 210H43Z" />
<glyph unicode="." horiz-adv-x="215" d="M158 76Q158 41 131 15T68 -12Q40 -12 21 7T1 54Q1 78 14 98T47 131T90 143Q119 143 138 124T158 76Z" />
<glyph unicode="/" horiz-adv-x="293" d="M-18 0L251 732H345L75 0H-18Z" />
<glyph unicode="0" horiz-adv-x="579" d="M324 510Q390 510 437 484T511 410T537 301Q537 244 521 189T470 88T382 15T255 -12Q191 -12 143 15T69 89T42 197Q42 268 63 325T122 424T212 488T324 510ZM313 429Q267 429 237 406T190 345T166 267T159 189Q159 140
182 105T266 69Q311 69 340 91T387 148T412 224T420 303Q420 337 410 365T377 411T313 429Z" />
<glyph unicode="1" horiz-adv-x="391" d="M303 498L251 99H350L337 0H20L33 99H136L172 378L66 349L54 413L229 498H303Z" />
<glyph unicode="2" horiz-adv-x="467" d="M285 512Q349 512 393 485T437 397Q437 351 416 308T358 227T280 157T195 99H423L388 0H-12L-1 77Q53 106 106 142T204 218T274 297T301 373Q301 397 287 407T250 418Q216 418 174 400T102 355L53 437Q105 473 167 492T285 512Z" />
<glyph unicode="3" horiz-adv-x="410" d="M267 512Q326 512 361 486T396 410Q396 366 370 325T303 251T217 195Q251 195 284 183T340 146T362 78Q362 24 336 -20T265 -97T160 -153T33 -186T-104 -198L-101 -139Q-38 -135 21 -124T127 -89T202 -28T230 67Q230 103
206 120T146 138Q132 138 116 135T84 126L62 184Q91 196 126 216T193 263T245 318T266 376Q266 396 257 407T227 419Q198 419 158 401T89 355L40 437Q94 475 154 493T267 512Z" />
<glyph unicode="4" horiz-adv-x="497" d="M302 498H433L377 99H484L442 -1H363L337 -184H212L238 -1H-34L-26 57L302 498ZM287 349L103 99H252L287 349Z" />
<glyph unicode="5" horiz-adv-x="409" d="M165 498H452L400 377H196L151 300Q229 272 278 227T327 114Q327 48 294 -7T204 -104T79 -172T-61 -207L-69 -150Q1 -133 60 -99T156 -16T192 97Q192 156 146 195T32 255L165 498Z" />
<glyph unicode="6" horiz-adv-x="553" d="M535 730L554 665Q471 629 400 578T274 466T190 335T159 190Q159 150 170 124T202 84T249 71Q291 71 321 96T368 160T385 236Q385 276 363 306T291 336Q265 336 234 326T170 296L197 380Q236 401 274 411T346 421Q400
421 439 401T499 346T521 265Q521 208 499 158T436 70T344 10T233 -12Q177 -12 130 10T56 77T28 192Q28 265 56 335T133 467T247 582T385 672T535 730Z" />
<glyph unicode="7" horiz-adv-x="451" d="M72 497H474L465 434L93 -189H-48L339 386H25L72 497Z" />
<glyph unicode="8" horiz-adv-x="490" d="M320 732Q363 732 400 718T460 674T483 601Q483 547 446 492T334 390L282 446Q323 468 347 507T372 588Q372 621 356 637T313 653Q287 653 267 638T235 599T223 547Q223 507 250 482T313 428Q346 402 378 374T433 308T455
218Q455 147 421 96T330 16T204 -12Q154 -12 111 6T42 59T15 146Q15 186 33 226T89 305T187 373L239 314Q181 285 154 241T126 153Q126 110 149 89T206 68Q240 68 265 86T306 132T321 191Q321 223 303 247T255 294T196 340Q169 363 146 389T107 447T92 520Q92 574
112 614T165 680T239 719T320 732Z" />
<glyph unicode="9" horiz-adv-x="552" d="M320 511Q377 511 423 489T497 422T525 307Q525 234 497 164T420 32T306 -80T168 -164T20 -211L1 -146Q84 -116 155 -69T280 38T364 167T394 311Q394 351 383 376T351 415T304 428Q262 428 231 403T184 339T167 262Q167
222 190 193T262 163Q288 163 319 173T382 203L356 119Q317 98 280 88T207 78Q147 78 109 100T52 159T33 239Q33 295 55 344T118 430T210 489T320 511Z" />
<glyph unicode=":" horiz-adv-x="247" d="M217 354Q213 322 187 299T129 276Q97 276 78 299T62 354Q67 386 93 408T150 431Q182 431 202 409T217 354ZM177 65Q173 34 147 11T89 -12Q57 -12 38 11T22 65Q27 97 53 120T110 143Q142 143 162 120T177 65Z" />
<glyph unicode=";" horiz-adv-x="253" d="M224 365Q224 341 211 321T178 289T135 276Q106 276 87 295T67 343Q67 378 94 404T157 431Q186 431 205 412T224 365ZM104 139Q139 139 160 117T181 62Q181 22 159 -15T103 -83T38 -134L5 -93Q14 -85 27 -72T51 -43T61
-16Q61 -6 52 2T34 24T25 59Q25 94 49 116T104 139Z" />
<glyph unicode="&lt;" horiz-adv-x="630" d="M70 275L601 509L588 419L196 249L540 76L527 -12L62 223L70 275Z" />
<glyph unicode="=" horiz-adv-x="630" d="M86 390H584L571 302H73L86 390ZM59 197H557L544 109H46L59 197Z" />
<glyph unicode="&gt;" horiz-adv-x="630" d="M42 76L434 249L90 419L103 509L568 275L560 223L29 -12L42 76Z" />
<glyph unicode="?" horiz-adv-x="439" d="M288 732Q335 732 371 717T428 670T449 593Q449 539 425 503T364 441T295 395Q265 377 245 359T224 318Q224 313 227 303T242 286T277 278L243 200Q188 206 159 224T120 267T110 310Q110 348 128 375T175 424T233 465Q267
488 292 512T318 568Q318 597 300 610T253 624Q213 624 166 600L130 694Q171 713 211 722T288 732ZM171 143Q200 143 219 124T238 76Q238 41 211 15T149 -12Q120 -12 101 7T82 54Q82 90 109 116T171 143Z" />
<glyph unicode="@" horiz-adv-x="1027" d="M556 736Q645 736 723 709T861 630T955 502T989 331Q989 270 972 210T921 101T841 23T734 -7Q705 -7 678 -3T629 15T588 59H584Q555 20 516 4T444 -12Q386 -12 350 17T296 95T279 201Q279 256 294 310T341 410T420 482T532
509Q556 509 591 499T653 462L679 500H742Q727 398 717 331T700 224T691 161T687 128T686 109Q686 90 697 78T740 66Q778 66 808 89T861 150T894 235T906 331Q906 411 879 473T803 577T691 642T556 665Q450 665 370 625T236 517T155 367T128 200Q128 127 148 59T211
-62T316 -147T463 -178Q518 -178 572 -163L592 -232Q561 -240 529 -244T463 -249Q358 -249 280 -212T150 -110T71 36T45 204Q45 282 65 358T127 503T229 623T372 706T556 736ZM538 427Q506 427 480 412T435 367T406 296T396 204Q396 150 412 110T467 70Q499 70
522 92T561 153T588 238T606 334L616 402Q576 427 538 427Z" />
<glyph unicode="A" horiz-adv-x="585" d="M397 732L545 0H405L366 210H166L69 0H-55L289 732H397ZM309 558L206 308H349L309 558Z" />
<glyph unicode="B" horiz-adv-x="566" d="M549 589Q549 541 528 501T469 433T383 399Q448 388 490 342T533 229Q533 171 510 128T446 56T357 14T254 0H11L101 671L95 732H343Q379 732 415 726T481 705T530 661T549 589ZM408 559Q408 586 397 602T366 626T321 633H227L202
446H299Q331 446 355 461T394 502T408 559ZM397 239Q397 277 378 301T328 336T263 347H189L156 99H258Q299 99 330 117T379 167T397 239Z" />
<glyph unicode="C" horiz-adv-x="587" d="M304 -12Q229 -12 175 13T86 81T34 181T17 298Q17 377 43 456T119 600T242 706T406 746Q440 746 481 739T560 717T622 675L541 583Q518 615 477 632T398 649Q341 649 297 620T222 542T176 435T160 317Q160 255 178 202T233
115T329 82Q367 82 411 95T507 134L543 62Q504 38 467 22T391 -3T304 -12Z" />
<glyph unicode="D" horiz-adv-x="664" d="M647 435Q647 350 621 272T544 132T422 36T258 0H11L101 671L94 732H357Q426 732 480 712T571 652T628 559T647 435ZM505 423Q505 465 496 502T467 569T415 616T335 633H227L156 99H266Q317 99 356 118T423 171T470 246T496
333T505 423Z" />
<glyph unicode="E" horiz-adv-x="507" d="M94 732H532L519 633H226L198 426H422L409 327H185L155 99H447L434 0H11L101 671L94 732Z" />
<glyph unicode="F" horiz-adv-x="467" d="M95 732H502L489 633H227L199 426H402L389 327H186L142 0H11L101 671L95 732Z" />
<glyph unicode="G" horiz-adv-x="668" d="M422 744Q459 744 503 737T589 712T655 665L575 583Q547 608 524 622T474 643T409 650Q341 650 294 619T216 537T172 426T158 308Q158 270 165 231T191 159T239 106T316 85Q363 85 399 107T458 164T486 240L494 302H350L361
390H638Q624 293 611 195T589 -1H521L500 75Q449 32 399 11T281 -11Q191 -11 133 27T46 133T17 284Q17 375 43 458T121 605T248 707T422 744Z" />
<glyph unicode="H" horiz-adv-x="674" d="M433 0L477 327H185L142 0H11L101 671L95 732H239L198 426H490L531 732H663L565 0H433Z" />
<glyph unicode="I" horiz-adv-x="250" d="M95 732H239L142 0H11L101 671L95 732Z" />
<glyph unicode="J" horiz-adv-x="254" d="M99 732H243L159 98Q151 35 136 -19T92 -115T15 -181T-108 -209L-109 -131Q-72 -126 -49 -110T-11 -68T10 -13T21 47L105 671L99 732Z" />
<glyph unicode="K" horiz-adv-x="558" d="M239 732L142 0H11L101 671L95 732H239ZM452 732H585L363 391L507 0H366L228 380L452 732Z" />
<glyph unicode="L" horiz-adv-x="458" d="M240 732L156 99H428L415 0H11L101 671L96 732H240Z" />
<glyph unicode="M" horiz-adv-x="830" d="M287 732L379 311Q386 281 387 251T390 190Q400 223 409 251T432 307L632 732H819L721 0H590L656 496Q658 514 662 532T670 568Q663 550 655 532T638 496L402 -1H314L205 496Q204 503 199 524T191 568Q190 551 190 533T187
496L120 0H11L100 671L95 732H287Z" />
<glyph unicode="N" horiz-adv-x="682" d="M254 732L470 293Q475 283 482 265T499 227Q501 246 501 265T503 304L560 732H671L572 -5H465L220 497Q212 514 205 531T189 564Q188 548 188 531T186 497L119 0H11L100 671L95 732H254Z" />
<glyph unicode="O" horiz-adv-x="707" d="M300 -11Q230 -11 177 11T89 75T35 172T17 295Q17 381 42 461T116 604T236 705T401 743Q496 743 560 705T657 599T690 439Q690 353 664 273T588 128T466 27T300 -11ZM316 84Q368 84 407 106T474 166T517 250T541 344T549
434Q549 487 535 536T487 616T390 648Q338 648 299 626T233 566T189 482T165 388T157 298Q157 246 171 197T219 116T316 84Z" />
<glyph unicode="P" horiz-adv-x="539" d="M95 732H316Q376 732 427 713T509 652T541 541Q541 458 504 403T402 321T258 294H181L142 0H11L101 671L95 732ZM227 633L195 391H275Q316 391 344 412T387 466T402 538Q402 584 378 608T308 633H227Z" />
<glyph unicode="Q" horiz-adv-x="707" d="M1070 -160Q1005 -183 946 -199T814 -216Q757 -216 698 -198T579 -153T464 -96T357 -42Q329 -28 300 -22T240 -8Q163 11 114 51T41 152T17 290Q17 376 42 457T117 602T239 705T405 744Q500 744 563 704T658 593T690 433Q690
352 666 274T590 131T459 27Q470 23 480 19T500 9Q541 -12 587 -35T681 -77T776 -109T866 -122Q891 -122 923 -116T989 -102T1046 -87L1070 -160ZM317 85Q368 85 407 107T473 166T518 249T543 342T551 432Q551 471 544 509T518 579T469 629T392 648Q341 648 303
625T237 564T192 480T166 386T158 297Q158 245 172 197T221 117T317 85Z" />
<glyph unicode="R" horiz-adv-x="565" d="M142 0H11L101 671L95 732H335Q395 732 443 713T520 652T549 543Q549 480 526 434T466 357T394 308L535 0H396L221 383H254Q319 383 364 422T410 541Q410 587 383 609T309 632H226L142 0Z" />
<glyph unicode="S" horiz-adv-x="495" d="M333 744Q359 744 392 737T458 716T509 684L450 592Q435 609 410 621T357 641T307 648Q279 648 254 637T214 603T198 550Q198 518 217 496T266 456T329 420T392 379T441 322T460 240Q460 163 422 106T321 19T183 -12Q127
-12 69 2T-36 49L27 157Q47 135 72 119T125 93T184 84Q219 84 249 99T298 141T317 204Q317 237 298 260T249 301T186 338T122 379T73 434T54 514Q54 595 93 646T195 720T333 744Z" />
<glyph unicode="T" horiz-adv-x="523" d="M43 732H568L554 633H359L274 0H138L222 633H30L43 732Z" />
<glyph unicode="U" horiz-adv-x="659" d="M234 732L169 243Q168 236 168 230T167 216Q167 175 183 146T230 100T301 84Q350 84 387 106T447 166T475 245L541 732H648L587 278Q575 190 541 125T442 25T274 -11Q218 -11 174 3T99 45T52 116T35 216Q35 232 36 247T39
278L92 672L85 732H234Z" />
<glyph unicode="V" horiz-adv-x="561" d="M174 732Q197 599 224 466T264 200Q292 289 330 377T411 555T492 732H616L278 -1H176L35 732H174Z" />
<glyph unicode="W" horiz-adv-x="875" d="M172 732Q184 639 192 571T208 451T219 356T227 272T234 182Q246 235 259 279T288 366T324 460T372 577T435 732H554Q566 640 575 572T591 451T603 355T610 270T614 182Q630 238 644 282T675 368T710 460T756 575T818
732H930L646 -2H512Q501 90 492 153T477 263T467 349T461 430T456 526Q440 471 426 428T397 344T364 257T320 148T260 -2H128L35 732H172Z" />
<glyph unicode="X" horiz-adv-x="566" d="M471 732H616L96 0H-50L471 732ZM221 732L537 0H386L70 732H221Z" />
<glyph unicode="Y" horiz-adv-x="523" d="M181 732L277 472L448 732H578L315 327L271 0H141L184 330L35 732H181Z" />
<glyph unicode="Z" horiz-adv-x="546" d="M94 732H561V659L164 99H494L480 0H-17V82L377 633H81L94 732Z" />
<glyph unicode="[" horiz-adv-x="315" d="M241 673L141 -73H235L227 -132H20L136 732H343L335 673H241Z" />
<glyph unicode="\" horiz-adv-x="359" d="M-18 732H75L345 0H251L-18 732Z" />
<glyph unicode="]" horiz-adv-x="311" d="M-12 -132L-4 -73H90L189 673H96L103 732H310L195 -132H-12Z" />
<glyph unicode="^" horiz-adv-x="618" d="M326 368L101 0H13L318 498H370L535 0H444L326 368Z" />
<glyph unicode="_" horiz-adv-x="495" d="M-12 -143L1 -47H509L496 -143H-12Z" />
<glyph unicode="`" horiz-adv-x="284" d="M229 735L314 570H211L84 735H229Z" />
<glyph unicode="a" horiz-adv-x="513" d="M421 500H484Q469 398 459 331T442 224T433 161T429 128T428 109Q428 96 433 85T453 73Q463 73 477 77T501 85L518 22Q496 8 467 0T412 -9Q382 -9 359 10T330 59H326Q297 20 258 4T186 -12Q128 -12 92 17T38 95T21 201Q21
256 36 310T83 410T162 482T274 509Q300 509 339 496T406 450V365Q372 397 341 412T280 427Q248 427 222 412T177 367T148 296T138 204Q138 150 154 110T209 70Q241 70 264 92T303 153T330 238T348 334L359 407L421 500Z" />
<glyph unicode="b" horiz-adv-x="506" d="M28 41L117 713L112 768H239L198 459Q214 475 235 486T280 504T325 511Q382 511 417 483T469 407T485 299Q485 242 470 187T422 87T340 15T222 -12Q179 -12 127 1T28 41L100 122Q123 94 159 82T226 70Q263 70 289 89T333
142T359 214T368 293Q368 349 352 385T295 422Q273 422 251 410T211 382T184 353L145 75L28 41Z" />
<glyph unicode="c" horiz-adv-x="422" d="M373 378Q355 397 331 409T278 422Q243 422 217 405T173 359T148 293T139 219Q139 143 166 109T244 74Q270 74 300 82T365 105L392 35Q352 13 312 1T222 -12Q151 -12 107 18T43 97T22 207Q22 273 42 328T99 424T184 487T287
510Q324 510 363 499T442 462L373 378Z" />
<glyph unicode="d" horiz-adv-x="517" d="M400 714L395 769H522Q503 639 486 524T456 318T436 172T428 104Q428 95 433 84T453 73Q463 73 477 77T501 85L518 22Q496 8 467 0T412 -9Q382 -9 359 10T330 59H326Q297 20 258 4T186 -12Q128 -12 92 17T38 95T21 201Q21
256 36 310T83 410T162 482T274 509Q300 509 339 496T406 450V365Q372 397 341 412T280 427Q248 427 222 412T177 367T148 296T138 204Q138 150 154 110T209 70Q241 70 264 92T303 153T330 238T348 334L400 714Z" />
<glyph unicode="e" horiz-adv-x="466" d="M294 510Q337 510 373 497T430 456T452 384Q452 359 438 326T388 262T288 212T125 194V277Q179 277 218 287T281 313T317 349T329 387Q329 404 318 415T285 426Q249 426 222 409T176 361T148 295T138 221Q138 145 169
111T253 76Q285 76 323 88T401 122L436 54Q436 54 423 44T383 21T321 -2T238 -12Q160 -12 113 17T43 95T21 204Q21 261 39 315T93 414T179 484T294 510Z" />
<glyph unicode="f" horiz-adv-x="299" d="M-104 -149Q-57 -161 -29 -150T15 -108T36 -35L97 414H18L28 497Q45 497 62 499T95 511T117 545Q130 588 145 629T184 703T247 756T347 776Q382 776 422 765T491 733L442 654Q419 675 398 684T344 694Q311 694 290 674T255
622T234 557T222 497H340L329 414H211L149 -47Q133 -165 60 -207T-120 -216L-104 -149Z" />
<glyph unicode="g" horiz-adv-x="491" d="M421 500H484L418 40Q411 -7 397 -54T355 -142T281 -206T163 -230Q120 -230 86 -222T27 -200T-12 -174L49 -83Q65 -102 92 -121T163 -140Q211 -140 238 -124T278 -77T298 -8L305 33H301Q279 11 249 0T186 -12Q128 -12
92 17T38 95T21 201Q21 256 36 310T83 410T162 482T274 509Q300 509 339 496T406 450V365Q372 397 341 412T280 427Q248 427 222 412T177 367T148 296T138 204Q138 150 154 110T209 70Q241 70 264 92T303 153T330 238T348 334L359 407L421 500Z" />
<glyph unicode="h" horiz-adv-x="491" d="M244 769L200 451Q231 475 269 493T345 511Q387 511 414 497T453 456T466 387Q466 360 463 336L425 54L428 0H302L346 324Q348 333 348 342T349 360Q349 378 344 390T329 408T299 414Q287 414 272 408T240 393T211 375T189
357L141 0H27L122 715L118 769H244Z" />
<glyph unicode="i" horiz-adv-x="228" d="M248 689Q248 656 224 629T165 601Q137 601 120 620T102 667Q102 701 127 727T186 754Q214 754 231 735T248 689ZM207 497L148 55L151 0H27L86 443L83 497H207Z" />
<glyph unicode="j" horiz-adv-x="228" d="M248 689Q248 655 224 628T165 601Q137 601 119 621T101 667Q101 701 126 727T185 754Q213 754 230 735T248 689ZM209 497L150 65Q143 17 131 -31T94 -121T31 -189T-67 -224L-81 -169Q-40 -148 -18 -114T16 -40T32 39L87
444L83 497H209Z" />
<glyph unicode="k" horiz-adv-x="491" d="M352 511Q385 511 411 500T452 464T467 404Q467 354 434 301T324 208Q342 157 371 106T436 0H304Q273 55 246 116T198 235Q257 248 290 270T336 318T350 366Q350 392 338 403T303 414Q286 414 263 404T216 378T176 343V428Q202
455 232 473T293 501T352 511ZM246 769L143 0H27L122 715L117 769H246Z" />
<glyph unicode="l" horiz-adv-x="236" d="M247 769L151 54L154 0H27L122 715L119 769H247Z" />
<glyph unicode="m" horiz-adv-x="758" d="M185 508Q188 498 190 487T192 466T193 444Q216 463 239 478T289 501T347 510Q385 510 415 493T455 437Q478 458 504 474T559 500T619 510Q649 510 671 502T706 479T726 441T733 389Q733 376 732 364T729 339L691 53L694
0H570L614 332Q615 339 615 346T616 360Q616 379 611 390T594 408T563 414Q538 414 508 397T460 362L412 0H297L342 335Q343 341 343 347T344 359Q344 376 339 388T323 407T293 414Q280 414 266 409T237 397T211 380T190 361L141 0H27L75 356Q78 385 78 414Q78
431 76 454T64 493L185 508Z" />
<glyph unicode="n" horiz-adv-x="492" d="M185 508Q190 492 191 477T193 445Q214 462 239 477T291 501T346 511Q378 511 400 503T438 480T460 441T467 387Q467 360 464 336L426 54L429 0H304L347 324Q349 333 349 342T350 360Q350 378 345 390T330 408T300 414Q288
414 273 408T241 393T212 375T190 357L141 0H27L75 356Q77 370 77 384T78 414Q78 426 77 440T74 469T64 493L185 508Z" />
<glyph unicode="o" horiz-adv-x="496" d="M213 -12Q145 -12 103 18T41 96T21 201Q21 255 38 310T89 410T171 482T283 510Q352 510 394 480T455 402T475 297Q475 243 458 188T407 88T325 16T213 -12ZM224 69Q257 69 282 89T324 143T349 217T358 298Q358 334 350
363T324 411T272 429Q239 429 214 409T172 355T147 281T138 200Q138 165 146 135T173 87T224 69Z" />
<glyph unicode="p" horiz-adv-x="512" d="M331 511Q388 511 423 483T475 407T491 299Q491 242 476 187T428 87T346 15T228 -12Q204 -12 182 -9T142 -1L120 -170L125 -225H-2L76 356Q78 370 79 384T80 413Q80 432 78 454T67 492L184 507Q189 492 191 479T194 450Q212
468 233 482T280 503T331 511ZM301 422Q279 422 257 410T217 382T190 353L154 91Q172 81 190 76T232 70Q269 70 295 89T339 142T365 214T374 293Q374 349 358 385T301 422Z" />
<glyph unicode="q" horiz-adv-x="497" d="M421 500H484L392 -169L397 -224H270L305 33H301Q279 11 249 0T186 -12Q128 -12 92 17T38 95T21 201Q21 256 36 310T83 410T162 482T274 509Q300 509 339 496T406 450V365Q372 397 341 412T280 427Q248 427 222 412T177
367T148 296T138 204Q138 150 154 110T209 70Q241 70 264 92T303 153T330 238T348 334L359 407L421 500Z" />
<glyph unicode="r" horiz-adv-x="335" d="M186 507Q192 486 194 455T195 402Q214 428 241 452T300 491T366 507L331 381Q289 381 253 358T182 289L142 0H28L76 363Q78 373 79 386T80 413Q80 433 78 456T64 497L186 507Z" />
<glyph unicode="s" horiz-adv-x="371" d="M327 395Q310 412 286 419T238 426Q220 426 204 420T177 402T166 369Q166 346 184 332T229 306T283 279T328 239T346 172Q346 111 317 70T240 9T137 -12Q100 -12 59 0T-15 32L37 114Q60 99 85 85T139 71Q161 71 179 80T208
107T219 147Q219 172 201 187T156 213T102 240T57 278T38 342Q38 401 67 438T144 492T243 510Q276 510 313 503T379 479L327 395Z" />
<glyph unicode="t" horiz-adv-x="315" d="M251 633Q242 599 234 565T220 497H335L308 414H208L172 139Q171 132 171 125T170 111Q170 95 176 84T203 72Q222 72 241 75T278 82L289 13Q271 7 247 2T199 -6T155 -10Q117 -10 94 0T61 32T51 82Q51 87 51 92T52 104T54
116L94 414H25L36 497Q74 497 96 509T133 551T163 633H251Z" />
<glyph unicode="u" horiz-adv-x="499" d="M192 497L149 169Q148 162 148 156T147 142Q147 117 157 101T196 84Q222 84 242 99T278 140T303 196T319 255T329 307L348 453L342 497H470L416 130Q415 125 415 120T414 109Q414 96 418 85T439 73Q449 73 463 77T487
85L504 22Q490 13 471 6T433 -5T396 -9Q376 -9 359 0T330 24T314 59H310Q297 42 279 29T239 7T196 -6T153 -11Q92 -11 60 19T27 111Q27 128 30 146L70 453L65 497H192Z" />
<glyph unicode="v" horiz-adv-x="419" d="M137 497Q156 409 167 353T185 261T195 201T200 151Q210 187 220 215T244 277T282 363T342 497H459L227 -4H121L15 497H137Z" />
<glyph unicode="w" horiz-adv-x="638" d="M137 497Q148 421 155 373T167 291T172 232T171 173Q177 200 185 224T206 281T240 365T296 497H408Q420 414 428 356T441 255T442 173Q450 205 459 234T481 297T514 379T563 497H678L459 -4H360Q350 68 343 114T330 193T323
259T320 335Q313 299 302 267T276 197T240 112T188 -4H89L15 497H137Z" />
<glyph unicode="x" horiz-adv-x="464" d="M199 497L439 0H306L67 497H199ZM351 497H484L114 0H-20L351 497Z" />
<glyph unicode="y" horiz-adv-x="419" d="M-48 -150Q-15 -150 11 -135T57 -97T93 -47T120 1L15 497H137Q149 441 158 398T176 317T189 238T196 146Q210 193 225 232T258 310T298 394T347 497H459L226 -3Q195 -70 159 -121T72 -201T-57 -230L-48 -150Z" />
<glyph unicode="z" horiz-adv-x="418" d="M62 497H418V435L145 84H384L373 0H-10V61L260 414H51L62 497Z" />
<glyph unicode="{" horiz-adv-x="350" d="M221 -147Q136 -147 106 -101T86 24L108 183Q111 203 107 222T91 253T55 266L63 327Q89 327 104 340T128 375T140 416L161 569Q171 642 212 690T332 739H391L383 677Q349 677 329 670T298 645T283 593L259 427Q256 403
249 378T227 331T186 296Q208 284 216 263T225 216T222 166L198 0Q193 -37 197 -55T221 -78T276 -84L267 -147H221Z" />
<glyph unicode="|" horiz-adv-x="235" d="M131 745H229L107 -116H9L131 745Z" />
<glyph unicode="}" horiz-adv-x="321" d="M147 739Q232 739 262 693T282 568L260 409Q256 380 267 353T313 326L305 265Q280 265 264 252T240 218T228 176L207 23Q197 -50 157 -98T36 -147H-23L-15 -85Q20 -85 40 -78T70 -53T85 -1L109 165Q113 189 120 214T142
262T182 296Q161 309 152 330T143 376T146 426L170 592Q176 629 171 647T148 670T92 676L101 739H147Z" />
<glyph unicode="~" horiz-adv-x="559" d="M528 299Q510 276 484 252T427 211T369 194Q340 194 316 204T269 229T223 253T173 264Q155 264 139 252T109 222T86 189L31 244Q48 272 72 297T126 338T185 354Q217 354 244 344T295 319T340 295T382 284Q411 284 435
308T476 357L528 299Z" />
<glyph unicode="&#xa0;" horiz-adv-x="234" />
<glyph unicode="&#xa1;" horiz-adv-x="245" d="M128 -234H-20L81 279H171L128 -234ZM72 425Q72 460 98 485T158 510Q186 510 204 492T223 446Q223 424 211 405T179 374T137 362Q109 362 91 380T72 425Z" />
<glyph unicode="&#xa2;" horiz-adv-x="491" d="M323 486Q356 486 392 475T454 443L388 369Q369 385 350 394T301 404Q261 404 234 375T192 301T178 208Q178 153 202 124T271 94Q318 94 380 128L406 54Q362 33 326 23T243 12Q148 12 100 64T52 202Q52 263 71 315T127
405T213 465T323 486ZM242 43L202 -128H110L178 43H242ZM271 462L307 622H401L339 462H271Z" />
<glyph unicode="&#xa3;" horiz-adv-x="581" d="M13 100H106L163 500Q172 567 207 612T296 682T413 706Q480 706 522 677T592 591L487 537Q476 566 455 588T398 610Q370 610 349 598T316 563T300 514L241 100H534L520 0H-1L13 100ZM55 284L77 366H439L417 284H55Z" />
<glyph unicode="&#xa4;" horiz-adv-x="537" d="M297 463Q357 463 400 429L460 482L519 413L454 356Q461 339 464 320T468 281Q468 244 457 211T425 149L475 93L396 24L351 75Q326 59 297 50T237 41Q207 41 181 50T133 75L75 24L16 93L79 148Q67 181 67 220Q67
256 78 290T108 356L60 413L139 482L184 429Q210 446 238 454T297 463ZM286 379Q252 379 224 359T179 304T162 227Q162 175 190 150T249 125Q274 125 299 138T345 180T371 254Q378 310 355 344T286 379Z" />
<glyph unicode="&#xa5;" horiz-adv-x="604" d="M233 706L340 434L529 706H649L376 307L332 0H199L243 307L85 706H233ZM83 389H581L557 307H59L83 389ZM64 249H562L537 167H39L64 249Z" />
<glyph unicode="&#xa6;" horiz-adv-x="238" d="M131 745H229L179 392H81L131 745ZM59 237H157L107 -116H9L59 237Z" />
<glyph unicode="&#xa7;" horiz-adv-x="454" d="M401 775Q418 775 434 772T466 765T497 754L468 676Q461 680 439 687T397 694Q379 694 367 687T347 667T336 639T331 608T330 578Q330 555 333 519T340 439T350 345T360 245T368 147T371 60Q371 25 362 -3T335 -52T291
-85T230 -103Q223 -146 199 -174T139 -216T61 -230Q34 -230 12 -226T-34 -209L-2 -134Q7 -137 19 -141T43 -148T64 -151Q90 -151 103 -136T121 -98T126 -54Q126 -13 123 32T116 124T107 217T98 305T90 384T87 449Q87 501 99 544T143 616T232 649Q242 693 264 721T321
762T401 775ZM225 559Q203 543 198 511T192 453Q192 427 195 384T204 289T216 181T226 74T232 -18Q246 -9 253 6T262 39T264 71Q264 120 261 168T252 266T242 364T232 461T225 559Z" />
<glyph unicode="&#xa8;" horiz-adv-x="297" d="M184 661Q184 632 162 611T111 589Q87 589 72 604T56 643Q56 672 78 693T129 715Q153 715 168 700T184 661ZM355 661Q355 632 333 611T281 589Q258 589 242 605T226 643Q226 672 248 693T299 715Q323 715 339 700T355 661Z" />
<glyph unicode="&#xa9;" horiz-adv-x="644" d="M599 250Q599 193 578 143T518 55T429 -5T322 -27Q265 -27 215 -6T126 54T67 142T45 250Q45 307 66 357T126 446T214 505T322 527Q379 527 429 506T517 446T577 357T599 250ZM559 250Q559 316 527 369T442 455T323
487Q257 487 203 455T117 370T85 251Q85 185 117 131T203 45T322 13Q388 13 441 45T527 131T559 250ZM447 112Q416 96 392 88T331 80Q280 80 245 102T191 162T173 250Q173 326 218 373T340 421Q365 421 393 411T442 386L398 330Q383 342 368 349T333 357Q308 357
293 339T272 297T266 251Q266 227 273 202T297 160T343 143Q363 143 379 152T409 176L447 112Z" />
<glyph unicode="&#xaa;" horiz-adv-x="371" d="M228 715Q245 715 267 708T308 682L326 709H369Q355 628 347 578T335 502T330 464T328 449Q328 441 331 433T344 425Q351 425 360 428T376 433L388 391Q373 382 354 376T317 370Q297 370 282 383T263 416H259Q240
390 214 379T163 368Q125 368 100 387T62 438T49 507Q49 543 60 579T95 647T151 696T228 715ZM223 660Q193 660 172 637T141 579T130 510Q130 476 141 450T178 424Q207 424 225 448T254 510T273 591L280 634Q266 648 252 654T223 660ZM62 252L70 310H318L310 252H62Z"
/>
<glyph unicode="&#xab;" horiz-adv-x="454" d="M232 173L155 162L23 332L199 504L274 490L133 332L232 173ZM402 173L323 162L191 332L367 504L444 490L301 332L402 173Z" />
<glyph unicode="&#xac;" horiz-adv-x="638" d="M489 267H77L89 350H587L549 79H463L489 267Z" />
<glyph unicode="&#xad;" horiz-adv-x="313" d="M43 210L56 305H277L264 210H43Z" />
<glyph unicode="&#xae;" horiz-adv-x="469" d="M496 610Q496 552 468 504T391 428T285 399Q227 399 180 427T104 504T75 610Q75 668 103 716T179 792T285 821Q343 821 391 793T467 716T496 610ZM461 610Q461 658 437 698T374 761T285 785Q237 785 198 762T134
699T110 610Q110 562 134 522T197 459T285 435Q334 435 373 458T437 522T461 610ZM200 732H293Q325 732 350 718T376 663Q376 642 363 627T333 604L407 497H336L270 593H260V497H200V732ZM260 685V640H279Q297 640 306 646T316 665Q316 675 308 680T286 685H260Z"
/>
<glyph unicode="&#xaf;" horiz-adv-x="295" d="M62 689H357L347 615H52L62 689Z" />
<glyph unicode="&#xb0;" horiz-adv-x="386" d="M388 613Q388 568 365 531T303 471T221 448Q166 448 131 484T95 573Q95 618 118 655T180 715T261 738Q316 738 352 702T388 613ZM321 604Q321 633 302 653T252 674Q228 674 208 661T175 627T162 581Q162 553 180
533T230 512Q255 512 275 525T308 559T321 604Z" />
<glyph unicode="&#xb1;" horiz-adv-x="632" d="M342 120H254L274 266H69L81 351H286L307 497H395L374 352H579L568 267H363L342 120ZM44 86H542L530 1H32L44 86Z" />
<glyph unicode="&#xb2;" horiz-adv-x="455" d="M84 489Q84 489 103 504T154 545T219 604T285 672T335 742T355 805Q355 828 341 842T303 856Q282 856 260 847T219 827T189 807T177 798L144 864Q144 864 158 874T197 899T257 924T333 935Q380 935 410 920T454 880T468
823Q468 795 458 766T428 706T381 647T318 589T242 533H448L410 438H84V489Z" />
<glyph unicode="&#xb3;" horiz-adv-x="455" d="M92 494Q210 500 275 534T340 621Q340 645 325 655T289 669T249 672Q235 672 226 671T216 670L213 728Q232 732 255 738T301 756T337 784T351 825Q351 840 339 848T309 856Q277 856 241 841T179 806L146 867Q184
896 236 915T334 935Q364 935 392 928T439 904T458 854Q458 825 446 803T412 764T362 738Q402 731 426 708T450 642Q450 624 443 598T415 544T355 490T253 447T97 425L92 494Z" />
<glyph unicode="&#xb4;" horiz-adv-x="293" d="M211 735H356L181 570H78L211 735Z" />
<glyph unicode="&#xb5;" horiz-adv-x="584" d="M245 497Q233 409 225 350T212 253T205 196T201 165T200 149Q200 123 210 103T252 83Q267 83 281 86T308 95T334 110T358 130L400 444L396 497H522Q510 405 502 341T488 234T479 168T475 131T473 115T472 108Q472
97 475 88T490 79Q498 79 506 81T522 86T537 91L547 18Q534 14 520 10T490 1T461 -6T433 -9Q404 -9 387 10T368 57Q352 40 331 25T287 -1T242 -11Q209 -11 182 4L156 -187H39L123 444L120 497H245Z" />
<glyph unicode="&#xb6;" horiz-adv-x="521" d="M124 -108Q128 -109 131 -109T137 -109Q167 -109 186 -87T210 -37L250 252Q195 252 155 272T92 333T69 432Q69 516 99 580T188 681T330 718H542L532 649H476L386 10Q382 -21 367 -45T329 -85T276 -100Q272 -100 268
-100T259 -99Q244 -127 213 -143T147 -160Q127 -160 107 -154L124 -108ZM371 649L275 -37Q304 -37 312 -20T324 20L412 649H371Z" />
<glyph unicode="&#xb7;" horiz-adv-x="293" d="M223 269Q223 234 196 208T136 182Q108 182 89 200T70 246Q70 281 97 307T157 333Q186 333 204 315T223 269Z" />
<glyph unicode="&#xb8;" horiz-adv-x="222" d="M142 -112Q142 -148 119 -170T59 -203T-16 -220L-32 -158Q-19 -156 -2 -153T30 -142T44 -118Q44 -105 29 -97T-13 -82L52 13H128L92 -42Q103 -47 114 -56T134 -79T142 -112Z" />
<glyph unicode="&#xb9;" horiz-adv-x="455" d="M101 517H228L268 820L144 785L129 855L308 924H389L336 517H438L428 438H91L101 517Z" />
<glyph unicode="&#xba;" horiz-adv-x="355" d="M375 573Q375 533 363 496T327 429T269 383T192 366Q149 366 119 384T74 434T58 508Q58 548 70 585T106 651T163 698T240 715Q284 715 314 697T359 647T375 573ZM290 576Q290 596 286 615T269 647T232 660Q205 660
188 644T160 603T146 552T142 505Q142 485 147 466T164 434T201 421Q227 421 244 437T272 478T286 529T290 576ZM53 252L61 310H308L300 252H53Z" />
<glyph unicode="&#xbb;" horiz-adv-x="454" d="M14 173L159 332L61 490L141 504L269 332L89 162L14 173ZM183 173L327 332L230 490L309 504L437 332L257 162L183 173Z" />
<glyph unicode="&#xbc;" horiz-adv-x="1082" d="M747 732H841L367 0H274L747 732ZM74 327H201L241 630L117 595L102 665L281 734H362L309 327H411L401 248H64L74 327ZM853 101H628L636 153L914 486H1027L979 180H1051L1014 101H967L951 0H837L853 101ZM901 356L755
180H865L901 356Z" />
<glyph unicode="&#xbd;" horiz-adv-x="1082" d="M747 732H841L367 0H274L747 732ZM74 327H201L241 630L117 595L102 665L281 734H362L309 327H411L401 248H64L74 327ZM649 51Q649 51 668 66T719 107T784 166T850 234T900 304T920 367Q920 390 906 404T868 418Q847
418 825 409T784 389T754 369T742 360L709 426Q709 426 723 436T762 461T822 486T898 497Q945 497 975 482T1019 442T1033 385Q1033 357 1023 328T993 268T946 209T883 151T807 95H1013L975 0H649V51Z" />
<glyph unicode="&#xbe;" horiz-adv-x="1082" d="M747 732H841L367 0H274L747 732ZM65 304Q183 310 248 344T313 431Q313 455 298 465T262 479T222 482Q208 482 199 481T189 480L186 538Q205 542 228 548T274 566T310 594T324 635Q324 650 312 658T282 666Q250
666 214 651T152 616L119 677Q157 706 209 725T307 745Q337 745 365 738T412 714T431 664Q431 635 419 613T385 574T335 548Q375 541 399 518T423 452Q423 434 416 408T388 354T328 300T226 257T70 235L65 304ZM853 101H628L636 153L914 486H1027L979 180H1051L1014
101H967L951 0H837L853 101ZM901 356L755 180H865L901 356Z" />
<glyph unicode="&#xbf;" horiz-adv-x="432" d="M137 -234Q91 -234 55 -219T-3 -172T-24 -95Q-24 -41 0 -5T61 57T130 103Q160 121 180 139T201 180Q201 186 198 195T183 212T148 220L182 298Q238 293 266 274T305 232T315 188Q315 150 296 123T249 74T192 33Q158
10 133 -14T107 -70Q107 -98 125 -112T172 -126Q213 -126 259 -102L295 -196Q254 -215 214 -224T137 -234ZM254 355Q225 355 206 374T187 422Q187 457 214 483T276 510Q305 510 324 491T343 444Q343 408 316 382T254 355Z" />
<glyph unicode="&#xc0;" horiz-adv-x="585" d="M397 732L545 0H405L366 210H166L69 0H-55L289 732H397ZM309 558L206 308H349L309 558ZM310 923L399 779H295L164 923H310Z" />
<glyph unicode="&#xc1;" horiz-adv-x="585" d="M397 732L545 0H405L366 210H166L69 0H-55L289 732H397ZM309 558L206 308H349L309 558ZM424 923H570L399 779H295L424 923Z" />
<glyph unicode="&#xc2;" horiz-adv-x="585" d="M397 732L545 0H405L366 210H166L69 0H-55L289 732H397ZM309 558L206 308H349L309 558ZM356 832L289 788H203L317 913H415L496 788H408L356 832Z" />
<glyph unicode="&#xc3;" horiz-adv-x="585" d="M397 732L545 0H405L366 210H166L69 0H-55L289 732H397ZM309 558L206 308H349L309 558ZM534 905Q530 873 514 847T471 804T411 788Q384 788 363 798T324 818T287 828Q274 828 259 821T242 798H177Q182 830 198 856T240
899T300 915Q328 915 348 905T387 885T424 875Q437 875 452 882T470 905H534Z" />
<glyph unicode="&#xc4;" horiz-adv-x="585" d="M397 732L545 0H405L366 210H166L69 0H-55L289 732H397ZM309 558L206 308H349L309 558ZM335 861Q335 832 313 811T262 789Q238 789 223 804T207 843Q207 872 229 893T280 915Q304 915 319 900T335 861ZM506 861Q506
832 484 811T432 789Q409 789 393 805T377 843Q377 872 399 893T450 915Q474 915 490 900T506 861Z" />
<glyph unicode="&#xc5;" horiz-adv-x="585" d="M397 732L545 0H405L366 210H166L69 0H-55L289 732H397ZM309 558L206 308H349L309 558ZM376 1004Q417 1004 444 976T472 909Q472 877 455 850T410 806T350 790Q310 790 283 817T255 884Q255 917 272 944T316 987T376
1004ZM366 937Q347 937 335 925T322 892Q322 877 332 867T358 856Q377 856 390 868T403 900Q403 915 393 926T366 937Z" />
<glyph unicode="&#xc6;" horiz-adv-x="862" d="M409 210H204L67 0H-55L378 670L373 732H887L873 633H606L577 426H792L778 327H563L531 99H798L784 0H379L409 210ZM268 308H422L466 633L268 308Z" />
<glyph unicode="&#xc7;" horiz-adv-x="587" d="M304 -12Q229 -12 175 13T86 81T34 181T17 298Q17 377 43 456T119 600T242 706T406 746Q440 746 481 739T560 717T622 675L541 583Q518 615 477 632T398 649Q341 649 297 620T222 542T176 435T160 317Q160 255 178
202T233 115T329 82Q367 82 411 95T507 134L543 62Q504 38 467 22T391 -3T304 -12ZM360 -112Q360 -148 337 -170T277 -203T202 -220L186 -158Q199 -156 216 -153T248 -142T262 -118Q262 -105 247 -97T205 -82L270 13H346L310 -42Q321 -47 332 -56T352 -79T360 -112Z"
/>
<glyph unicode="&#xc8;" horiz-adv-x="507" d="M94 732H532L519 633H226L198 426H422L409 327H185L155 99H447L434 0H11L101 671L94 732ZM291 923L380 779H276L145 923H291Z" />
<glyph unicode="&#xc9;" horiz-adv-x="507" d="M94 732H532L519 633H226L198 426H422L409 327H185L155 99H447L434 0H11L101 671L94 732ZM405 923H551L380 779H276L405 923Z" />
<glyph unicode="&#xca;" horiz-adv-x="507" d="M94 732H532L519 633H226L198 426H422L409 327H185L155 99H447L434 0H11L101 671L94 732ZM337 832L270 788H184L298 913H396L477 788H389L337 832Z" />
<glyph unicode="&#xcb;" horiz-adv-x="507" d="M94 732H532L519 633H226L198 426H422L409 327H185L155 99H447L434 0H11L101 671L94 732ZM316 861Q316 832 294 811T243 789Q219 789 204 804T188 843Q188 872 210 893T261 915Q285 915 300 900T316 861ZM487 861Q487
832 465 811T413 789Q390 789 374 805T358 843Q358 872 380 893T431 915Q455 915 471 900T487 861Z" />
<glyph unicode="&#xcc;" horiz-adv-x="250" d="M95 732H239L142 0H11L101 671L95 732ZM143 923L232 779H128L-3 923H143Z" />
<glyph unicode="&#xcd;" horiz-adv-x="250" d="M95 732H239L142 0H11L101 671L95 732ZM257 923H403L232 779H128L257 923Z" />
<glyph unicode="&#xce;" horiz-adv-x="250" d="M95 732H239L142 0H11L101 671L95 732ZM445 832L378 788H292L406 913H504L585 788H497L445 832Z" />
<glyph unicode="&#xcf;" horiz-adv-x="250" d="M95 732H239L142 0H11L101 671L95 732ZM424 861Q424 832 402 811T351 789Q327 789 312 804T296 843Q296 872 318 893T369 915Q393 915 408 900T424 861ZM595 861Q595 832 573 811T521 789Q498 789 482 805T466 843Q466
872 488 893T539 915Q563 915 579 900T595 861Z" />
<glyph unicode="&#xd0;" horiz-adv-x="664" d="M647 435Q647 350 621 272T544 132T422 36T258 0H11L101 671L94 732H357Q426 732 480 712T571 652T628 559T647 435ZM505 423Q505 465 496 502T467 569T415 616T335 633H227L156 99H266Q317 99 356 118T423 171T470
246T496 333T505 423ZM263 410H594L582 325H251L263 410Z" />
<glyph unicode="&#xd1;" horiz-adv-x="682" d="M254 732L470 293Q475 283 482 265T499 227Q501 246 501 265T503 304L560 732H671L572 -5H465L220 497Q212 514 205 531T189 564Q188 548 188 531T186 497L119 0H11L100 671L95 732H254ZM583 905Q579 873 563 847T520
804T460 788Q433 788 412 798T373 818T336 828Q323 828 308 821T291 798H226Q231 830 247 856T289 899T349 915Q377 915 397 905T436 885T473 875Q486 875 501 882T519 905H583Z" />
<glyph unicode="&#xd2;" horiz-adv-x="707" d="M300 -11Q230 -11 177 11T89 75T35 172T17 295Q17 381 42 461T116 604T236 705T401 743Q496 743 560 705T657 599T690 439Q690 353 664 273T588 128T466 27T300 -11ZM316 84Q368 84 407 106T474 166T517 250T541
344T549 434Q549 487 535 536T487 616T390 648Q338 648 299 626T233 566T189 482T165 388T157 298Q157 246 171 197T219 116T316 84ZM375 923L464 779H360L229 923H375Z" />
<glyph unicode="&#xd3;" horiz-adv-x="707" d="M300 -11Q230 -11 177 11T89 75T35 172T17 295Q17 381 42 461T116 604T236 705T401 743Q496 743 560 705T657 599T690 439Q690 353 664 273T588 128T466 27T300 -11ZM316 84Q368 84 407 106T474 166T517 250T541
344T549 434Q549 487 535 536T487 616T390 648Q338 648 299 626T233 566T189 482T165 388T157 298Q157 246 171 197T219 116T316 84ZM489 923H635L464 779H360L489 923Z" />
<glyph unicode="&#xd4;" horiz-adv-x="707" d="M300 -11Q230 -11 177 11T89 75T35 172T17 295Q17 381 42 461T116 604T236 705T401 743Q496 743 560 705T657 599T690 439Q690 353 664 273T588 128T466 27T300 -11ZM316 84Q368 84 407 106T474 166T517 250T541
344T549 434Q549 487 535 536T487 616T390 648Q338 648 299 626T233 566T189 482T165 388T157 298Q157 246 171 197T219 116T316 84ZM421 832L354 788H268L382 913H480L561 788H473L421 832Z" />
<glyph unicode="&#xd5;" horiz-adv-x="707" d="M300 -11Q230 -11 177 11T89 75T35 172T17 295Q17 381 42 461T116 604T236 705T401 743Q496 743 560 705T657 599T690 439Q690 353 664 273T588 128T466 27T300 -11ZM316 84Q368 84 407 106T474 166T517 250T541
344T549 434Q549 487 535 536T487 616T390 648Q338 648 299 626T233 566T189 482T165 388T157 298Q157 246 171 197T219 116T316 84ZM599 905Q595 873 579 847T536 804T476 788Q449 788 428 798T389 818T352 828Q339 828 324 821T307 798H242Q247 830 263 856T305
899T365 915Q393 915 413 905T452 885T489 875Q502 875 517 882T535 905H599Z" />
<glyph unicode="&#xd6;" horiz-adv-x="707" d="M300 -11Q230 -11 177 11T89 75T35 172T17 295Q17 381 42 461T116 604T236 705T401 743Q496 743 560 705T657 599T690 439Q690 353 664 273T588 128T466 27T300 -11ZM316 84Q368 84 407 106T474 166T517 250T541
344T549 434Q549 487 535 536T487 616T390 648Q338 648 299 626T233 566T189 482T165 388T157 298Q157 246 171 197T219 116T316 84ZM400 861Q400 832 378 811T327 789Q303 789 288 804T272 843Q272 872 294 893T345 915Q369 915 384 900T400 861ZM571 861Q571
832 549 811T497 789Q474 789 458 805T442 843Q442 872 464 893T515 915Q539 915 555 900T571 861Z" />
<glyph unicode="&#xd7;" horiz-adv-x="534" d="M258 186L93 42L40 104L205 248L80 393L151 455L276 311L441 455L494 393L329 248L454 104L383 42L258 186Z" />
<glyph unicode="&#xd8;" horiz-adv-x="707" d="M300 -11Q230 -11 177 11T89 75T35 172T17 295Q17 381 42 461T116 604T236 705T401 743Q496 743 560 705T657 599T690 439Q690 353 664 273T588 128T466 27T300 -11ZM316 84Q368 84 407 106T474 166T517 250T541
344T549 434Q549 487 535 536T487 616T390 648Q338 648 299 626T233 566T189 482T165 388T157 298Q157 246 171 197T219 116T316 84ZM326 -54L267 -7L899 794L959 746L326 -54Z" />
<glyph unicode="&#xd9;" horiz-adv-x="659" d="M234 732L169 243Q168 236 168 230T167 216Q167 175 183 146T230 100T301 84Q350 84 387 106T447 166T475 245L541 732H648L587 278Q575 190 541 125T442 25T274 -11Q218 -11 174 3T99 45T52 116T35 216Q35 232 36
247T39 278L92 672L85 732H234ZM357 923L446 779H342L211 923H357Z" />
<glyph unicode="&#xda;" horiz-adv-x="659" d="M234 732L169 243Q168 236 168 230T167 216Q167 175 183 146T230 100T301 84Q350 84 387 106T447 166T475 245L541 732H648L587 278Q575 190 541 125T442 25T274 -11Q218 -11 174 3T99 45T52 116T35 216Q35 232 36
247T39 278L92 672L85 732H234ZM471 923H617L446 779H342L471 923Z" />
<glyph unicode="&#xdb;" horiz-adv-x="659" d="M234 732L169 243Q168 236 168 230T167 216Q167 175 183 146T230 100T301 84Q350 84 387 106T447 166T475 245L541 732H648L587 278Q575 190 541 125T442 25T274 -11Q218 -11 174 3T99 45T52 116T35 216Q35 232 36
247T39 278L92 672L85 732H234ZM403 832L336 788H250L364 913H462L543 788H455L403 832Z" />
<glyph unicode="&#xdc;" horiz-adv-x="659" d="M234 732L169 243Q168 236 168 230T167 216Q167 175 183 146T230 100T301 84Q350 84 387 106T447 166T475 245L541 732H648L587 278Q575 190 541 125T442 25T274 -11Q218 -11 174 3T99 45T52 116T35 216Q35 232 36
247T39 278L92 672L85 732H234ZM382 861Q382 832 360 811T309 789Q285 789 270 804T254 843Q254 872 276 893T327 915Q351 915 366 900T382 861ZM553 861Q553 832 531 811T479 789Q456 789 440 805T424 843Q424 872 446 893T497 915Q521 915 537 900T553 861Z"
/>
<glyph unicode="&#xdd;" horiz-adv-x="523" d="M181 732L277 472L448 732H578L315 327L271 0H141L184 330L35 732H181ZM395 923H541L370 779H266L395 923Z" />
<glyph unicode="&#xde;" horiz-adv-x="575" d="M258 732L243 617H317Q380 617 431 600T513 544T544 437Q544 369 520 320T455 240T364 194T261 179H183L159 0H29L118 671L113 732H258ZM197 276H277Q315 276 343 295T387 347T403 422Q403 466 380 492T310 518H229L197
276Z" />
<glyph unicode="&#xdf;" horiz-adv-x="536" d="M-203 -185L-156 -101Q-156 -101 -146 -110T-118 -130T-80 -140Q-42 -140 -22 -121T5 -44L66 406H-6L6 497Q31 497 47 503T73 520T90 550Q113 614 145 657T222 722T330 744Q376 744 415 730T479 686T504 604Q504
556 488 524T448 469T400 432T360 402T344 369Q344 346 362 332T407 306T461 279T506 239T524 172Q524 111 495 70T418 9T315 -12Q278 -12 238 0T173 32L225 114Q241 99 265 85T317 71Q349 71 373 92T397 147Q397 172 379 187T334 213T280 240T235 278T216 342Q216
382 232 408T272 454T320 492T360 533T376 587Q376 611 360 629T318 647Q284 647 262 629T225 583T204 523T192 464L124 -42Q112 -130 62 -180T-72 -230Q-115 -230 -144 -219T-188 -196T-203 -185Z" />
<glyph unicode="&#xe0;" horiz-adv-x="513" d="M421 500H484Q469 398 459 331T442 224T433 161T429 128T428 109Q428 96 433 85T453 73Q463 73 477 77T501 85L518 22Q496 8 467 0T412 -9Q382 -9 359 10T330 59H326Q297 20 258 4T186 -12Q128 -12 92 17T38 95T21
201Q21 256 36 310T83 410T162 482T274 509Q300 509 339 496T406 450V365Q372 397 341 412T280 427Q248 427 222 412T177 367T148 296T138 204Q138 150 154 110T209 70Q241 70 264 92T303 153T330 238T348 334L359 407L421 500ZM267 735L352 570H249L122 735H267Z"
/>
<glyph unicode="&#xe1;" horiz-adv-x="513" d="M421 500H484Q469 398 459 331T442 224T433 161T429 128T428 109Q428 96 433 85T453 73Q463 73 477 77T501 85L518 22Q496 8 467 0T412 -9Q382 -9 359 10T330 59H326Q297 20 258 4T186 -12Q128 -12 92 17T38 95T21
201Q21 256 36 310T83 410T162 482T274 509Q300 509 339 496T406 450V365Q372 397 341 412T280 427Q248 427 222 412T177 367T148 296T138 204Q138 150 154 110T209 70Q241 70 264 92T303 153T330 238T348 334L359 407L421 500ZM385 735H530L355 570H252L385 735Z"
/>
<glyph unicode="&#xe2;" horiz-adv-x="513" d="M421 500H484Q469 398 459 331T442 224T433 161T429 128T428 109Q428 96 433 85T453 73Q463 73 477 77T501 85L518 22Q496 8 467 0T412 -9Q382 -9 359 10T330 59H326Q297 20 258 4T186 -12Q128 -12 92 17T38 95T21
201Q21 256 36 310T83 410T162 482T274 509Q300 509 339 496T406 450V365Q372 397 341 412T280 427Q248 427 222 412T177 367T148 296T138 204Q138 150 154 110T209 70Q241 70 264 92T303 153T330 238T348 334L359 407L421 500ZM314 643L245 579H159L275 724H373L452
579H364L314 643Z" />
<glyph unicode="&#xe3;" horiz-adv-x="513" d="M421 500H484Q469 398 459 331T442 224T433 161T429 128T428 109Q428 96 433 85T453 73Q463 73 477 77T501 85L518 22Q496 8 467 0T412 -9Q382 -9 359 10T330 59H326Q297 20 258 4T186 -12Q128 -12 92 17T38 95T21
201Q21 256 36 310T83 410T162 482T274 509Q300 509 339 496T406 450V365Q372 397 341 412T280 427Q248 427 222 412T177 367T148 296T138 204Q138 150 154 110T209 70Q241 70 264 92T303 153T330 238T348 334L359 407L421 500ZM491 706Q487 674 471 648T428 605T368
589Q341 589 320 599T281 619T244 629Q231 629 216 622T199 599H134Q139 631 155 657T197 700T257 716Q285 716 305 706T344 686T381 676Q394 676 409 683T427 706H491Z" />
<glyph unicode="&#xe4;" horiz-adv-x="513" d="M421 500H484Q469 398 459 331T442 224T433 161T429 128T428 109Q428 96 433 85T453 73Q463 73 477 77T501 85L518 22Q496 8 467 0T412 -9Q382 -9 359 10T330 59H326Q297 20 258 4T186 -12Q128 -12 92 17T38 95T21
201Q21 256 36 310T83 410T162 482T274 509Q300 509 339 496T406 450V365Q372 397 341 412T280 427Q248 427 222 412T177 367T148 296T138 204Q138 150 154 110T209 70Q241 70 264 92T303 153T330 238T348 334L359 407L421 500ZM292 661Q292 632 270 611T219 589Q195
589 180 604T164 643Q164 672 186 693T237 715Q261 715 276 700T292 661ZM463 661Q463 632 441 611T389 589Q366 589 350 605T334 643Q334 672 356 693T407 715Q431 715 447 700T463 661Z" />
<glyph unicode="&#xe5;" horiz-adv-x="513" d="M421 500H484Q469 398 459 331T442 224T433 161T429 128T428 109Q428 96 433 85T453 73Q463 73 477 77T501 85L518 22Q496 8 467 0T412 -9Q382 -9 359 10T330 59H326Q297 20 258 4T186 -12Q128 -12 92 17T38 95T21
201Q21 256 36 310T83 410T162 482T274 509Q300 509 339 496T406 450V365Q372 397 341 412T280 427Q248 427 222 412T177 367T148 296T138 204Q138 150 154 110T209 70Q241 70 264 92T303 153T330 238T348 334L359 407L421 500ZM328 769Q369 769 396 741T424 674Q424
642 407 615T362 571T302 555Q262 555 235 582T207 649Q207 682 224 709T268 752T328 769ZM319 702Q300 702 287 689T274 656Q274 641 283 631T309 621Q328 621 341 634T355 666Q355 681 345 691T319 702Z" />
<glyph unicode="&#xe6;" horiz-adv-x="776" d="M364 107Q348 75 323 48T264 5T186 -12Q128 -12 92 17T38 95T21 201Q21 256 36 310T83 410T162 482T274 509Q292 509 319 504T376 482T434 429L406 365Q372 397 341 412T280 427Q248 427 222 412T177 367T148 296T138
204Q138 150 154 110T209 70Q246 70 270 98T311 173T338 275L364 107ZM560 76Q601 76 640 97T704 137L746 54Q746 54 733 44T693 21T631 -2T548 -12Q470 -12 423 17T353 95T331 204Q331 261 349 315T403 414T489 484T604 510Q647 510 683 497T740 456T762 384Q762
359 748 326T698 262T598 212T435 194V277Q479 277 512 283T569 301T609 327T631 356T639 387Q639 404 628 415T595 426Q559 426 532 409T486 361T458 295T448 221Q448 181 459 148T494 96T560 76Z" />
<glyph unicode="&#xe7;" horiz-adv-x="422" d="M373 378Q355 397 331 409T278 422Q243 422 217 405T173 359T148 293T139 219Q139 143 166 109T244 74Q270 74 300 82T365 105L392 35Q352 13 312 1T222 -12Q151 -12 107 18T43 97T22 207Q22 273 42 328T99 424T184
487T287 510Q324 510 363 499T442 462L373 378ZM273 -112Q273 -148 250 -170T190 -203T115 -220L99 -158Q112 -156 129 -153T161 -142T175 -118Q175 -105 160 -97T118 -82L183 13H259L223 -42Q234 -47 245 -56T265 -79T273 -112Z" />
<glyph unicode="&#xe8;" horiz-adv-x="466" d="M294 510Q337 510 373 497T430 456T452 384Q452 359 438 326T388 262T288 212T125 194V277Q179 277 218 287T281 313T317 349T329 387Q329 404 318 415T285 426Q249 426 222 409T176 361T148 295T138 221Q138 145
169 111T253 76Q285 76 323 88T401 122L436 54Q436 54 423 44T383 21T321 -2T238 -12Q160 -12 113 17T43 95T21 204Q21 261 39 315T93 414T179 484T294 510ZM518 735L603 570H500L373 735H518Z" />
<glyph unicode="&#xe9;" horiz-adv-x="466" d="M294 510Q337 510 373 497T430 456T452 384Q452 359 438 326T388 262T288 212T125 194V277Q179 277 218 287T281 313T317 349T329 387Q329 404 318 415T285 426Q249 426 222 409T176 361T148 295T138 221Q138 145
169 111T253 76Q285 76 323 88T401 122L436 54Q436 54 423 44T383 21T321 -2T238 -12Q160 -12 113 17T43 95T21 204Q21 261 39 315T93 414T179 484T294 510ZM380 735H525L350 570H247L380 735Z" />
<glyph unicode="&#xea;" horiz-adv-x="466" d="M294 510Q337 510 373 497T430 456T452 384Q452 359 438 326T388 262T288 212T125 194V277Q179 277 218 287T281 313T317 349T329 387Q329 404 318 415T285 426Q249 426 222 409T176 361T148 295T138 221Q138 145
169 111T253 76Q285 76 323 88T401 122L436 54Q436 54 423 44T383 21T321 -2T238 -12Q160 -12 113 17T43 95T21 204Q21 261 39 315T93 414T179 484T294 510ZM309 643L240 579H154L270 724H368L447 579H359L309 643Z" />
<glyph unicode="&#xeb;" horiz-adv-x="466" d="M294 510Q337 510 373 497T430 456T452 384Q452 359 438 326T388 262T288 212T125 194V277Q179 277 218 287T281 313T317 349T329 387Q329 404 318 415T285 426Q249 426 222 409T176 361T148 295T138 221Q138 145
169 111T253 76Q285 76 323 88T401 122L436 54Q436 54 423 44T383 21T321 -2T238 -12Q160 -12 113 17T43 95T21 204Q21 261 39 315T93 414T179 484T294 510ZM287 661Q287 632 265 611T214 589Q190 589 175 604T159 643Q159 672 181 693T232 715Q256 715 271 700T287
661ZM458 661Q458 632 436 611T384 589Q361 589 345 605T329 643Q329 672 351 693T402 715Q426 715 442 700T458 661Z" />
<glyph unicode="&#xec;" horiz-adv-x="228" d="M151 0H27L86 443L83 497H207L148 55L151 0ZM122 735L207 570H104L-23 735H122Z" />
<glyph unicode="&#xed;" horiz-adv-x="228" d="M151 0H27L86 443L83 497H207L148 55L151 0ZM240 735H385L210 570H107L240 735Z" />
<glyph unicode="&#xee;" horiz-adv-x="228" d="M151 0H27L86 443L83 497H207L148 55L151 0ZM425 643L356 579H270L386 724H484L563 579H475L425 643Z" />
<glyph unicode="&#xef;" horiz-adv-x="228" d="M151 0H27L86 443L83 497H207L148 55L151 0ZM403 661Q403 632 381 611T330 589Q306 589 291 604T275 643Q275 672 297 693T348 715Q372 715 387 700T403 661ZM574 661Q574 632 552 611T500 589Q477 589 461 605T445
643Q445 672 467 693T518 715Q542 715 558 700T574 661Z" />
<glyph unicode="&#xf0;" horiz-adv-x="536" d="M284 510Q292 510 299 510T314 508Q302 537 289 565T260 619L165 568L130 626L224 677Q213 692 203 705T182 731L273 783Q284 771 295 757T319 728L421 783L451 723L357 672Q390 623 418 564T465 440T483 307Q483
243 465 186T411 85T327 15T215 -11Q151 -11 107 17T39 95T16 206Q16 266 36 321T92 418T177 485T284 510ZM273 428Q239 428 216 410T179 362T156 300T145 241T142 198Q142 167 149 138T174 91T226 72Q261 72 284 90T322 137T344 198T354 259T357 306Q357 337 350
364T325 410T273 428Z" />
<glyph unicode="&#xf1;" horiz-adv-x="492" d="M185 508Q190 492 191 477T193 445Q214 462 239 477T291 501T346 511Q378 511 400 503T438 480T460 441T467 387Q467 360 464 336L426 54L429 0H304L347 324Q349 333 349 342T350 360Q350 378 345 390T330 408T300
414Q288 414 273 408T241 393T212 375T190 357L141 0H27L75 356Q77 370 77 384T78 414Q78 426 77 440T74 469T64 493L185 508ZM487 706Q483 674 467 648T424 605T364 589Q337 589 316 599T277 619T240 629Q227 629 212 622T195 599H130Q135 631 151 657T193 700T253
716Q281 716 301 706T340 686T377 676Q390 676 405 683T423 706H487Z" />
<glyph unicode="&#xf2;" horiz-adv-x="496" d="M213 -12Q145 -12 103 18T41 96T21 201Q21 255 38 310T89 410T171 482T283 510Q352 510 394 480T455 402T475 297Q475 243 458 188T407 88T325 16T213 -12ZM224 69Q257 69 282 89T324 143T349 217T358 298Q358 334
350 363T324 411T272 429Q239 429 214 409T172 355T147 281T138 200Q138 165 146 135T173 87T224 69ZM513 735L598 570H495L368 735H513Z" />
<glyph unicode="&#xf3;" horiz-adv-x="496" d="M213 -12Q145 -12 103 18T41 96T21 201Q21 255 38 310T89 410T171 482T283 510Q352 510 394 480T455 402T475 297Q475 243 458 188T407 88T325 16T213 -12ZM224 69Q257 69 282 89T324 143T349 217T358 298Q358 334
350 363T324 411T272 429Q239 429 214 409T172 355T147 281T138 200Q138 165 146 135T173 87T224 69ZM375 735H520L345 570H242L375 735Z" />
<glyph unicode="&#xf4;" horiz-adv-x="496" d="M213 -12Q145 -12 103 18T41 96T21 201Q21 255 38 310T89 410T171 482T283 510Q352 510 394 480T455 402T475 297Q475 243 458 188T407 88T325 16T213 -12ZM224 69Q257 69 282 89T324 143T349 217T358 298Q358 334
350 363T324 411T272 429Q239 429 214 409T172 355T147 281T138 200Q138 165 146 135T173 87T224 69ZM304 643L235 579H149L265 724H363L442 579H354L304 643Z" />
<glyph unicode="&#xf5;" horiz-adv-x="496" d="M213 -12Q145 -12 103 18T41 96T21 201Q21 255 38 310T89 410T171 482T283 510Q352 510 394 480T455 402T475 297Q475 243 458 188T407 88T325 16T213 -12ZM224 69Q257 69 282 89T324 143T349 217T358 298Q358 334
350 363T324 411T272 429Q239 429 214 409T172 355T147 281T138 200Q138 165 146 135T173 87T224 69ZM481 706Q477 674 461 648T418 605T358 589Q331 589 310 599T271 619T234 629Q221 629 206 622T189 599H124Q129 631 145 657T187 700T247 716Q275 716 295 706T334
686T371 676Q384 676 399 683T417 706H481Z" />
<glyph unicode="&#xf6;" horiz-adv-x="496" d="M213 -12Q145 -12 103 18T41 96T21 201Q21 255 38 310T89 410T171 482T283 510Q352 510 394 480T455 402T475 297Q475 243 458 188T407 88T325 16T213 -12ZM224 69Q257 69 282 89T324 143T349 217T358 298Q358 334
350 363T324 411T272 429Q239 429 214 409T172 355T147 281T138 200Q138 165 146 135T173 87T224 69ZM282 661Q282 632 260 611T209 589Q185 589 170 604T154 643Q154 672 176 693T227 715Q251 715 266 700T282 661ZM453 661Q453 632 431 611T379 589Q356 589 340
605T324 643Q324 672 346 693T397 715Q421 715 437 700T453 661Z" />
<glyph unicode="&#xf7;" horiz-adv-x="630" d="M419 442Q419 407 392 381T330 354Q301 354 282 373T263 420Q263 456 290 482T352 509Q381 509 400 490T419 442ZM72 292H570L558 204H60L72 292ZM368 77Q368 53 355 33T322 0T279 -12Q250 -12 231 7T211 55Q211
90 238 116T301 143Q330 143 349 124T368 77Z" />
<glyph unicode="&#xf8;" horiz-adv-x="496" d="M213 -12Q145 -12 103 18T41 96T21 201Q21 255 38 310T89 410T171 482T283 510Q352 510 394 480T455 402T475 297Q475 243 458 188T407 88T325 16T213 -12ZM224 69Q257 69 282 89T324 143T349 217T358 298Q358 334
350 363T324 411T272 429Q239 429 214 409T172 355T147 281T138 200Q138 165 146 135T173 87T224 69ZM296 -83L239 -39L720 597L779 553L296 -83Z" />
<glyph unicode="&#xf9;" horiz-adv-x="499" d="M192 497L149 169Q148 162 148 156T147 142Q147 117 157 101T196 84Q222 84 242 99T278 140T303 196T319 255T329 307L348 453L342 497H470L416 130Q415 125 415 120T414 109Q414 96 418 85T439 73Q449 73 463 77T487
85L504 22Q490 13 471 6T433 -5T396 -9Q376 -9 359 0T330 24T314 59H310Q297 42 279 29T239 7T196 -6T153 -11Q92 -11 60 19T27 111Q27 128 30 146L70 453L65 497H192ZM505 735L590 570H487L360 735H505Z" />
<glyph unicode="&#xfa;" horiz-adv-x="499" d="M192 497L149 169Q148 162 148 156T147 142Q147 117 157 101T196 84Q222 84 242 99T278 140T303 196T319 255T329 307L348 453L342 497H470L416 130Q415 125 415 120T414 109Q414 96 418 85T439 73Q449 73 463 77T487
85L504 22Q490 13 471 6T433 -5T396 -9Q376 -9 359 0T330 24T314 59H310Q297 42 279 29T239 7T196 -6T153 -11Q92 -11 60 19T27 111Q27 128 30 146L70 453L65 497H192ZM367 735H512L337 570H234L367 735Z" />
<glyph unicode="&#xfb;" horiz-adv-x="499" d="M192 497L149 169Q148 162 148 156T147 142Q147 117 157 101T196 84Q222 84 242 99T278 140T303 196T319 255T329 307L348 453L342 497H470L416 130Q415 125 415 120T414 109Q414 96 418 85T439 73Q449 73 463 77T487
85L504 22Q490 13 471 6T433 -5T396 -9Q376 -9 359 0T330 24T314 59H310Q297 42 279 29T239 7T196 -6T153 -11Q92 -11 60 19T27 111Q27 128 30 146L70 453L65 497H192ZM296 643L227 579H141L257 724H355L434 579H346L296 643Z" />
<glyph unicode="&#xfc;" horiz-adv-x="499" d="M192 497L149 169Q148 162 148 156T147 142Q147 117 157 101T196 84Q222 84 242 99T278 140T303 196T319 255T329 307L348 453L342 497H470L416 130Q415 125 415 120T414 109Q414 96 418 85T439 73Q449 73 463 77T487
85L504 22Q490 13 471 6T433 -5T396 -9Q376 -9 359 0T330 24T314 59H310Q297 42 279 29T239 7T196 -6T153 -11Q92 -11 60 19T27 111Q27 128 30 146L70 453L65 497H192ZM274 661Q274 632 252 611T201 589Q177 589 162 604T146 643Q146 672 168 693T219 715Q243 715
258 700T274 661ZM445 661Q445 632 423 611T371 589Q348 589 332 605T316 643Q316 672 338 693T389 715Q413 715 429 700T445 661Z" />
<glyph unicode="&#xfd;" horiz-adv-x="419" d="M-48 -150Q-15 -150 11 -135T57 -97T93 -47T120 1L15 497H137Q149 441 158 398T176 317T189 238T196 146Q210 193 225 232T258 310T298 394T347 497H459L226 -3Q195 -70 159 -121T72 -201T-57 -230L-48 -150ZM330
735H475L300 570H197L330 735Z" />
<glyph unicode="&#xfe;" horiz-adv-x="526" d="M334 510Q394 510 432 481T487 403T505 301Q505 244 488 189T439 88T358 16T246 -11Q222 -11 193 -4T145 21L120 -170L125 -225H-2L123 715L120 769H248L207 461Q232 484 267 497T334 510ZM310 426Q281 426 259 411T221
368T194 307T176 233T163 154Q162 144 161 133T157 111Q178 90 199 81T243 71Q283 71 310 95T353 157T376 232T383 297Q383 333 377 362T356 408T310 426Z" />
<glyph unicode="&#xff;" horiz-adv-x="419" d="M-48 -150Q-15 -150 11 -135T57 -97T93 -47T120 1L15 497H137Q149 441 158 398T176 317T189 238T196 146Q210 193 225 232T258 310T298 394T347 497H459L226 -3Q195 -70 159 -121T72 -201T-57 -230L-48 -150ZM237
661Q237 632 215 611T164 589Q140 589 125 604T109 643Q109 672 131 693T182 715Q206 715 221 700T237 661ZM408 661Q408 632 386 611T334 589Q311 589 295 605T279 643Q279 672 301 693T352 715Q376 715 392 700T408 661Z" />
<glyph unicode="&#x2013;" horiz-adv-x="477" d="M-5 211L9 305H485L471 211H-5Z" />
<glyph unicode="&#x2014;" horiz-adv-x="827" d="M-5 211L9 305H835L821 211H-5Z" />
<glyph unicode="&#x2018;" horiz-adv-x="242" d="M174 738L209 698Q200 691 187 678T164 649T153 621Q153 612 162 604T180 582T189 546Q189 512 165 490T110 467Q76 467 55 489T33 544Q33 584 55 620T110 687T174 738Z" />
<glyph unicode="&#x2019;" horiz-adv-x="242" d="M209 661Q209 621 187 584T133 518T68 467L33 506Q42 514 55 527T79 556T89 584Q89 593 80 601T62 623T53 659Q53 693 77 715T132 738Q167 738 188 716T209 661Z" />
<glyph unicode="&#x201a;" horiz-adv-x="252" d="M181 62Q181 22 159 -15T103 -83T38 -134L5 -93Q14 -85 27 -72T51 -43T61 -16Q61 -6 52 2T34 24T25 59Q25 94 49 116T104 139Q138 139 159 117T181 62Z" />
<glyph unicode="&#x201c;" horiz-adv-x="429" d="M171 738L206 698Q197 691 184 678T161 649T150 621Q150 612 159 604T177 582T186 546Q186 512 162 490T107 467Q73 467 52 489T30 544Q30 584 52 620T107 687T171 738ZM361 738L396 698Q387 691 374 678T351 649T340
621Q340 612 349 604T367 582T376 546Q376 512 352 490T297 467Q263 467 242 489T220 544Q220 584 242 620T297 687T361 738Z" />
<glyph unicode="&#x201d;" horiz-adv-x="432" d="M209 661Q209 621 187 584T133 518T68 467L33 506Q42 514 55 527T79 556T89 584Q89 593 80 601T62 623T53 659Q53 693 77 715T132 738Q167 738 188 716T209 661ZM399 661Q399 621 377 584T323 518T258 467L223
506Q232 514 245 527T269 556T279 584Q279 593 270 601T252 623T243 659Q243 693 267 715T322 738Q357 738 378 716T399 661Z" />
<glyph unicode="&#x201e;" horiz-adv-x="440" d="M181 62Q181 22 159 -15T105 -81T40 -132L5 -93Q14 -85 27 -72T51 -43T61 -15Q61 -6 52 2T34 24T25 60Q25 94 49 116T104 139Q138 139 159 117T181 62ZM371 62Q371 22 349 -15T295 -81T230 -132L195 -93Q204 -85
217 -72T241 -43T251 -15Q251 -6 242 2T224 24T215 60Q215 94 239 116T294 139Q328 139 349 117T371 62Z" />
<glyph unicode="&#x2022;" horiz-adv-x="441" d="M393 379Q393 331 368 291T302 226T214 201Q154 201 116 239T77 335Q77 383 102 423T169 488T257 513Q316 513 354 475T393 379Z" />
<glyph unicode="&#x2039;" horiz-adv-x="304" d="M33 332L209 504L284 490L143 332L242 173L165 162L33 332Z" />
<glyph unicode="&#x203a;" horiz-adv-x="310" d="M26 173L171 332L73 490L152 504L280 332L100 162L26 173Z" />
</font>
</defs>
</svg>
