<?xml version="1.0" standalone="no"?>
<!DOCTYPE svg PUBLIC "-//W3C//DTD SVG 1.1//EN" "http://www.w3.org/Graphics/SVG/1.1/DTD/svg11.dtd">
<svg xmlns="http://www.w3.org/2000/svg">
<defs >
<font id="Rosario" horiz-adv-x="517" ><font-face
    font-family="Rosario Light"
    units-per-em="1000"
    panose-1="0 0 0 0 0 0 0 0 0 0"
    ascent="977"
    descent="-235"
    alphabetic="0" />
<glyph unicode=" " horiz-adv-x="230" />
<glyph unicode="!" horiz-adv-x="329" d="M109 726H210L181 216H138L109 726ZM222 48Q222 23 204 5T160 -14Q135 -14 117 4T98 48Q98 75 116 92T160 110Q186 110 204 92T222 48Z" />
<glyph unicode="&quot;" horiz-adv-x="367" d="M94 437Q93 440 90 458T82 498T75 536T72 554V735H149V554L127 437H94ZM240 437L218 554V735H296V554L273 437H240Z" />
<glyph unicode="#" horiz-adv-x="640" d="M276 474H397L429 715H491L457 474H591V420H451L435 303H568V251H427L392 -8H330L366 251H246L209 -8H149L184 251H48V303H192L207 420H74V474H214L246 715H311L276 474ZM268 420L253 303H373L390 420H268Z" />
<glyph unicode="$" horiz-adv-x="536" d="M465 644L431 587Q391 613 354 625T281 637Q228 637 192 606T155 512Q155 482 171 463T213 430T272 403Q307 389 344 373T413 334T464 276T484 189Q484 122 455 79T377 13T265 -9Q217 -9 166 3T62 40L92 107Q129 76 171
62T253 48Q296 48 331 63T387 109T408 182Q408 230 384 258T323 304T243 339Q212 351 183 366T131 401T94 448T80 515Q80 573 108 612T183 671T286 692Q329 692 374 681T465 644ZM264 -3L249 -143H188L227 -3H264ZM265 665L279 800H343L302 665H265Z" />
<glyph unicode="%" horiz-adv-x="865" d="M605 729H656L280 -11H231L605 729ZM203 729Q261 729 295 700T343 623T358 519Q358 463 341 416T288 339T192 310Q134 310 101 339T53 415T39 519Q39 576 56 623T109 700T203 729ZM198 689Q152 689 129 664T98 600T90
519Q90 478 98 439T129 376T198 351Q244 351 267 375T297 439T305 519Q305 561 298 600T268 664T198 689ZM672 409Q730 409 763 380T811 304T826 200Q826 144 809 96T756 19T661 -10Q603 -10 570 19T522 96T507 200Q507 256 524 303T577 380T672 409ZM666 367Q621
367 598 343T566 280T558 200Q558 159 566 120T598 57T666 32Q713 32 736 56T766 120T774 200Q774 242 767 280T736 342T666 367ZM203 729H634V689H198L203 729Z" />
<glyph unicode="&amp;" horiz-adv-x="661" d="M600 332Q552 158 465 75T243 -9Q170 -9 125 20T58 93T37 186Q37 252 77 314T216 417L244 363Q183 344 150 303T117 198Q117 163 131 128T177 71T259 48Q321 48 375 80T469 178T525 342L600 332ZM684 -1Q668 -4 653
-5T622 -7Q549 -7 491 10T389 60Q323 110 269 184T184 345T152 518Q152 557 159 595T183 665T232 716T311 735Q372 735 406 699T440 601Q440 563 422 521T361 439T246 365L224 416Q272 437 301 467T345 531T359 597Q359 637 347 658T305 679Q268 679 249 644T230
531Q230 443 260 361T341 214T454 108Q495 83 538 71T624 58Q637 58 649 59T672 61L684 -1Z" />
<glyph unicode="&apos;" horiz-adv-x="226" d="M97 443Q96 446 93 464T85 504T78 543T75 561V741H154V561L130 443H97Z" />
<glyph unicode="(" horiz-adv-x="306" d="M214 -134Q137 -42 93 70T49 304Q49 425 92 538T214 743L266 736Q216 674 184 604T136 459T120 304Q120 225 135 150T183 5T266 -128L214 -134Z" />
<glyph unicode=")" horiz-adv-x="306" d="M243 304Q243 183 199 71T78 -134L26 -128Q75 -65 107 4T156 148T173 304Q173 385 157 460T108 604T26 736L78 743Q156 652 199 539T243 304Z" />
<glyph unicode="*" horiz-adv-x="510" d="M220 726H281L267 594H235L220 726ZM289 582L403 638L426 576L299 548L289 582ZM97 635L218 580L208 554L80 575L97 635ZM214 529L241 507L174 394L128 430L214 529ZM264 507L290 525L380 429L331 393L264 507Z" />
<glyph unicode="+" horiz-adv-x="642" d="M348 0H287V221H69V278H287V497H348V278H568V220H348V0Z" />
<glyph unicode="," horiz-adv-x="235" d="M111 116Q146 116 164 92T183 35Q183 -14 154 -54T85 -123Q78 -117 69 -109T53 -93Q62 -83 74 -73T95 -50T104 -23Q104 -9 91 1T66 24T53 61Q53 85 70 100T111 116Z" />
<glyph unicode="-" horiz-adv-x="313" d="M37 296H273V231H37V296Z" />
<glyph unicode="." horiz-adv-x="228" d="M169 51Q169 26 151 9T109 -9Q85 -9 67 8T49 51Q49 77 66 94T109 111Q133 111 151 94T169 51Z" />
<glyph unicode="/" horiz-adv-x="326" d="M271 724H324L58 -14H2L271 724Z" />
<glyph unicode="0" horiz-adv-x="588" d="M301 508Q378 508 429 473T505 378T530 247Q530 175 502 116T420 21T288 -14Q210 -14 159 21T83 115T58 247Q58 320 86 379T169 473T301 508ZM294 455Q247 455 215 438T164 392T135 326T126 247Q126 207 135 170T163 103T215
57T294 40Q341 40 373 57T424 103T452 169T461 247Q461 289 453 326T426 393T374 438T294 455Z" />
<glyph unicode="1" horiz-adv-x="386" d="M49 50H170V418L45 376L28 415L198 496H233V50H351V-2H49V50Z" />
<glyph unicode="2" horiz-adv-x="464" d="M244 507Q282 507 315 495T369 458T390 390Q390 329 354 275T255 166T110 52H412L393 -2H33V46Q115 110 169 157T255 242T300 313T314 382Q314 423 294 442T242 461Q211 461 173 444T97 395L59 432Q112 476 153 491T244 507Z" />
<glyph unicode="3" horiz-adv-x="389" d="M200 509Q274 509 306 476T338 399Q338 362 325 329T281 266T201 205Q237 203 269 187T320 139T340 58Q340 1 318 -40T259 -110T178 -156T89 -183T6 -194T-57 -195L-62 -159Q-12 -157 44 -143T150 -103T231 -38T263 53Q263
108 235 134T163 160Q149 160 133 158T99 150L80 193Q131 212 166 239T224 295T256 353T266 402Q266 427 250 443T196 460Q160 460 121 442T59 396L24 440Q61 473 108 491T200 509Z" />
<glyph unicode="4" horiz-adv-x="433" d="M238 498H319V53H416L404 1H319V-186H258V1H-14V31L238 498ZM258 425L61 53H258V425Z" />
<glyph unicode="5" horiz-adv-x="341" d="M109 496H333L315 430H137L89 309Q173 270 224 211T275 68Q275 10 254 -37T194 -119T103 -176T-10 -210L-21 -173Q53 -154 101 -127T174 -55T198 65Q198 113 175 154T110 228T15 282L109 496Z" />
<glyph unicode="6" horiz-adv-x="510" d="M431 733L448 696Q361 662 300 609T200 492T144 364T126 242Q126 190 142 144T189 68T263 39Q303 39 330 61T371 118T385 191Q385 228 372 261T332 316T265 338Q228 338 188 323T110 275L120 328Q152 363 194 380T277
397Q340 397 381 370T442 299T462 206Q462 166 449 127T409 56T343 5T253 -14Q202 -14 155 12T79 93T49 231Q49 322 80 401T166 546T288 658T431 733Z" />
<glyph unicode="7" horiz-adv-x="414" d="M34 497H388V466L113 -183H32L327 441H21L34 497Z" />
<glyph unicode="8" horiz-adv-x="494" d="M257 727Q297 727 332 710T389 658T412 568Q412 516 382 464T288 372L249 402Q301 435 326 479T352 565Q352 604 337 629T300 667T254 680Q231 680 208 667T169 627T153 557Q153 518 170 491T215 442T275 397Q303 379
331 359T383 313T421 255T436 180Q436 117 406 75T330 11T235 -10Q189 -9 149 10T83 66T58 159Q58 211 76 249T127 319T207 385L237 357Q182 320 159 286T130 220T124 162Q124 122 141 95T186 53T242 39Q270 39 297 53T341 96T359 170Q359 213 336 243T277 298T206
351Q174 375 145 401T98 463T80 548Q80 602 106 642T173 704T257 727Z" />
<glyph unicode="9" horiz-adv-x="507" d="M254 508Q306 508 352 482T428 401T458 263Q458 172 427 97T341 -37T219 -142T76 -219L59 -181Q146 -143 207 -93T307 16T363 135T381 253Q381 306 365 352T319 426T244 455Q205 455 178 433T136 376T122 303Q122 266
135 233T175 178T242 157Q279 157 319 173T397 220L387 166Q356 132 314 115T230 98Q168 98 127 125T66 196T45 288Q45 328 58 367T98 438T164 489T254 508Z" />
<glyph unicode=":" horiz-adv-x="331" d="M220 375Q220 351 203 334T160 316Q136 316 118 333T100 375Q100 400 118 418T160 436Q185 436 202 418T220 375ZM220 47Q220 22 203 4T160 -14Q136 -14 118 4T100 47Q100 71 118 88T160 106Q185 106 202 89T220 47Z" />
<glyph unicode=";" horiz-adv-x="334" d="M159 436Q184 436 202 418T220 375Q220 350 203 333T159 316Q135 316 117 333T99 375Q99 400 117 418T159 436ZM148 116Q183 116 201 92T220 35Q220 -14 191 -54T122 -123L90 -93Q99 -83 111 -73T132 -50T141 -23Q141
-9 128 1T103 24T90 61Q90 85 107 100T148 116Z" />
<glyph unicode="&lt;" horiz-adv-x="630" d="M66 293L564 500V430L140 249L564 70V0L66 209V293Z" />
<glyph unicode="=" horiz-adv-x="630" d="M69 369H568V308H69V369ZM69 176H568V115H69V176Z" />
<glyph unicode="&gt;" horiz-adv-x="630" d="M66 70L490 249L66 430V500L564 293V209L66 0V70Z" />
<glyph unicode="?" horiz-adv-x="438" d="M187 724Q236 724 280 706T351 651T379 559Q379 509 358 471T300 406T214 365V217H171V407Q208 415 240 433T292 482T312 554Q312 613 272 639T176 665Q154 665 129 658T84 636L67 692Q89 705 123 714T187 724ZM187 106Q211
106 229 89T247 47Q247 22 229 4T187 -14Q163 -14 145 4T127 47Q127 73 144 89T187 106Z" />
<glyph unicode="@" horiz-adv-x="1022" d="M550 724Q635 724 711 698T845 622T936 498T969 331Q969 270 953 210T905 102T829 24T728 -5Q696 -5 669 2T624 28T603 82H599Q579 39 539 13T455 -14Q403 -14 371 13T325 87T310 189Q310 245 325 300T370 401T448 473T559
500Q589 500 614 491T664 457L684 492H718Q703 394 693 327T676 216T666 147T661 108T659 86Q659 65 675 54T729 42Q773 42 807 67T865 133T901 226T914 331Q914 414 886 478T807 586T691 654T550 677Q441 677 358 636T220 526T136 373T108 202Q108 127 129 57T194
-68T303 -156T457 -189Q507 -189 558 -175L572 -220Q544 -227 515 -231T457 -235Q355 -235 280 -199T154 -100T78 40T53 204Q53 280 73 355T133 496T233 614T372 694T550 724ZM559 448Q505 448 470 423T413 358T384 273T375 189Q375 128 397 85T467 41Q501 41 528
62T575 118T608 199T627 293L645 423Q602 448 559 448Z" />
<glyph unicode="A" horiz-adv-x="631" d="M358 726L606 0H527L436 271H185L94 0H26L276 726H358ZM312 631L202 323H419L312 631Z" />
<glyph unicode="B" horiz-adv-x="614" d="M526 558Q526 524 515 489T479 429T417 396Q467 389 498 361T544 292T559 205Q559 135 534 94T467 32T371 6T262 0H94V657Q94 658 91 673T84 706T80 726H315Q357 726 395 719T462 692T509 641T526 558ZM454 565Q454 609
434 632T383 664T314 673H164V417H273Q329 417 369 429T432 473T454 565ZM484 219Q484 273 455 305T382 350T292 364H164V53H276Q337 53 383 65T457 112T484 219Z" />
<glyph unicode="C" horiz-adv-x="624" d="M382 -12Q297 -12 236 19T136 101T79 214T60 339Q60 412 80 482T142 609T247 700T395 734Q430 734 469 725T545 698T603 651L562 610Q542 632 513 647T451 670T390 678Q333 678 286 650T206 574T155 467T137 345Q137 255
167 189T254 87T385 51Q427 51 477 63T579 101L604 53Q586 39 557 27T496 7T433 -7T382 -12Z" />
<glyph unicode="D" horiz-adv-x="699" d="M639 360Q639 256 608 175T506 47T321 0H96V657Q96 659 93 674T87 706T83 726H223Q318 726 394 709T526 651T610 539T639 360ZM569 366Q569 460 546 520T477 613T366 660T217 673H165V53H306Q405 53 462 94T544 207T569 366Z" />
<glyph unicode="E" horiz-adv-x="549" d="M83 726H507V673H166V399H432V347H166V53H507V0H96V657L83 726Z" />
<glyph unicode="F" horiz-adv-x="510" d="M82 726H471V673H165V399H411V347H165V0H96V657L82 726Z" />
<glyph unicode="G" horiz-adv-x="707" d="M384 735Q422 735 465 726T547 698T613 650L571 598Q540 624 513 641T456 666T384 674Q317 674 269 648T192 578T148 478T134 362Q134 303 147 247T188 147T264 76T379 50Q434 50 474 75T537 145T560 242V310H366L378
367H630L631 145Q631 109 636 73T642 1H603L572 77Q531 28 480 8T366 -13Q289 -13 232 17T136 99T80 216T61 353Q61 430 80 498T139 620T240 704T384 735Z" />
<glyph unicode="H" horiz-adv-x="714" d="M546 353H167V0H98V657Q98 658 95 673T88 706T84 726H167V405H546V726H615V0H546V353Z" />
<glyph unicode="I" horiz-adv-x="268" d="M84 726H167V0H98V657Q98 658 95 673T88 706T84 726Z" />
<glyph unicode="J" horiz-adv-x="268" d="M84 726H168V42Q168 -4 161 -47T134 -124T81 -182T-7 -212L-18 -161Q23 -154 47 -131T82 -76T96 -9T99 59V657L84 726Z" />
<glyph unicode="K" horiz-adv-x="583" d="M83 726H166V402L479 726H559L246 400L576 0H483L166 383V0H97V657L83 726Z" />
<glyph unicode="L" horiz-adv-x="514" d="M82 726H165V53H481V0H97V657L82 726Z" />
<glyph unicode="M" horiz-adv-x="838" d="M190 726L378 225Q386 203 396 182T416 130Q425 159 434 180T452 223L641 726H733V-1H663V543Q663 561 663 577T665 616Q659 602 652 585T638 552L433 -2H387L181 560Q177 573 170 588T157 616Q159 596 159 581T159 550V-1H101V657L85
726H190Z" />
<glyph unicode="N" horiz-adv-x="714" d="M187 726L521 211Q529 198 539 184T559 155Q558 171 558 187T557 219V726H615V-5H582L189 598Q182 609 173 622T154 646Q156 631 156 615T156 582V0H98V658L84 726H187Z" />
<glyph unicode="O" horiz-adv-x="737" d="M370 -11Q290 -11 232 19T135 103T79 222T60 361Q60 433 78 500T134 620T231 704T371 735Q451 735 508 704T603 619T659 500T677 362Q677 290 659 223T604 104T509 20T370 -11ZM369 43Q436 43 481 71T554 147T594 251T607
364Q607 421 595 476T554 578T481 651T370 679Q304 679 259 651T186 575T146 471T134 358Q134 301 146 246T186 144T258 71T369 43Z" />
<glyph unicode="P" horiz-adv-x="575" d="M82 726H292Q364 726 416 703T497 631T526 505Q526 434 496 385T413 311T293 285H166V0H97V657L82 726ZM166 673V338H288Q364 338 409 383T455 505Q455 584 412 628T289 673H166Z" />
<glyph unicode="Q" horiz-adv-x="737" d="M1140 -181Q1124 -188 1103 -195T1056 -209T1000 -220T935 -225Q889 -225 835 -211T723 -173T612 -124T515 -77T443 -42Q413 -28 379 -20T310 -3Q222 18 167 70T86 197T60 362Q60 437 78 504T135 624T231 705T369 735Q448
735 506 705T602 624T658 505T677 362Q677 286 656 215T590 90T472 8Q474 6 478 4T487 0Q503 -9 542 -29T635 -75T748 -123T864 -162T965 -177Q987 -177 1018 -172T1080 -160T1127 -148L1140 -181ZM369 42Q436 42 481 70T554 145T594 248T606 362Q606 419 594 475T555
577T482 651T369 679Q302 679 257 651T184 577T145 474T133 361Q133 305 145 249T184 146T256 71T369 42Z" />
<glyph unicode="R" horiz-adv-x="591" d="M82 726H281Q351 726 406 709T494 647T526 524Q526 485 509 449T462 386T396 345L590 0H507L327 328H165V0H95V657L82 726ZM165 673V380H253Q308 380 353 392T426 438T454 533Q454 581 431 612T369 658T287 673H165Z" />
<glyph unicode="S" horiz-adv-x="516" d="M281 735Q328 735 372 721T460 684L426 627Q392 649 357 663T280 677Q219 677 180 647T140 552Q140 519 159 496T210 455T277 420Q312 404 348 385T413 339T461 277T479 189Q479 118 444 74T353 9T233 -12Q183 -12 138
3T47 40L77 107Q109 80 156 64T244 47Q278 47 315 60T377 103T403 182Q403 231 382 261T326 313T252 352Q218 368 185 385T125 425T82 479T65 555Q65 612 97 652T179 714T281 735Z" />
<glyph unicode="T" horiz-adv-x="578" d="M253 673H30V726H548V673H322V0H253V673Z" />
<glyph unicode="U" horiz-adv-x="707" d="M166 726V243Q166 152 207 98T347 43Q416 43 460 71T527 150T549 265V726H607V247Q607 174 579 115T494 22T348 -13Q230 -13 163 47T95 226V657L81 726H166Z" />
<glyph unicode="V" horiz-adv-x="603" d="M106 726L272 221Q280 199 286 178T303 129Q311 150 315 164T325 197L507 728H571L319 -4H283L32 726H106Z" />
<glyph unicode="W" horiz-adv-x="894" d="M116 726L242 260Q249 235 257 210T274 148Q281 176 286 193T295 227L429 726H481L605 255Q611 232 620 207T637 148Q645 174 650 191T659 224L794 726H855L658 -7H605L471 484Q467 501 461 519T448 564Q442 543 438 531T431
508L292 -7H242L39 726H116Z" />
<glyph unicode="X" horiz-adv-x="585" d="M126 726L560 0H478L46 726H126ZM470 726H549L103 0H25L470 726Z" />
<glyph unicode="Y" horiz-adv-x="584" d="M131 726L312 437L472 726H542L337 374V0H262V374L44 726H131Z" />
<glyph unicode="Z" horiz-adv-x="571" d="M68 726H516V662L127 53H526L520 0H47V59L439 672H68V726Z" />
<glyph unicode="[" horiz-adv-x="351" d="M61 729H264V685H122V-82H264V-126H61V729Z" />
<glyph unicode="\" horiz-adv-x="326" d="M5 726H61L321 0H268L5 726Z" />
<glyph unicode="]" horiz-adv-x="350" d="M89 -81H229V685H87V729H290V-124H89V-81Z" />
<glyph unicode="^" horiz-adv-x="618" d="M298 424L120 0H49L254 496H339L547 0H479L298 424Z" />
<glyph unicode="_" horiz-adv-x="499" d="M-12 -76H512V-117H-12V-76Z" />
<glyph unicode="`" horiz-adv-x="281" d="M150 732L240 587H175L40 732H150Z" />
<glyph unicode="a" horiz-adv-x="494" d="M252 509Q331 509 369 465T407 344V79Q407 63 414 57T432 50Q440 50 450 53T469 60L487 13Q474 6 452 -2T401 -10Q380 -10 360 4T336 59Q306 33 267 11T186 -11Q127 -11 89 25T51 122Q51 180 79 213T153 263T249 285T344
291V338Q344 367 337 393T311 436T255 453Q215 453 180 440T104 394L67 442Q107 477 154 493T252 509ZM344 235Q314 235 275 233T200 220T139 186T115 120Q115 82 139 65T205 47Q245 47 276 69T326 126T344 198V235Z" />
<glyph unicode="b" horiz-adv-x="558" d="M293 506Q346 506 385 485T451 427T490 345T503 251Q503 202 491 155T453 69T388 9T292 -14Q252 -14 213 1T147 48L131 -1H87Q87 17 88 34T89 70V699L75 759H153V465Q153 467 153 462T151 448Q183 477 216 491T293 506ZM283
447Q247 447 213 431T153 388V196Q153 150 166 114T210 58T289 38Q329 38 357 58T402 111T428 180T436 250Q436 286 428 321T401 384T354 430T283 447Z" />
<glyph unicode="c" horiz-adv-x="450" d="M269 508Q307 508 344 497T422 456L385 407Q355 433 326 443T275 454Q246 454 219 442T169 405T133 341T120 248Q120 148 166 97T279 46Q309 46 337 55T395 81L420 38Q380 11 343 -1T261 -14Q205 -14 158 18T82 110T53
255Q53 334 84 390T166 477T269 508Z" />
<glyph unicode="d" horiz-adv-x="558" d="M271 507Q309 507 343 495T406 456Q405 466 405 480T404 506V697L390 759H466V144Q466 122 469 96T480 46T500 1L429 -9Q421 9 416 27T408 63Q379 28 341 7T256 -14Q204 -14 166 8T103 68T66 151T54 243Q54 293 67 340T107
424T175 484T271 507ZM268 448Q225 448 197 431T151 386T127 322T119 250Q119 212 127 177T155 113T204 68T277 51Q315 51 347 75T404 124V295Q404 338 390 372T345 427T268 448Z" />
<glyph unicode="e" horiz-adv-x="494" d="M273 508Q328 508 366 487T425 424T446 322Q446 309 446 296T443 268H121Q121 165 165 108T284 51Q312 51 342 59T407 84L437 44Q402 14 362 0T274 -14Q215 -14 173 9T105 70T66 153T53 242Q53 290 66 337T106 423T174
485T273 508ZM263 455Q229 455 202 436T156 386T129 321H379Q378 369 364 398T324 441T263 455Z" />
<glyph unicode="f" horiz-adv-x="288" d="M300 767Q331 767 350 761T396 741L378 689Q364 703 342 709T300 715Q260 715 234 699T193 657T172 601T164 544T162 497H316L301 444H162V1H100V444H29V486Q46 489 61 490T88 499T102 524Q112 573 117 599T127 644T146
684Q169 721 206 744T300 767Z" />
<glyph unicode="g" horiz-adv-x="477" d="M221 507Q248 507 276 501T333 494Q368 494 403 499T482 511L466 445H388Q381 445 373 445T356 445Q374 420 382 394T391 341Q391 292 372 252T311 189T202 165Q173 165 152 152T131 108Q131 88 138 80T158 72T181 71H305Q328
71 353 68T400 54T435 24T449 -28Q449 -84 429 -123T373 -185T293 -219T200 -230Q173 -230 144 -223T90 -201T48 -161T32 -103Q32 -69 53 -43T105 6V9Q80 23 69 42T57 83Q57 97 66 109T90 141T123 195Q91 219 72 256T52 334Q52 381 75 420T136 483T221 507ZM223
455Q196 455 173 440T134 398T119 337Q119 303 133 276T172 233T222 217Q268 217 296 248T325 335Q325 370 311 397T273 439T223 455ZM151 -2Q132 -18 116 -42T99 -90Q99 -115 118 -133T164 -161T215 -171Q243 -171 273 -165T330 -146T374 -111T391 -58Q391 -31
375 -20T335 -5T286 -2H151Z" />
<glyph unicode="h" horiz-adv-x="547" d="M151 758V432Q183 465 220 487T306 509Q360 509 393 486T442 423T458 331V0H397V297Q397 331 393 365T368 423T303 447Q273 447 247 437T198 410T151 375V0H88V697L75 758H151Z" />
<glyph unicode="i" horiz-adv-x="251" d="M176 657Q176 635 161 620T123 604Q102 604 87 619T72 657Q72 678 87 694T123 710Q144 710 160 694T176 657ZM158 497V0H94V435L81 497H158Z" />
<glyph unicode="j" horiz-adv-x="251" d="M180 657Q180 635 165 620T127 604Q105 604 90 619T74 657Q74 678 89 694T127 710Q148 710 164 694T180 657ZM158 497V3Q158 -30 154 -67T136 -140T98 -199T32 -230L23 -198Q59 -180 73 -147T91 -75T94 -1V435L80 497H158Z" />
<glyph unicode="k" horiz-adv-x="464" d="M150 758V292L353 497H427L220 289L453 0H373L150 278V0H88V697L75 758H150Z" />
<glyph unicode="l" horiz-adv-x="251" d="M158 758V0H95V698L81 758H158Z" />
<glyph unicode="m" horiz-adv-x="829" d="M123 502Q130 486 135 467T143 430Q158 447 182 465T233 495T284 508Q335 508 369 487T427 420Q446 439 471 459T524 494T579 508Q634 508 669 485T720 422T737 328V0H673V291Q673 316 671 342T661 392T634 430T582 445Q541
445 505 421T442 370V0H379V289Q379 316 377 343T367 394T339 431T285 445Q261 445 236 433T187 405T146 373V0H83V364Q83 386 79 408T68 453T50 495L123 502Z" />
<glyph unicode="n" horiz-adv-x="547" d="M122 503Q129 485 134 467T142 429Q172 461 213 484T298 508Q352 508 386 485T436 422T452 330V0H391V295Q391 330 386 364T362 422T296 445Q267 445 241 435T191 409T145 373V0H83V350Q83 372 80 398T70 449T49 493L122 503Z" />
<glyph unicode="o" horiz-adv-x="538" d="M265 -14Q193 -14 146 23T76 120T53 244Q53 293 67 340T108 425T176 485T271 508Q344 508 391 471T461 375T484 250Q484 201 471 154T430 69T361 9T265 -14ZM266 41Q307 41 336 60T383 110T410 177T419 248Q419 283 411
319T386 386T340 436T270 455Q229 455 200 436T153 387T127 320T118 248Q118 215 126 179T153 112T199 61T266 41Z" />
<glyph unicode="p" horiz-adv-x="556" d="M125 502Q133 484 138 466T146 430Q175 465 212 485T296 506Q349 506 387 484T450 424T487 341T499 249Q499 199 486 152T446 67T379 7T282 -15Q244 -15 209 -2T148 37Q150 23 150 11T150 -9V-154L164 -215H88V349Q88
371 85 397T75 448T56 493L125 502ZM275 442Q237 442 206 418T150 368V198Q150 155 164 120T208 65T284 44Q327 44 356 61T402 106T426 170T434 243Q434 281 426 317T398 381T349 425T275 442Z" />
<glyph unicode="q" horiz-adv-x="556" d="M263 509Q304 509 343 494T409 446L425 497H469Q469 479 468 461T466 425V-154Q466 -155 469 -169T475 -197T479 -215H403V-24Q403 -17 403 -5T405 21T407 47Q374 16 342 2T263 -13Q210 -13 171 9T105 68T66 151T53 244Q53
294 65 341T102 426T167 486T263 509ZM267 455Q227 455 199 435T153 384T128 317T120 250Q120 214 128 179T155 115T202 69T273 52Q308 52 344 67T403 110V298Q403 345 390 380T347 435T267 455Z" />
<glyph unicode="r" horiz-adv-x="349" d="M126 505Q143 464 149 419Q176 459 219 482T311 505L291 434Q241 434 208 408T151 348V0H88V358Q88 378 85 403T74 452T56 494L126 505Z" />
<glyph unicode="s" horiz-adv-x="430" d="M246 508Q280 508 309 500T366 471L343 418Q321 437 294 446T240 455Q197 455 166 436T135 379Q135 351 148 333T182 302T228 277Q253 264 278 250T325 219T359 177T372 120Q372 71 350 42T290 1T209 -12Q169 -12 132
-2T61 29L92 79Q115 60 145 50T203 39Q246 39 277 58T309 115Q309 142 292 160T248 192T193 221Q164 237 137 256T92 303T74 369Q74 415 98 445T161 492T246 508Z" />
<glyph unicode="t" horiz-adv-x="327" d="M183 637Q176 604 170 568T162 497H296L281 442H162V102Q162 78 167 65T186 46T221 41Q236 41 252 44T282 51L296 5Q273 -2 255 -7T207 -12Q144 -12 122 24T99 119V442H29V484Q58 485 77 500T107 539T124 589T134 637H183Z" />
<glyph unicode="u" horiz-adv-x="553" d="M150 497V196Q150 163 155 129T180 73T242 50Q283 50 317 68T373 118T394 193V435Q394 436 391 450T385 480T381 497H457V80Q457 66 462 58T480 50Q495 50 518 60L536 13Q516 1 494 -4T451 -10Q428 -10 411 5T388 59Q360
31 321 10T241 -12Q188 -12 154 11T103 74T87 166V435L73 497H150Z" />
<glyph unicode="v" horiz-adv-x="455" d="M86 497L203 165Q209 147 216 130T230 87Q237 113 244 128T256 159L373 497H436L257 -7H197L19 497H86Z" />
<glyph unicode="w" horiz-adv-x="658" d="M91 497L187 174Q189 168 193 160T202 133Q206 150 210 158T216 171L317 497H348L446 174Q448 168 452 159T460 133Q465 150 470 159T476 174L575 497H633L477 -7H434Q416 53 400 105T368 215T329 350Q306 274 288 216T252
105T216 -7H173L26 497H91Z" />
<glyph unicode="x" horiz-adv-x="446" d="M102 497L423 -2H349L28 497H102ZM351 497H421L95 -2H23L351 497Z" />
<glyph unicode="y" horiz-adv-x="456" d="M89 497Q109 439 129 380T171 259Q185 217 201 175T232 90Q248 133 263 175T293 259Q315 321 335 380T375 497H437L261 -1Q251 -29 236 -65T198 -136T147 -193T82 -215H44V-157Q46 -156 46 -156T47 -156Q91 -156 120 -130T169
-67T202 6L19 497H89Z" />
<glyph unicode="z" horiz-adv-x="445" d="M62 497H394V456L125 52H405L396 0H40V40L309 443H62V497Z" />
<glyph unicode="{" horiz-adv-x="349" d="M262 -129Q186 -129 156 -87T125 30V197Q125 229 112 256T61 284V321Q91 321 104 337T121 376T125 422V575Q125 627 139 662T187 715T274 734H276V695Q238 695 219 688T194 661T187 605V433Q187 405 182 378T162 331T115
302Q146 294 161 274T182 228T187 172V-12Q187 -44 196 -61T226 -84T276 -90V-129H262Z" />
<glyph unicode="|" horiz-adv-x="235" d="M88 750H145V-102H88V750Z" />
<glyph unicode="}" horiz-adv-x="349" d="M88 734Q164 734 195 692T226 576V409Q226 376 239 349T289 321V285Q259 285 246 269T229 230T225 184V31Q225 -20 211 -56T164 -110T77 -129H74V-90Q113 -90 132 -83T157 -55T164 1V173Q164 202 169 228T189 275T236
304Q205 313 189 332T168 378T163 434V618Q163 650 154 666T125 689T74 696V734H88Z" />
<glyph unicode="~" horiz-adv-x="663" d="M573 297Q559 276 537 255T488 220T434 206Q405 206 379 216T328 240T276 264T220 275Q201 275 184 265T155 240T134 207L88 246Q100 271 119 293T165 328T220 342Q253 342 282 332T339 308T389 284T434 273Q463 273 488
293T526 339L573 297Z" />
<glyph unicode="&#xa0;" horiz-adv-x="230" />
<glyph unicode="&#xa1;" horiz-adv-x="329" d="M217 -231H116L145 279H188L217 -231ZM105 447Q105 472 123 490T166 508Q192 508 210 490T228 447Q228 420 210 403T166 385Q141 385 123 403T105 447Z" />
<glyph unicode="&#xa2;" horiz-adv-x="490" d="M277 484Q311 484 344 474T415 437L382 387Q354 410 328 420T282 430Q247 430 216 412T166 353T146 248Q146 160 184 115T284 70Q336 70 394 97L421 57Q384 32 346 21T270 10Q219 10 176 39T107 123T81 255Q81 326
109 377T183 456T277 484ZM274 28L260 -113H198L238 28H274ZM273 471L288 607H351L311 471H273Z" />
<glyph unicode="&#xa3;" horiz-adv-x="581" d="M68 53H161V506Q161 565 184 606T249 670T350 692Q397 692 442 668T513 603L451 568Q436 597 410 617T349 637Q310 637 284 619T246 569T233 502V53H524V0H68V53ZM85 305L95 357H399L389 305H85Z" />
<glyph unicode="&#xa4;" horiz-adv-x="536" d="M266 455Q333 455 385 411L441 465L479 427L421 370Q438 345 447 315T457 252Q457 218 448 188T421 132L479 76L441 39L386 93Q361 71 331 59T266 47Q232 47 202 59T145 93L91 39L52 78L108 134Q93 159 84 189T74
252Q74 284 84 314T110 370L52 427L91 465L146 409Q170 430 201 442T266 455ZM265 406Q229 406 200 385T153 330T136 252Q136 209 153 174T200 117T266 96Q302 96 331 117T379 173T397 251Q397 294 380 329T332 385T265 406Z" />
<glyph unicode="&#xa5;" horiz-adv-x="604" d="M141 692L322 403L482 692H552L347 341V0H272V341L54 692H141ZM84 389H530L522 338H76L84 389ZM84 255H530L522 204H76L84 255Z" />
<glyph unicode="&#xa6;" horiz-adv-x="238" d="M91 740H144V394H91V740ZM91 231H144V-114H91V231Z" />
<glyph unicode="&#xa7;" horiz-adv-x="491" d="M66 320Q66 373 92 404T160 445Q136 470 122 503T107 579Q107 624 131 657T195 708T283 726Q319 726 356 715T428 681L406 628Q374 651 341 661T277 672Q231 672 200 650T168 589Q168 546 188 517T239 465T306 422T373
375T425 315T445 227Q445 174 419 143T350 101Q374 76 389 44T404 -32Q404 -77 380 -110T316 -161T228 -179Q192 -179 155 -168T82 -134L104 -81Q137 -103 170 -114T233 -125Q279 -125 311 -102T343 -42Q343 1 323 30T272 82T205 125T138 172T86 232T66 320ZM128
325Q128 282 154 252T219 198T297 146Q332 151 357 169T382 222Q382 266 357 295T292 349T214 401Q179 397 154 378T128 325Z" />
<glyph unicode="&#xa8;" horiz-adv-x="265" d="M106 660Q106 638 90 622T52 606Q30 606 15 622T0 660Q0 682 15 697T52 713Q75 713 90 698T106 660ZM265 660Q265 638 250 622T212 606Q190 606 175 622T159 660Q159 682 174 697T212 713Q235 713 250 698T265 660Z" />
<glyph unicode="&#xa9;" horiz-adv-x="632" d="M585 250Q585 195 564 147T506 61T420 2T316 -19Q261 -19 212 2T126 60T68 146T47 250Q47 306 68 354T126 440T212 498T316 519Q371 519 419 498T505 440T564 354T585 250ZM547 250Q547 313 516 365T432 449T316
481Q253 481 201 450T117 366T85 250Q85 187 116 135T200 51T316 19Q379 19 431 50T515 134T547 250ZM427 123Q399 106 378 99T323 92Q279 92 247 114T199 173T182 252Q182 320 221 365T331 410Q356 410 378 401T422 378L400 350Q380 367 364 372T322 377Q291 377
270 359T237 314T226 259Q226 232 236 202T268 151T322 129Q349 129 366 135T408 155L427 123Z" />
<glyph unicode="&#xaa;" horiz-adv-x="315" d="M294 412Q280 402 264 395T231 388Q218 388 206 396T186 421Q170 408 148 398T104 388Q66 388 42 412T17 476Q17 513 32 535T73 570T129 587T187 593V614Q187 637 181 657T146 677Q124 677 98 664T56 633L23 682Q50
707 79 719T146 731Q198 731 220 699T242 619V460Q242 448 246 444T255 440Q260 440 266 442T280 447L294 412ZM187 537Q165 537 139 534T93 519T74 475Q74 458 90 450T119 442Q140 442 155 456T178 490T187 527V537ZM35 328H264V283H35V328Z" />
<glyph unicode="&#xab;" horiz-adv-x="466" d="M65 338L205 496L257 487L143 338L260 187L209 179L65 338ZM202 338L344 496L396 487L282 338L397 187L348 179L202 338Z" />
<glyph unicode="&#xac;" horiz-adv-x="638" d="M516 285H73V333H563V94H516V285Z" />
<glyph unicode="&#xad;" horiz-adv-x="313" d="M37 296H273V231H37V296Z" />
<glyph unicode="&#xae;" horiz-adv-x="468" d="M426 600Q426 546 400 503T331 434T234 408Q181 408 137 433T68 502T42 599Q42 653 67 696T137 764T234 790Q287 790 330 765T400 696T426 600ZM394 599Q394 644 372 680T314 737T234 759Q190 759 154 738T96 680T74
599Q74 555 95 519T153 462T234 440Q278 440 314 461T372 519T394 599ZM155 709H240Q271 709 293 697T315 648Q315 627 302 613T268 592L340 489H286L222 585H199V489H155V709ZM199 677V617H226Q246 617 258 624T271 650Q271 664 259 670T233 677H199Z" />
<glyph unicode="&#xaf;" horiz-adv-x="309" d="M0 689H309V630H0V689Z" />
<glyph unicode="&#xb0;" horiz-adv-x="389" d="M195 746Q237 746 271 726T326 670T347 593Q347 551 327 517T272 461T195 440Q153 440 118 460T63 516T42 593Q42 636 62 670T118 725T195 746ZM195 688Q155 688 128 660T101 593Q101 554 128 526T195 498Q234 498
260 526T286 593Q286 632 261 660T195 688Z" />
<glyph unicode="&#xb1;" horiz-adv-x="632" d="M348 85H287V260H69V322H287V495H348V321H568V259H348V85ZM69 59H568V-2H69V59Z" />
<glyph unicode="&#xb2;" horiz-adv-x="455" d="M66 463Q66 463 84 478T132 519T195 578T257 649T305 724T324 796Q324 830 302 853T236 877Q209 877 186 870T146 852T119 835T109 827L84 864Q84 864 95 873T127 894T178 915T249 924Q305 924 335 904T378 856T390
799Q390 753 366 708T307 623T237 552T178 504T154 486H402L387 432H66V463Z" />
<glyph unicode="&#xb3;" horiz-adv-x="455" d="M71 463Q195 469 260 507T326 602Q326 638 308 655T263 677T206 683Q192 683 182 682T171 681L164 722Q192 728 225 740T282 772T306 824Q306 851 285 864T224 877Q194 877 159 862T101 827L74 865Q107 891 155 907T245
924Q273 924 301 916T347 889T366 836Q366 806 350 784T310 746T265 723Q297 721 325 707T370 668T388 610Q388 581 374 550T326 490T231 444T78 422L71 463Z" />
<glyph unicode="&#xb4;" horiz-adv-x="281" d="M119 732H229L95 587H30L119 732Z" />
<glyph unicode="&#xb5;" horiz-adv-x="558" d="M539 22Q520 14 498 2T454 -10Q423 -10 408 11T388 60Q356 32 309 9T219 -15Q186 -15 153 -1V-188H88V434Q88 435 85 449T78 479T74 496H150V193Q150 161 155 128T180 72T242 49Q268 49 296 60T351 90T396 125V434Q396
435 393 449T386 479T382 496H457V79Q457 65 459 59T465 50T478 48Q476 48 487 51T511 59T524 63L539 22Z" />
<glyph unicode="&#xb6;" horiz-adv-x="489" d="M142 -111Q178 -121 198 -102T218 -52V374Q172 374 131 397T65 459T40 541Q40 599 69 638T149 697T263 718H444V672H388V10Q388 -23 368 -50T317 -90T252 -99Q243 -123 226 -139T185 -159T132 -154L142 -111ZM268
672V-52Q297 -52 318 -35T340 5V672H268Z" />
<glyph unicode="&#xb7;" horiz-adv-x="293" d="M208 261Q208 236 190 219T147 202Q122 202 104 219T86 262Q86 288 104 306T148 324Q172 324 190 305T208 261Z" />
<glyph unicode="&#xb8;" horiz-adv-x="280" d="M116 9H156L128 -45Q183 -45 213 -67T244 -128Q244 -174 211 -197T133 -220Q108 -220 83 -214T36 -193L58 -149Q72 -161 88 -166T120 -171Q140 -171 153 -162T167 -133Q167 -109 154 -97T111 -84Q102 -84 91 -85T66
-89L116 9Z" />
<glyph unicode="&#xb9;" horiz-adv-x="455" d="M106 480H226V847L107 812L92 850L256 915H288V480H384V432H106V480Z" />
<glyph unicode="&#xba;" horiz-adv-x="332" d="M168 738Q216 738 248 714T296 652T312 569Q312 525 294 487T243 424T161 400Q114 400 82 424T34 486T18 569Q18 612 36 650T88 713T168 738ZM165 688Q134 688 114 670T85 624T76 569Q76 545 86 518T116 470T164
450Q195 450 214 469T243 515T252 569Q252 595 243 622T215 669T165 688ZM52 328H280V283H52V328Z" />
<glyph unicode="&#xbb;" horiz-adv-x="466" d="M260 335L115 176L65 182L180 335L66 482L119 493L260 335ZM397 335L254 176L202 182L319 335L205 482L258 493L397 335Z" />
<glyph unicode="&#xbc;" horiz-adv-x="1138" d="M731 729H782L405 -11H357L731 729ZM106 290H226V657L107 622L92 660L256 725H288V290H384V242H106V290ZM956 115H725V148L956 481H1018V163H1095L1082 115H1018V0H956V115ZM957 403L794 163H956L957 403Z" />
<glyph unicode="&#xbd;" horiz-adv-x="1138" d="M731 729H782L405 -11H357L731 729ZM106 290H226V657L107 622L92 660L256 725H288V290H384V242H106V290ZM749 31Q749 31 767 46T815 87T878 146T940 217T988 292T1007 364Q1007 398 985 421T920 445Q893 445 870
438T830 420T803 403T793 395L767 432Q767 432 778 441T810 462T862 483T933 492Q988 492 1018 473T1061 424T1073 368Q1073 322 1050 277T991 192T921 120T862 72T838 54H1086L1071 0H749V31Z" />
<glyph unicode="&#xbe;" horiz-adv-x="1138" d="M731 729H782L405 -11H357L731 729ZM71 273Q195 279 260 317T326 412Q326 448 308 465T263 487T206 493Q192 493 182 492T171 491L164 532Q192 538 225 550T282 582T306 634Q306 661 285 674T224 687Q194 687 159
672T101 637L74 675Q107 701 155 717T245 734Q273 734 301 726T347 699T366 646Q366 616 350 594T310 556T265 533Q297 531 325 517T370 478T388 420Q388 391 374 360T326 300T231 254T78 232L71 273ZM956 115H725V148L956 481H1018V163H1095L1082 115H1018V0H956V115ZM957
403L794 163H956L957 403Z" />
<glyph unicode="&#xbf;" horiz-adv-x="431" d="M259 -229Q210 -229 166 -211T95 -155T67 -64Q67 -14 88 24T146 89T232 130V278H275V88Q238 81 206 62T154 14T134 -59Q134 -117 174 -143T270 -170Q293 -170 318 -162T362 -141L379 -197Q357 -210 323 -219T259
-229ZM259 389Q235 389 217 406T199 448Q199 473 217 490T259 508Q283 508 301 491T319 448Q319 423 302 406T259 389Z" />
<glyph unicode="&#xc0;" horiz-adv-x="631" d="M358 726L606 0H527L436 271H185L94 0H26L276 726H358ZM312 631L202 323H419L312 631ZM268 896L358 771H293L159 896H268Z" />
<glyph unicode="&#xc1;" horiz-adv-x="631" d="M358 726L606 0H527L436 271H185L94 0H26L276 726H358ZM312 631L202 323H419L312 631ZM370 896H480L345 771H281L370 896Z" />
<glyph unicode="&#xc2;" horiz-adv-x="631" d="M358 726L606 0H527L436 271H185L94 0H26L276 726H358ZM312 631L202 323H419L312 631ZM322 835L232 764H172L284 904H359L462 765H406L322 835Z" />
<glyph unicode="&#xc3;" horiz-adv-x="631" d="M358 726L606 0H527L436 271H185L94 0H26L276 726H358ZM312 631L202 323H419L312 631ZM468 870Q464 853 455 832T431 795T394 780Q365 780 340 790T290 809T235 819Q222 819 217 810T204 793H163Q168 814 179 835T209
870T251 884Q277 884 302 875T352 856T396 846Q408 846 416 853T430 870H468Z" />
<glyph unicode="&#xc4;" horiz-adv-x="631" d="M358 726L606 0H527L436 271H185L94 0H26L276 726H358ZM312 631L202 323H419L312 631ZM293 831Q293 809 277 793T239 777Q217 777 202 793T187 831Q187 853 202 868T239 884Q262 884 277 869T293 831ZM452 831Q452
809 437 793T399 777Q377 777 362 793T346 831Q346 853 361 868T399 884Q422 884 437 869T452 831Z" />
<glyph unicode="&#xc5;" horiz-adv-x="631" d="M358 726L606 0H527L436 271H185L94 0H26L276 726H358ZM312 631L202 323H419L312 631ZM319 981Q346 981 367 968T400 934T413 885Q413 846 385 818T319 790Q281 790 253 818T224 885Q224 911 237 933T272 968T319
981ZM320 937Q298 937 283 922T267 885Q267 863 282 848T320 833Q340 833 355 849T371 885Q371 906 356 921T320 937Z" />
<glyph unicode="&#xc6;" horiz-adv-x="726" d="M363 268H203L85 0H19L300 659L286 726H673V674H430V402H664V344H430V56H673V0H363V268ZM225 326H363V645L225 326Z" />
<glyph unicode="&#xc7;" horiz-adv-x="624" d="M382 -12Q297 -12 236 19T136 101T79 214T60 339Q60 412 80 482T142 609T247 700T395 734Q430 734 469 725T545 698T603 651L562 610Q542 632 513 647T451 670T390 678Q333 678 286 650T206 574T155 467T137 345Q137
255 167 189T254 87T385 51Q427 51 477 63T579 101L604 53Q586 39 557 27T496 7T433 -7T382 -12ZM345 9H385L357 -45Q412 -45 442 -67T473 -128Q473 -174 440 -197T362 -220Q337 -220 312 -214T265 -193L287 -149Q301 -161 317 -166T349 -171Q369 -171 382 -162T396
-133Q396 -109 383 -97T340 -84Q331 -84 320 -85T295 -89L345 9Z" />
<glyph unicode="&#xc8;" horiz-adv-x="549" d="M83 726H507V673H166V399H432V347H166V53H507V0H96V657L83 726ZM252 896L342 771H277L143 896H252Z" />
<glyph unicode="&#xc9;" horiz-adv-x="549" d="M83 726H507V673H166V399H432V347H166V53H507V0H96V657L83 726ZM354 896H464L329 771H265L354 896Z" />
<glyph unicode="&#xca;" horiz-adv-x="549" d="M83 726H507V673H166V399H432V347H166V53H507V0H96V657L83 726ZM306 835L216 764H156L268 904H343L446 765H390L306 835Z" />
<glyph unicode="&#xcb;" horiz-adv-x="549" d="M83 726H507V673H166V399H432V347H166V53H507V0H96V657L83 726ZM277 831Q277 809 261 793T223 777Q201 777 186 793T171 831Q171 853 186 868T223 884Q246 884 261 869T277 831ZM436 831Q436 809 421 793T383 777Q361
777 346 793T330 831Q330 853 345 868T383 884Q406 884 421 869T436 831Z" />
<glyph unicode="&#xcc;" horiz-adv-x="268" d="M84 726H167V0H98V657Q98 658 95 673T88 706T84 726ZM337 896L427 771H362L228 896H337Z" />
<glyph unicode="&#xcd;" horiz-adv-x="268" d="M84 726H167V0H98V657Q98 658 95 673T88 706T84 726ZM183 896H293L158 771H94L183 896Z" />
<glyph unicode="&#xce;" horiz-adv-x="268" d="M84 726H167V0H98V657Q98 658 95 673T88 706T84 726ZM391 835L301 764H241L353 904H428L531 765H475L391 835Z" />
<glyph unicode="&#xcf;" horiz-adv-x="268" d="M84 726H167V0H98V657Q98 658 95 673T88 706T84 726ZM362 831Q362 809 346 793T308 777Q286 777 271 793T256 831Q256 853 271 868T308 884Q331 884 346 869T362 831ZM521 831Q521 809 506 793T468 777Q446 777 431
793T415 831Q415 853 430 868T468 884Q491 884 506 869T521 831Z" />
<glyph unicode="&#xd0;" horiz-adv-x="699" d="M639 360Q639 256 608 175T506 47T321 0H96V657Q96 659 93 674T87 706T83 726H223Q318 726 394 709T526 651T610 539T639 360ZM569 366Q569 460 546 520T477 613T366 660T217 673H165V53H306Q405 53 462 94T544 207T569
366ZM52 396H368V341H52V396Z" />
<glyph unicode="&#xd1;" horiz-adv-x="714" d="M187 726L521 211Q529 198 539 184T559 155Q558 171 558 187T557 219V726H615V-5H582L189 598Q182 609 173 622T154 646Q156 631 156 615T156 582V0H98V658L84 726H187ZM501 870Q497 853 488 832T464 795T427 780Q398
780 373 790T323 809T268 819Q255 819 250 810T237 793H196Q201 814 212 835T242 870T284 884Q310 884 335 875T385 856T429 846Q441 846 449 853T463 870H501Z" />
<glyph unicode="&#xd2;" horiz-adv-x="737" d="M370 -11Q290 -11 232 19T135 103T79 222T60 361Q60 433 78 500T134 620T231 704T371 735Q451 735 508 704T603 619T659 500T677 362Q677 290 659 223T604 104T509 20T370 -11ZM369 43Q436 43 481 71T554 147T594
251T607 364Q607 421 595 476T554 578T481 651T370 679Q304 679 259 651T186 575T146 471T134 358Q134 301 146 246T186 144T258 71T369 43ZM318 896L408 771H343L209 896H318Z" />
<glyph unicode="&#xd3;" horiz-adv-x="737" d="M370 -11Q290 -11 232 19T135 103T79 222T60 361Q60 433 78 500T134 620T231 704T371 735Q451 735 508 704T603 619T659 500T677 362Q677 290 659 223T604 104T509 20T370 -11ZM369 43Q436 43 481 71T554 147T594
251T607 364Q607 421 595 476T554 578T481 651T370 679Q304 679 259 651T186 575T146 471T134 358Q134 301 146 246T186 144T258 71T369 43ZM420 896H530L395 771H331L420 896Z" />
<glyph unicode="&#xd4;" horiz-adv-x="737" d="M370 -11Q290 -11 232 19T135 103T79 222T60 361Q60 433 78 500T134 620T231 704T371 735Q451 735 508 704T603 619T659 500T677 362Q677 290 659 223T604 104T509 20T370 -11ZM369 43Q436 43 481 71T554 147T594
251T607 364Q607 421 595 476T554 578T481 651T370 679Q304 679 259 651T186 575T146 471T134 358Q134 301 146 246T186 144T258 71T369 43ZM372 835L282 764H222L334 904H409L512 765H456L372 835Z" />
<glyph unicode="&#xd5;" horiz-adv-x="737" d="M370 -11Q290 -11 232 19T135 103T79 222T60 361Q60 433 78 500T134 620T231 704T371 735Q451 735 508 704T603 619T659 500T677 362Q677 290 659 223T604 104T509 20T370 -11ZM369 43Q436 43 481 71T554 147T594
251T607 364Q607 421 595 476T554 578T481 651T370 679Q304 679 259 651T186 575T146 471T134 358Q134 301 146 246T186 144T258 71T369 43ZM518 870Q514 853 505 832T481 795T444 780Q415 780 390 790T340 809T285 819Q272 819 267 810T254 793H213Q218 814 229
835T259 870T301 884Q327 884 352 875T402 856T446 846Q458 846 466 853T480 870H518Z" />
<glyph unicode="&#xd6;" horiz-adv-x="737" d="M370 -11Q290 -11 232 19T135 103T79 222T60 361Q60 433 78 500T134 620T231 704T371 735Q451 735 508 704T603 619T659 500T677 362Q677 290 659 223T604 104T509 20T370 -11ZM369 43Q436 43 481 71T554 147T594
251T607 364Q607 421 595 476T554 578T481 651T370 679Q304 679 259 651T186 575T146 471T134 358Q134 301 146 246T186 144T258 71T369 43ZM343 831Q343 809 327 793T289 777Q267 777 252 793T237 831Q237 853 252 868T289 884Q312 884 327 869T343 831ZM502 831Q502
809 487 793T449 777Q427 777 412 793T396 831Q396 853 411 868T449 884Q472 884 487 869T502 831Z" />
<glyph unicode="&#xd7;" horiz-adv-x="534" d="M267 210L111 54L77 89L234 245L77 401L111 435L267 279L423 435L457 401L300 245L457 89L423 54L267 210Z" />
<glyph unicode="&#xd8;" horiz-adv-x="737" d="M370 -11Q290 -11 232 19T135 103T79 222T60 361Q60 433 78 500T134 620T231 704T371 735Q451 735 508 704T603 619T659 500T677 362Q677 290 659 223T604 104T509 20T370 -11ZM369 43Q436 43 481 71T554 147T594
251T607 364Q607 421 595 476T554 578T481 651T370 679Q304 679 259 651T186 575T146 471T134 358Q134 301 146 246T186 144T258 71T369 43ZM127 -56L84 -27L596 758L642 734L127 -56Z" />
<glyph unicode="&#xd9;" horiz-adv-x="707" d="M166 726V243Q166 152 207 98T347 43Q416 43 460 71T527 150T549 265V726H607V247Q607 174 579 115T494 22T348 -13Q230 -13 163 47T95 226V657L81 726H166ZM304 896L394 771H329L195 896H304Z" />
<glyph unicode="&#xda;" horiz-adv-x="707" d="M166 726V243Q166 152 207 98T347 43Q416 43 460 71T527 150T549 265V726H607V247Q607 174 579 115T494 22T348 -13Q230 -13 163 47T95 226V657L81 726H166ZM406 896H516L381 771H317L406 896Z" />
<glyph unicode="&#xdb;" horiz-adv-x="707" d="M166 726V243Q166 152 207 98T347 43Q416 43 460 71T527 150T549 265V726H607V247Q607 174 579 115T494 22T348 -13Q230 -13 163 47T95 226V657L81 726H166ZM358 835L268 764H208L320 904H395L498 765H442L358 835Z" />
<glyph unicode="&#xdc;" horiz-adv-x="707" d="M166 726V243Q166 152 207 98T347 43Q416 43 460 71T527 150T549 265V726H607V247Q607 174 579 115T494 22T348 -13Q230 -13 163 47T95 226V657L81 726H166ZM329 831Q329 809 313 793T275 777Q253 777 238 793T223
831Q223 853 238 868T275 884Q298 884 313 869T329 831ZM488 831Q488 809 473 793T435 777Q413 777 398 793T382 831Q382 853 397 868T435 884Q458 884 473 869T488 831Z" />
<glyph unicode="&#xdd;" horiz-adv-x="584" d="M131 726L312 437L472 726H542L337 374V0H262V374L44 726H131ZM349 896H459L324 771H260L349 896Z" />
<glyph unicode="&#xde;" horiz-adv-x="575" d="M171 726V608H281Q352 608 407 588T493 522T525 401Q525 327 492 279T404 208T282 185H171V2H101V657L85 726H171ZM290 238Q364 238 408 283T452 401Q452 473 411 514T291 555H170V238H290Z" />
<glyph unicode="&#xdf;" horiz-adv-x="532" d="M43 443V482Q84 482 99 492T120 525T132 583Q143 630 165 665T222 719T306 739Q352 739 385 724T437 685T455 632Q455 588 439 556T400 499T354 454T315 414T299 371Q299 342 314 323T354 289T407 262T459 231T499
187T515 120Q515 66 487 34T414 -8T323 -9T240 29L271 79Q290 55 320 46T380 41T431 65T452 115Q452 142 437 160T397 193T345 222T294 254T254 297T238 359Q238 389 253 414T291 461T336 507T373 556T389 615Q389 629 382 645T356 672T305 683Q263 683 238 663T200
612T183 545T178 479V0H116V443H43Z" />
<glyph unicode="&#xe0;" horiz-adv-x="494" d="M252 509Q331 509 369 465T407 344V79Q407 63 414 57T432 50Q440 50 450 53T469 60L487 13Q474 6 452 -2T401 -10Q380 -10 360 4T336 59Q306 33 267 11T186 -11Q127 -11 89 25T51 122Q51 180 79 213T153 263T249
285T344 291V338Q344 367 337 393T311 436T255 453Q215 453 180 440T104 394L67 442Q107 477 154 493T252 509ZM344 235Q314 235 275 233T200 220T139 186T115 120Q115 82 139 65T205 47Q245 47 276 69T326 126T344 198V235ZM187 732L277 587H212L77 732H187Z"
/>
<glyph unicode="&#xe1;" horiz-adv-x="494" d="M252 509Q331 509 369 465T407 344V79Q407 63 414 57T432 50Q440 50 450 53T469 60L487 13Q474 6 452 -2T401 -10Q380 -10 360 4T336 59Q306 33 267 11T186 -11Q127 -11 89 25T51 122Q51 180 79 213T153 263T249
285T344 291V338Q344 367 337 393T311 436T255 453Q215 453 180 440T104 394L67 442Q107 477 154 493T252 509ZM344 235Q314 235 275 233T200 220T139 186T115 120Q115 82 139 65T205 47Q245 47 276 69T326 126T344 198V235ZM290 732H400L266 587H201L290 732Z"
/>
<glyph unicode="&#xe2;" horiz-adv-x="494" d="M252 509Q331 509 369 465T407 344V79Q407 63 414 57T432 50Q440 50 450 53T469 60L487 13Q474 6 452 -2T401 -10Q380 -10 360 4T336 59Q306 33 267 11T186 -11Q127 -11 89 25T51 122Q51 180 79 213T153 263T249
285T344 291V338Q344 367 337 393T311 436T255 453Q215 453 180 440T104 394L67 442Q107 477 154 493T252 509ZM344 235Q314 235 275 233T200 220T139 186T115 120Q115 82 139 65T205 47Q245 47 276 69T326 126T344 198V235ZM239 670L154 581H97L202 739H277L387
579H328L239 670Z" />
<glyph unicode="&#xe3;" horiz-adv-x="494" d="M252 509Q331 509 369 465T407 344V79Q407 63 414 57T432 50Q440 50 450 53T469 60L487 13Q474 6 452 -2T401 -10Q380 -10 360 4T336 59Q306 33 267 11T186 -11Q127 -11 89 25T51 122Q51 180 79 213T153 263T249
285T344 291V338Q344 367 337 393T311 436T255 453Q215 453 180 440T104 394L67 442Q107 477 154 493T252 509ZM344 235Q314 235 275 233T200 220T139 186T115 120Q115 82 139 65T205 47Q245 47 276 69T326 126T344 198V235ZM388 698Q384 681 375 660T351 624T314
609Q285 609 260 618T210 637T155 647Q142 647 137 639T124 622H83Q88 643 99 664T129 699T171 713Q197 713 222 704T272 684T316 674Q328 674 336 681T350 698H388Z" />
<glyph unicode="&#xe4;" horiz-adv-x="494" d="M252 509Q331 509 369 465T407 344V79Q407 63 414 57T432 50Q440 50 450 53T469 60L487 13Q474 6 452 -2T401 -10Q380 -10 360 4T336 59Q306 33 267 11T186 -11Q127 -11 89 25T51 122Q51 180 79 213T153 263T249
285T344 291V338Q344 367 337 393T311 436T255 453Q215 453 180 440T104 394L67 442Q107 477 154 493T252 509ZM344 235Q314 235 275 233T200 220T139 186T115 120Q115 82 139 65T205 47Q245 47 276 69T326 126T344 198V235ZM213 660Q213 638 197 622T159 606Q137
606 122 622T107 660Q107 682 122 697T159 713Q182 713 197 698T213 660ZM372 660Q372 638 357 622T319 606Q297 606 282 622T266 660Q266 682 281 697T319 713Q342 713 357 698T372 660Z" />
<glyph unicode="&#xe5;" horiz-adv-x="494" d="M252 509Q331 509 369 465T407 344V79Q407 63 414 57T432 50Q440 50 450 53T469 60L487 13Q474 6 452 -2T401 -10Q380 -10 360 4T336 59Q306 33 267 11T186 -11Q127 -11 89 25T51 122Q51 180 79 213T153 263T249
285T344 291V338Q344 367 337 393T311 436T255 453Q215 453 180 440T104 394L67 442Q107 477 154 493T252 509ZM344 235Q314 235 275 233T200 220T139 186T115 120Q115 82 139 65T205 47Q245 47 276 69T326 126T344 198V235ZM239 752Q266 752 287 739T320 705T333
656Q333 618 305 590T239 561Q201 561 173 589T144 656Q144 682 157 704T192 739T239 752ZM240 708Q218 708 203 694T187 657Q187 634 202 619T240 604Q260 604 275 620T291 656Q291 677 276 692T240 708Z" />
<glyph unicode="&#xe6;" horiz-adv-x="785" d="M51 122Q51 180 79 213T153 263T249 285T344 291V338Q344 367 337 393T311 436T255 453Q230 453 201 448T146 429T104 394L67 442Q107 477 154 493T252 509Q306 509 344 489T400 430Q428 465 468 486T563 508Q619
508 657 487T716 424T737 322Q737 309 736 296T734 268H412Q412 196 433 148T490 76T565 51Q598 51 635 62T698 93L728 44Q704 25 679 12T625 -7T565 -14Q494 -14 448 19T375 104Q338 44 290 17T186 -11Q127 -11 89 25T51 122ZM115 120Q115 82 139 65T205 47Q245
47 276 69T326 126T344 198V235Q314 235 275 233T200 220T139 186T115 120ZM419 321H670Q670 391 638 423T554 455Q520 455 492 436T446 386T419 321Z" />
<glyph unicode="&#xe7;" horiz-adv-x="450" d="M269 508Q307 508 344 497T422 456L385 407Q355 433 326 443T275 454Q246 454 219 442T169 405T133 341T120 248Q120 148 166 97T279 46Q309 46 337 55T395 81L420 38Q380 11 343 -1T261 -14Q205 -14 158 18T82 110T53
255Q53 334 84 390T166 477T269 508ZM239 9H279L251 -45Q306 -45 336 -67T367 -128Q367 -174 334 -197T256 -220Q231 -220 206 -214T159 -193L181 -149Q195 -161 211 -166T243 -171Q263 -171 276 -162T290 -133Q290 -109 277 -97T234 -84Q225 -84 214 -85T189 -89L239
9Z" />
<glyph unicode="&#xe8;" horiz-adv-x="494" d="M273 508Q328 508 366 487T425 424T446 322Q446 309 446 296T443 268H121Q121 165 165 108T284 51Q312 51 342 59T407 84L437 44Q402 14 362 0T274 -14Q215 -14 173 9T105 70T66 153T53 242Q53 290 66 337T106 423T174
485T273 508ZM263 455Q229 455 202 436T156 386T129 321H379Q378 369 364 398T324 441T263 455ZM215 732L305 587H240L105 732H215Z" />
<glyph unicode="&#xe9;" horiz-adv-x="494" d="M273 508Q328 508 366 487T425 424T446 322Q446 309 446 296T443 268H121Q121 165 165 108T284 51Q312 51 342 59T407 84L437 44Q402 14 362 0T274 -14Q215 -14 173 9T105 70T66 153T53 242Q53 290 66 337T106 423T174
485T273 508ZM263 455Q229 455 202 436T156 386T129 321H379Q378 369 364 398T324 441T263 455ZM318 732H428L294 587H229L318 732Z" />
<glyph unicode="&#xea;" horiz-adv-x="494" d="M273 508Q328 508 366 487T425 424T446 322Q446 309 446 296T443 268H121Q121 165 165 108T284 51Q312 51 342 59T407 84L437 44Q402 14 362 0T274 -14Q215 -14 173 9T105 70T66 153T53 242Q53 290 66 337T106 423T174
485T273 508ZM263 455Q229 455 202 436T156 386T129 321H379Q378 369 364 398T324 441T263 455ZM267 670L182 581H125L230 739H305L415 579H356L267 670Z" />
<glyph unicode="&#xeb;" horiz-adv-x="494" d="M273 508Q328 508 366 487T425 424T446 322Q446 309 446 296T443 268H121Q121 165 165 108T284 51Q312 51 342 59T407 84L437 44Q402 14 362 0T274 -14Q215 -14 173 9T105 70T66 153T53 242Q53 290 66 337T106 423T174
485T273 508ZM263 455Q229 455 202 436T156 386T129 321H379Q378 369 364 398T324 441T263 455ZM241 660Q241 638 225 622T187 606Q165 606 150 622T135 660Q135 682 150 697T187 713Q210 713 225 698T241 660ZM400 660Q400 638 385 622T347 606Q325 606 310 622T294
660Q294 682 309 697T347 713Q370 713 385 698T400 660Z" />
<glyph unicode="&#xec;" horiz-adv-x="253" d="M94 435Q94 436 91 450T85 479T81 497H158V0H94V435ZM329 732L419 587H354L219 732H329Z" />
<glyph unicode="&#xed;" horiz-adv-x="253" d="M94 435Q94 436 91 450T85 479T81 497H158V0H94V435ZM176 732H286L152 587H87L176 732Z" />
<glyph unicode="&#xee;" horiz-adv-x="253" d="M94 435Q94 436 91 450T85 479T81 497H158V0H94V435ZM381 670L296 581H239L344 739H419L529 579H470L381 670Z" />
<glyph unicode="&#xef;" horiz-adv-x="253" d="M94 435Q94 436 91 450T85 479T81 497H158V0H94V435ZM355 660Q355 638 339 622T301 606Q279 606 264 622T249 660Q249 682 264 697T301 713Q324 713 339 698T355 660ZM514 660Q514 638 499 622T461 606Q439 606 424
622T408 660Q408 682 423 697T461 713Q484 713 499 698T514 660Z" />
<glyph unicode="&#xf0;" horiz-adv-x="536" d="M268 502Q292 502 313 497T353 484Q330 530 302 572T245 651L133 589L110 620L220 682Q204 700 189 715T161 743L198 766Q210 756 226 740T260 704L371 765L393 732L286 674Q320 634 354 585T417 480T463 365T481
246Q481 180 457 122T385 27T268 -9Q199 -9 152 27T80 121T55 246Q55 313 79 371T151 466T268 502ZM268 454Q226 454 198 434T153 382T128 314T120 246Q120 214 127 178T152 110T198 58T268 38Q310 38 338 58T383 110T408 178T416 246Q416 278 409 314T384 382T338
434T268 454Z" />
<glyph unicode="&#xf1;" horiz-adv-x="547" d="M122 503Q129 485 134 467T142 429Q172 461 213 484T298 508Q352 508 386 485T436 422T452 330V0H391V295Q391 330 386 364T362 422T296 445Q267 445 241 435T191 409T145 373V0H83V350Q83 372 80 398T70 449T49
493L122 503ZM429 698Q425 681 416 660T392 624T355 609Q326 609 301 618T251 637T196 647Q183 647 178 639T165 622H124Q129 643 140 664T170 699T212 713Q238 713 263 704T313 684T357 674Q369 674 377 681T391 698H429Z" />
<glyph unicode="&#xf2;" horiz-adv-x="538" d="M265 -14Q193 -14 146 23T76 120T53 244Q53 293 67 340T108 425T176 485T271 508Q344 508 391 471T461 375T484 250Q484 201 471 154T430 69T361 9T265 -14ZM266 41Q307 41 336 60T383 110T410 177T419 248Q419 283
411 319T386 386T340 436T270 455Q229 455 200 436T153 387T127 320T118 248Q118 215 126 179T153 112T199 61T266 41ZM211 732L301 587H236L101 732H211Z" />
<glyph unicode="&#xf3;" horiz-adv-x="538" d="M265 -14Q193 -14 146 23T76 120T53 244Q53 293 67 340T108 425T176 485T271 508Q344 508 391 471T461 375T484 250Q484 201 471 154T430 69T361 9T265 -14ZM266 41Q307 41 336 60T383 110T410 177T419 248Q419 283
411 319T386 386T340 436T270 455Q229 455 200 436T153 387T127 320T118 248Q118 215 126 179T153 112T199 61T266 41ZM314 732H424L290 587H225L314 732Z" />
<glyph unicode="&#xf4;" horiz-adv-x="538" d="M265 -14Q193 -14 146 23T76 120T53 244Q53 293 67 340T108 425T176 485T271 508Q344 508 391 471T461 375T484 250Q484 201 471 154T430 69T361 9T265 -14ZM266 41Q307 41 336 60T383 110T410 177T419 248Q419 283
411 319T386 386T340 436T270 455Q229 455 200 436T153 387T127 320T118 248Q118 215 126 179T153 112T199 61T266 41ZM263 670L178 581H121L226 739H301L411 579H352L263 670Z" />
<glyph unicode="&#xf5;" horiz-adv-x="538" d="M265 -14Q193 -14 146 23T76 120T53 244Q53 293 67 340T108 425T176 485T271 508Q344 508 391 471T461 375T484 250Q484 201 471 154T430 69T361 9T265 -14ZM266 41Q307 41 336 60T383 110T410 177T419 248Q419 283
411 319T386 386T340 436T270 455Q229 455 200 436T153 387T127 320T118 248Q118 215 126 179T153 112T199 61T266 41ZM412 698Q408 681 399 660T375 624T338 609Q309 609 284 618T234 637T179 647Q166 647 161 639T148 622H107Q112 643 123 664T153 699T195 713Q221
713 246 704T296 684T340 674Q352 674 360 681T374 698H412Z" />
<glyph unicode="&#xf6;" horiz-adv-x="538" d="M265 -14Q193 -14 146 23T76 120T53 244Q53 293 67 340T108 425T176 485T271 508Q344 508 391 471T461 375T484 250Q484 201 471 154T430 69T361 9T265 -14ZM266 41Q307 41 336 60T383 110T410 177T419 248Q419 283
411 319T386 386T340 436T270 455Q229 455 200 436T153 387T127 320T118 248Q118 215 126 179T153 112T199 61T266 41ZM237 660Q237 638 221 622T183 606Q161 606 146 622T131 660Q131 682 146 697T183 713Q206 713 221 698T237 660ZM396 660Q396 638 381 622T343
606Q321 606 306 622T290 660Q290 682 305 697T343 713Q366 713 381 698T396 660Z" />
<glyph unicode="&#xf7;" horiz-adv-x="630" d="M368 404Q368 382 353 367T317 352Q296 352 280 367T264 404Q264 424 280 440T317 456Q337 456 352 440T368 404ZM69 275H569V215H69V275ZM367 87Q367 67 352 52T316 37Q295 37 280 52T264 87Q264 109 279 123T316
138Q337 138 352 124T367 87Z" />
<glyph unicode="&#xf8;" horiz-adv-x="538" d="M265 -14Q193 -14 146 23T76 120T53 244Q53 293 67 340T108 425T176 485T271 508Q344 508 391 471T461 375T484 250Q484 201 471 154T430 69T361 9T265 -14ZM266 41Q307 41 336 60T383 110T410 177T419 248Q419 283
411 319T386 386T340 436T270 455Q229 455 200 436T153 387T127 320T118 248Q118 215 126 179T153 112T199 61T266 41ZM105 -49L66 -24L419 546L461 524L105 -49Z" />
<glyph unicode="&#xf9;" horiz-adv-x="553" d="M150 497V196Q150 163 155 129T180 73T242 50Q283 50 317 68T373 118T394 193V435Q394 436 391 450T385 480T381 497H457V80Q457 66 462 58T480 50Q495 50 518 60L536 13Q516 1 494 -4T451 -10Q428 -10 411 5T388
59Q360 31 321 10T241 -12Q188 -12 154 11T103 74T87 166V435L73 497H150ZM223 732L313 587H248L113 732H223Z" />
<glyph unicode="&#xfa;" horiz-adv-x="553" d="M150 497V196Q150 163 155 129T180 73T242 50Q283 50 317 68T373 118T394 193V435Q394 436 391 450T385 480T381 497H457V80Q457 66 462 58T480 50Q495 50 518 60L536 13Q516 1 494 -4T451 -10Q428 -10 411 5T388
59Q360 31 321 10T241 -12Q188 -12 154 11T103 74T87 166V435L73 497H150ZM326 732H436L302 587H237L326 732Z" />
<glyph unicode="&#xfb;" horiz-adv-x="553" d="M150 497V196Q150 163 155 129T180 73T242 50Q283 50 317 68T373 118T394 193V435Q394 436 391 450T385 480T381 497H457V80Q457 66 462 58T480 50Q495 50 518 60L536 13Q516 1 494 -4T451 -10Q428 -10 411 5T388
59Q360 31 321 10T241 -12Q188 -12 154 11T103 74T87 166V435L73 497H150ZM275 670L190 581H133L238 739H313L423 579H364L275 670Z" />
<glyph unicode="&#xfc;" horiz-adv-x="553" d="M150 497V196Q150 163 155 129T180 73T242 50Q283 50 317 68T373 118T394 193V435Q394 436 391 450T385 480T381 497H457V80Q457 66 462 58T480 50Q495 50 518 60L536 13Q516 1 494 -4T451 -10Q428 -10 411 5T388
59Q360 31 321 10T241 -12Q188 -12 154 11T103 74T87 166V435L73 497H150ZM249 660Q249 638 233 622T195 606Q173 606 158 622T143 660Q143 682 158 697T195 713Q218 713 233 698T249 660ZM408 660Q408 638 393 622T355 606Q333 606 318 622T302 660Q302 682 317
697T355 713Q378 713 393 698T408 660Z" />
<glyph unicode="&#xfd;" horiz-adv-x="456" d="M89 497Q109 439 129 380T171 259Q185 217 201 175T232 90Q248 133 263 175T293 259Q315 321 335 380T375 497H437L261 -1Q251 -29 236 -65T198 -136T147 -193T82 -215H44V-157Q46 -156 46 -156T47 -156Q91 -156
120 -130T169 -67T202 6L19 497H89ZM281 732H391L257 587H192L281 732Z" />
<glyph unicode="&#xfe;" horiz-adv-x="556" d="M296 506Q349 506 387 484T450 424T487 341T499 249Q499 199 486 152T446 67T379 7T282 -15Q244 -15 209 -2T148 37Q150 23 150 11T150 -9V-154L164 -215H88L87 698L73 758H149V434Q177 467 214 486T296 506ZM275
442Q237 442 206 418T150 368V198Q150 155 164 120T208 65T284 44Q327 44 356 61T402 106T426 170T434 243Q434 281 426 317T398 381T349 425T275 442Z" />
<glyph unicode="&#xff;" horiz-adv-x="456" d="M89 497Q109 439 129 380T171 259Q185 217 201 175T232 90Q248 133 263 175T293 259Q315 321 335 380T375 497H437L261 -1Q251 -29 236 -65T198 -136T147 -193T82 -215H44V-157Q46 -156 46 -156T47 -156Q91 -156
120 -130T169 -67T202 6L19 497H89ZM204 660Q204 638 188 622T150 606Q128 606 113 622T98 660Q98 682 113 697T150 713Q173 713 188 698T204 660ZM363 660Q363 638 348 622T310 606Q288 606 273 622T257 660Q257 682 272 697T310 713Q333 713 348 698T363 660Z"
/>
<glyph unicode="&#x2013;" horiz-adv-x="490" d="M0 285H490V240H0V285Z" />
<glyph unicode="&#x2014;" horiz-adv-x="840" d="M0 284H840V240H0V284Z" />
<glyph unicode="&#x2018;" horiz-adv-x="286" d="M171 730L202 700Q194 690 182 679T161 656T152 630Q152 616 165 606T190 583T203 545Q203 521 186 506T146 490Q112 490 93 514T73 571Q73 621 102 661T171 730Z" />
<glyph unicode="&#x2019;" horiz-adv-x="286" d="M74 518Q83 528 95 538T115 561T124 588Q124 602 111 612T86 635T73 672Q73 695 91 711T132 727Q167 727 185 703T204 646Q204 597 175 557T105 487L74 518Z" />
<glyph unicode="&#x201a;" horiz-adv-x="276" d="M69 -93Q78 -83 90 -73T111 -50T120 -23Q120 -9 107 1T81 24T68 61Q68 85 85 100T127 116Q162 116 180 92T199 35Q199 -14 169 -54T100 -123L69 -93Z" />
<glyph unicode="&#x201c;" horiz-adv-x="487" d="M204 545Q204 521 187 506T147 490Q113 490 94 514T74 571Q74 621 103 661T172 730L203 700Q195 690 183 679T162 656T153 630Q153 616 166 606T191 583T204 545ZM395 545Q395 521 379 506T338 490Q304 490 285
514T265 571Q265 621 294 661T363 730L395 700Q386 690 374 679T353 656T344 630Q344 616 357 606T382 583T395 545Z" />
<glyph unicode="&#x201d;" horiz-adv-x="487" d="M80 518Q89 528 101 538T122 561T131 588Q131 602 118 612T93 635T80 672Q80 695 97 711T138 727Q173 727 191 703T210 646Q210 597 181 557T111 487L80 518ZM271 518Q280 528 292 538T313 561T322 588Q322 602
310 612T284 635T271 672Q271 695 288 711T329 727Q364 727 382 703T401 646Q401 597 372 557T303 487L271 518Z" />
<glyph unicode="&#x201e;" horiz-adv-x="477" d="M82 -93Q91 -83 102 -73T123 -50T132 -23Q132 -9 119 1T94 24T81 61Q81 85 98 100T140 116Q175 116 193 92T211 35Q211 -14 182 -54T113 -123L82 -93ZM264 -93Q273 -83 285 -73T306 -50T315 -23Q315 -9 302 1T276
24T263 61Q263 85 280 100T322 116Q357 116 375 92T394 35Q394 -14 364 -54T295 -123L264 -93Z" />
<glyph unicode="&#x2022;" horiz-adv-x="441" d="M221 479Q255 479 282 463T325 419T342 357Q342 324 326 296T282 252T220 235Q187 235 160 251T116 296T99 357Q99 391 115 418T159 462T221 479Z" />
<glyph unicode="&#x2039;" horiz-adv-x="298" d="M51 334L193 493L245 482L131 334L247 182L197 176L51 334Z" />
<glyph unicode="&#x203a;" horiz-adv-x="329" d="M262 330L118 173L66 179L183 330L69 479L122 490L262 330Z" />
</font>
</defs>
</svg>
