<?xml version="1.0" standalone="no"?>
<!DOCTYPE svg PUBLIC "-//W3C//DTD SVG 1.1//EN" "http://www.w3.org/Graphics/SVG/1.1/DTD/svg11.dtd">
<svg xmlns="http://www.w3.org/2000/svg">
<defs >
<font id="Rosario" horiz-adv-x="517" ><font-face
    font-family="Rosario"
    units-per-em="1000"
    panose-1="0 0 0 0 0 0 0 0 0 0"
    ascent="977"
    descent="-235"
    alphabetic="0" />
<glyph unicode=" " horiz-adv-x="230" />
<glyph unicode="!" horiz-adv-x="329" d="M106 728H223L194 217H135L106 728ZM231 53Q231 26 212 7T165 -13Q138 -13 119 6T99 53Q99 81 118 100T165 119Q192 119 211 100T231 53Z" />
<glyph unicode="&quot;" horiz-adv-x="367" d="M96 441Q95 444 91 462T82 501T73 539T69 556V734H152V556L125 441H96ZM242 441L215 556V734H299V556L271 441H242Z" />
<glyph unicode="#" horiz-adv-x="640" d="M283 488H395L426 721H497L465 488H588V422H457L440 301H564V236H431L398 -5H327L360 236H249L215 -5H145L178 236H52V301H187L203 422H78V488H212L243 721H316L283 488ZM274 422L258 301H369L386 422H274Z" />
<glyph unicode="$" horiz-adv-x="536" d="M473 644L427 577Q392 603 355 615T284 627Q235 627 201 600T167 516Q167 487 182 468T223 436T280 411Q315 398 351 383T419 344T470 286T490 198Q490 129 459 83T374 13T254 -11Q205 -11 152 2T47 42L83 124Q121 92
164 77T248 61Q287 61 319 75T370 116T390 185Q390 227 369 252T314 293T242 324Q211 336 180 350T123 385T83 435T67 508Q67 570 97 612T177 675T287 697Q333 697 380 684T473 644ZM273 13L258 -138H186L227 13H273ZM259 668L273 812H347L307 668H259Z" />
<glyph unicode="%" horiz-adv-x="907" d="M613 730H679L304 -7H240L613 730ZM214 730Q273 730 308 702T359 626T375 520Q375 463 357 415T301 338T204 309Q146 309 111 338T59 415T43 520Q43 578 61 625T118 701T214 730ZM209 678Q167 678 146 654T117 594T109
520Q109 482 116 446T145 386T209 362Q252 362 273 385T301 445T308 520Q308 558 301 594T273 654T209 678ZM703 411Q762 411 797 383T848 307T864 201Q864 144 846 96T790 19T693 -10Q635 -10 600 19T548 96T532 201Q532 259 550 306T607 382T703 411ZM698 358Q656
358 635 334T606 274T598 201Q598 163 605 127T634 67T698 43Q741 43 762 66T790 126T797 201Q797 239 790 275T762 334T698 358ZM214 730H634V678H209L214 730Z" />
<glyph unicode="&amp;" horiz-adv-x="661" d="M595 327Q548 159 459 75T239 -9Q169 -9 122 18T52 90T28 185Q28 256 72 317T211 416L237 355Q182 337 152 298T122 200Q122 164 137 131T181 76T256 55Q313 55 366 86T459 181T516 341L595 327ZM676 -2Q658 -5 641
-6T607 -8Q538 -8 481 9T378 59Q312 108 258 182T171 344T139 522Q139 567 149 606T179 674T231 721T306 738Q368 738 403 703T438 607Q438 564 418 518T353 429T240 357L219 417Q266 436 294 467T336 534T349 601Q349 636 338 655T300 674Q266 674 249 640T231
537Q231 451 260 370T339 222T448 116Q487 90 528 77T611 64Q625 64 638 65T665 69L676 -2Z" />
<glyph unicode="&apos;" horiz-adv-x="226" d="M98 445Q97 448 93 466T84 505T75 543T71 560V738H155V560L127 445H98Z" />
<glyph unicode="(" horiz-adv-x="306" d="M218 -138Q139 -46 92 66T44 302Q44 425 91 538T218 743L285 733Q233 669 199 601T149 458T132 302Q132 220 148 146T199 4T285 -129L218 -138Z" />
<glyph unicode=")" horiz-adv-x="306" d="M262 302Q262 179 215 67T88 -138L21 -129Q73 -65 107 3T158 145T175 302Q175 385 158 459T107 601T21 733L88 743Q168 651 215 538T262 302Z" />
<glyph unicode="*" horiz-adv-x="510" d="M212 731H290L273 591H232L212 731ZM287 583L408 647L437 569L300 541L287 583ZM93 643L221 582L208 546L72 567L93 643ZM212 530L246 503L178 381L117 426L212 530ZM261 503L294 526L392 427L329 379L261 503Z" />
<glyph unicode="+" horiz-adv-x="642" d="M352 0H282V215H68V283H282V497H352V283H567V215H352V0Z" />
<glyph unicode="," horiz-adv-x="235" d="M108 124Q144 124 163 99T183 39Q183 -13 153 -55T81 -127Q73 -119 64 -110T47 -93Q56 -84 67 -73T87 -48T96 -22Q96 -8 84 1T59 25T46 64Q46 90 64 107T108 124Z" />
<glyph unicode="-" horiz-adv-x="313" d="M41 299H272V224H41V299Z" />
<glyph unicode="." horiz-adv-x="228" d="M174 56Q174 29 155 10T108 -10Q81 -10 62 9T42 56Q42 84 61 103T108 122Q135 122 154 103T174 56Z" />
<glyph unicode="/" horiz-adv-x="326" d="M264 727H331L64 -9H-5L264 727Z" />
<glyph unicode="0" horiz-adv-x="580" d="M296 509Q374 509 426 475T504 381T531 248Q531 174 502 115T417 22T284 -13Q207 -13 155 21T76 115T49 248Q49 323 78 382T163 475T296 509ZM290 446Q247 446 218 429T172 384T147 320T139 248Q139 211 146 176T171 112T217
67T290 50Q334 50 363 67T409 112T433 175T440 248Q440 285 433 320T409 384T363 429T290 446Z" />
<glyph unicode="1" horiz-adv-x="387" d="M47 67H164V404L44 367L26 414L197 497H247V67H360V-1H47V67Z" />
<glyph unicode="2" horiz-adv-x="466" d="M248 509Q289 509 323 496T379 456T401 385Q401 326 368 273T278 170T148 68H425L405 -1H31V57Q108 112 161 156T246 238T292 309T306 374Q306 412 287 429T238 446Q206 446 167 429T95 381L50 434Q101 475 149 492T248 509Z" />
<glyph unicode="3" horiz-adv-x="400" d="M212 510Q282 510 317 480T352 400Q352 362 336 328T289 262T210 203Q246 202 280 186T336 139T358 59Q358 8 339 -31T287 -98T213 -146T125 -177T34 -192T-50 -196L-55 -152Q-1 -149 55 -137T157 -101T233 -38T262 54Q262
105 234 129T164 154Q150 154 134 151T101 143L78 191Q120 208 153 232T211 283T248 339T261 392Q261 416 247 431T200 446Q166 446 128 428T66 382L22 439Q63 474 114 492T212 510Z" />
<glyph unicode="4" horiz-adv-x="457" d="M249 498H347V69H448L430 0H347V-185H264V0H-8V40L249 498ZM264 399L84 69H264V399Z" />
<glyph unicode="5" horiz-adv-x="364" d="M116 497H362L338 412H151L108 306Q194 270 247 214T300 75Q300 14 276 -34T209 -118T112 -177T-5 -209L-18 -165Q52 -147 101 -120T177 -47T204 69Q204 116 180 155T115 224T21 273L116 497Z" />
<glyph unicode="6" horiz-adv-x="526" d="M444 732L465 685Q377 649 315 596T215 482T158 358T140 239Q140 186 155 143T199 75T267 50Q306 50 333 72T373 128T387 199Q387 234 374 265T336 317T270 337Q237 337 201 324T129 282L141 346Q174 376 214 390T293
405Q357 405 399 378T462 307T483 214Q483 173 469 133T426 59T356 7T259 -13Q204 -13 155 14T75 96T44 235Q44 324 77 403T167 547T295 659T444 732Z" />
<glyph unicode="7" horiz-adv-x="425" d="M35 497H405V455L127 -185H25L324 422H15L35 497Z" />
<glyph unicode="8" horiz-adv-x="492" d="M255 729Q297 729 335 712T396 660T420 571Q420 520 390 469T297 378L251 417Q297 446 320 486T343 566Q343 601 330 624T297 659T255 671Q232 671 211 659T176 622T162 559Q162 522 178 497T221 451T279 408Q308 389
337 368T390 320T430 260T445 182Q445 118 415 75T337 10T237 -11Q188 -10 145 9T74 68T47 164Q47 210 64 247T114 317T194 381L234 342Q188 312 166 282T136 223T129 167Q129 128 145 102T186 62T238 49Q266 49 291 62T332 103T349 172Q349 213 327 242T269 295T198
347Q165 372 136 399T89 463T70 549Q70 605 97 645T167 707T255 729Z" />
<glyph unicode="9" horiz-adv-x="524" d="M265 509Q321 509 370 482T449 401T480 261Q480 172 447 96T357 -41T229 -146T80 -216L59 -169Q147 -133 209 -83T309 24T366 142T384 257Q384 311 369 353T325 421T257 446Q218 446 192 424T151 368T137 297Q137 262
150 231T189 179T254 159Q287 159 323 172T395 214L383 150Q350 120 310 106T231 91Q167 91 125 118T62 189T41 282Q41 323 55 363T98 437T168 489T265 509Z" />
<glyph unicode=":" horiz-adv-x="331" d="M228 368Q228 341 209 322T162 302Q135 302 116 321T96 368Q96 395 115 414T162 434Q189 434 208 415T228 368ZM228 53Q228 26 209 7T162 -13Q135 -13 116 6T96 53Q96 80 115 99T162 119Q189 119 208 100T228 53Z" />
<glyph unicode=";" horiz-adv-x="334" d="M162 434Q189 434 208 415T228 368Q228 340 209 321T162 302Q135 302 116 321T96 368Q96 395 115 414T162 434ZM153 124Q189 124 208 99T228 39Q228 -13 198 -55T126 -127L92 -93Q101 -84 112 -73T132 -48T141 -22Q141
-8 129 1T104 25T91 64Q91 90 109 107T153 124Z" />
<glyph unicode="&lt;" horiz-adv-x="630" d="M66 287L564 503V426L159 249L564 72V-4L66 214V287Z" />
<glyph unicode="=" horiz-adv-x="630" d="M68 376H567V306H68V376ZM68 183H567V113H68V183Z" />
<glyph unicode="&gt;" horiz-adv-x="630" d="M66 72L471 249L66 426V503L564 287V214L66 -4V72Z" />
<glyph unicode="?" horiz-adv-x="438" d="M189 723Q240 723 285 705T358 649T387 554Q387 504 366 466T308 402T222 360V217H157V412Q192 418 224 435T278 480T299 548Q299 601 262 626T174 651Q149 651 124 643T78 620L51 687Q77 703 116 713T189 723ZM186 119Q213
119 232 100T252 53Q252 26 233 7T186 -13Q159 -13 140 6T120 53Q120 81 139 100T186 119Z" />
<glyph unicode="@" horiz-adv-x="1026" d="M552 728Q638 728 714 702T850 624T942 500T976 331Q976 270 959 210T910 101T833 23T730 -6Q699 -6 672 0T626 23T598 74H594Q571 33 532 10T451 -13Q397 -13 364 15T315 90T299 193Q299 249 314 304T361 404T439 476T550
503Q578 503 606 494T660 459L682 495H726Q711 396 701 329T684 219T674 152T669 115T668 94Q668 74 682 62T733 50Q775 50 808 74T864 138T899 229T911 331Q911 412 883 475T806 583T691 650T552 673Q444 673 362 632T225 523T143 371T115 201Q115 126 136 57T200
-66T307 -153T459 -185Q510 -185 563 -171L579 -224Q550 -231 520 -235T459 -240Q356 -240 280 -203T152 -104T76 39T50 204Q50 280 70 355T130 498T231 617T372 698T552 728ZM552 441Q506 441 474 419T421 361T391 281T382 194Q382 136 402 94T467 51Q500 51 525
72T570 130T601 212T620 307L635 416Q594 441 552 441Z" />
<glyph unicode="A" horiz-adv-x="631" d="M362 728L614 0H511L427 250H187L102 0H18L271 728H362ZM308 606L210 318H404L308 606Z" />
<glyph unicode="B" horiz-adv-x="614" d="M535 559Q535 522 521 488T479 429T412 397Q462 390 496 363T549 294T568 204Q568 139 544 99T479 37T387 8T283 0H85V662Q85 663 82 678T75 709T71 728H314Q357 728 396 721T467 694T517 643T535 559ZM438 557Q438 597
421 619T374 650T311 659H178V427H285Q332 427 366 439T419 479T438 557ZM469 219Q469 270 443 300T375 344T289 358H178V69H289Q342 69 382 81T446 127T469 219Z" />
<glyph unicode="C" horiz-adv-x="624" d="M378 -12Q292 -12 230 18T126 99T66 216T46 350Q46 425 68 494T132 619T239 706T387 738Q422 738 463 730T543 704T605 659L553 601Q534 623 505 637T445 660T385 668Q327 668 283 642T209 570T164 469T148 355Q148 265
177 200T259 99T384 63Q426 63 475 75T576 113L607 56Q585 40 557 28T497 6T435 -7T378 -12Z" />
<glyph unicode="D" horiz-adv-x="699" d="M653 362Q653 257 618 176T509 47T323 0H86V662Q86 663 83 678T76 709T72 728H259Q350 728 423 708T547 644T626 531T653 362ZM556 364Q556 443 537 499T479 590T384 642T252 659H179V69H311Q402 69 455 109T532 216T556 364Z" />
<glyph unicode="E" horiz-adv-x="549" d="M72 728H509V659H179V408H435V340H179V69H509V0H86V662L72 728Z" />
<glyph unicode="F" horiz-adv-x="510" d="M72 728H475V659H179V408H414V340H179V0H86V662L72 728Z" />
<glyph unicode="G" horiz-adv-x="707" d="M385 738Q424 738 468 730T554 703T624 655L571 593Q540 618 513 634T457 658T385 666Q319 666 274 641T200 573T158 476T145 364Q145 309 157 256T196 158T267 88T375 62Q428 62 466 85T526 149T548 241V307H369L381
375H642V166Q642 125 645 83T651 0H601L569 76Q525 29 475 9T359 -12Q280 -12 222 17T124 98T66 216T47 355Q47 435 68 504T131 626T236 708T385 738Z" />
<glyph unicode="H" horiz-adv-x="714" d="M534 344H180V0H87V662Q87 663 84 678T77 709T73 728H180V412H534V728H627V0H534V344Z" />
<glyph unicode="I" horiz-adv-x="268" d="M73 728H180V0H87V662Q87 663 84 678T77 709T73 728Z" />
<glyph unicode="J" horiz-adv-x="268" d="M73 728H181V61Q181 9 174 -38T146 -121T88 -181T-11 -211L-24 -152Q15 -146 38 -125T71 -74T85 -10T88 55V662L73 728Z" />
<glyph unicode="K" horiz-adv-x="583" d="M72 728H179V403L468 728H565L278 404L583 0H467L179 379V0H86V662L72 728Z" />
<glyph unicode="L" horiz-adv-x="514" d="M72 728H179V69H485V0H86V662L72 728Z" />
<glyph unicode="M" horiz-adv-x="838" d="M209 728L386 255Q395 230 403 206T421 151Q429 181 437 204T454 252L630 728H751V0H659V527Q659 545 660 562T662 600Q656 584 649 567T636 533L440 -1H384L186 538Q181 553 174 569T162 600Q164 581 164 565T165 532V0H89V662L74
728H209Z" />
<glyph unicode="N" horiz-adv-x="714" d="M197 728L515 239Q524 225 534 210T554 180Q553 197 552 214T551 248V728H627V-5H568L197 563Q189 576 180 590T160 618Q162 602 162 586T163 553V0H87V662L73 728H197Z" />
<glyph unicode="O" horiz-adv-x="737" d="M368 -11Q287 -11 227 19T126 101T66 221T46 363Q46 438 65 505T125 625T226 708T369 738Q451 738 511 708T612 626T671 506T691 363Q691 288 671 221T611 101T511 19T368 -11ZM369 57Q433 57 476 84T545 156T582 255T594
363Q594 417 583 471T545 569T476 641T369 668Q306 668 263 641T194 569T157 470T145 362Q145 308 156 255T193 156T262 84T369 57Z" />
<glyph unicode="P" horiz-adv-x="575" d="M71 728H289Q361 728 416 706T503 635T534 508Q534 435 501 386T413 313T290 288H179V0H86V662L71 728ZM179 659V356H288Q357 356 397 398T437 508Q437 579 399 619T289 659H179Z" />
<glyph unicode="Q" horiz-adv-x="737" d="M1155 -175Q1129 -185 1105 -193T1054 -208T999 -218T935 -222Q890 -222 836 -208T726 -173T616 -126T516 -79T438 -42Q408 -28 374 -20T307 -5Q214 16 157 69T73 199T46 363Q46 438 65 505T125 625T226 708T369 738Q451
738 511 708T612 625T671 505T691 363Q691 291 671 223T608 99T493 14Q496 13 500 11T508 7Q530 -4 569 -24T660 -67T766 -110T873 -144T969 -158Q990 -158 1021 -153T1084 -141T1139 -127L1155 -175ZM369 57Q432 57 475 83T544 154T582 253T594 363Q594 418 583
472T545 570T475 641T369 668Q306 668 263 641T194 570T157 471T145 362Q145 308 156 254T194 156T263 84T369 57Z" />
<glyph unicode="R" horiz-adv-x="591" d="M71 728H288Q357 728 413 711T501 649T534 527Q534 487 515 450T465 386T395 346L599 0H491L303 327H178V0H85V662L71 728ZM178 659V395H258Q308 395 348 406T413 448T437 533Q437 576 416 603T361 645T288 659H178Z" />
<glyph unicode="S" horiz-adv-x="516" d="M280 738Q330 738 377 724T468 684L422 617Q391 640 355 653T279 667Q226 667 189 641T152 556Q152 524 169 502T216 462T279 429Q314 413 350 394T417 350T466 288T485 198Q485 126 450 80T358 11T235 -12Q181 -12 131
2T32 42L68 124Q101 96 148 78T238 60Q271 60 305 72T362 113T385 185Q385 229 364 257T309 305T237 343Q204 359 171 376T111 416T68 471T52 548Q52 611 85 653T171 716T280 738Z" />
<glyph unicode="T" horiz-adv-x="578" d="M240 659H24V728H554V659H335V0H240V659Z" />
<glyph unicode="U" horiz-adv-x="707" d="M181 728V244Q181 159 223 108T355 57Q417 57 459 82T522 153T543 258V728H620V258Q620 174 589 114T497 21T351 -12Q226 -12 156 53T86 244V662L71 728H181Z" />
<glyph unicode="V" horiz-adv-x="603" d="M120 728L278 253Q286 228 293 205T308 153Q316 179 322 200T336 245L502 729H582L330 -3H272L21 728H120Z" />
<glyph unicode="W" horiz-adv-x="894" d="M119 728L241 277Q249 250 256 223T270 160Q277 192 283 217T296 268L420 728H494L616 273Q623 248 630 221T644 160Q651 192 657 217T670 266L795 728H873L674 -5H597L470 460Q465 480 459 501T448 551Q442 523 437 501T425
457L300 -5H223L21 728H119Z" />
<glyph unicode="X" horiz-adv-x="585" d="M138 728L573 0H464L31 728H138ZM456 728H556L111 0H12L456 728Z" />
<glyph unicode="Y" horiz-adv-x="584" d="M140 728L309 445L466 728H553L344 360V0H249V360L32 728H140Z" />
<glyph unicode="Z" horiz-adv-x="571" d="M57 728H524V661L146 69H537L529 0H35V67L413 659H57V728Z" />
<glyph unicode="[" horiz-adv-x="351" d="M72 730H280V681H153V-79H280V-128H72V730Z" />
<glyph unicode="\" horiz-adv-x="326" d="M-3 728H66L329 0H262L-3 728Z" />
<glyph unicode="]" horiz-adv-x="350" d="M72 -78H198V681H71V730H279V-127H72V-78Z" />
<glyph unicode="^" horiz-adv-x="618" d="M309 405L133 0H56L271 497H345L562 0H486L309 405Z" />
<glyph unicode="_" horiz-adv-x="499" d="M-9 -66H509V-126H-9V-66Z" />
<glyph unicode="`" horiz-adv-x="281" d="M153 733L249 581H171L31 733H153Z" />
<glyph unicode="a" horiz-adv-x="494" d="M253 509Q332 509 372 466T412 345V96Q412 75 420 68T439 60Q448 60 458 62T477 69L495 15Q479 6 455 -1T404 -9Q378 -9 357 5T331 59Q302 28 263 9T181 -11Q122 -11 83 24T44 120Q44 177 71 211T143 262T236 285T329
291V344Q329 372 322 394T297 430T246 444Q208 444 173 429T103 385L62 444Q103 477 152 493T253 509ZM329 226Q302 226 268 224T202 212T150 181T129 123Q129 90 151 75T208 59Q244 59 271 79T313 130T329 194V226Z" />
<glyph unicode="b" horiz-adv-x="558" d="M305 507Q357 507 396 485T460 426T499 343T512 251Q512 200 499 153T458 69T390 9T293 -13Q251 -13 213 3T147 51L129 -1H79Q80 16 81 33T82 68V704L68 762H165V486Q165 477 165 469T163 451Q195 480 228 493T305 507ZM284
436Q251 436 220 421T165 381V199Q165 157 177 123T216 69T290 49Q328 49 353 68T394 118T416 183T423 248Q423 281 416 314T392 374T349 419T284 436Z" />
<glyph unicode="c" horiz-adv-x="450" d="M274 509Q312 509 350 497T426 458L381 400Q353 423 326 433T274 444Q244 444 219 430T174 391T144 329T133 249Q133 155 175 105T283 55Q312 55 339 64T397 90L424 37Q384 12 347 0T264 -13Q200 -13 151 19T73 112T44
253Q44 331 75 388T159 477T274 509Z" />
<glyph unicode="d" horiz-adv-x="558" d="M267 508Q301 508 335 497T394 463Q393 477 393 490T392 517V703L378 762H474V143Q474 122 477 96T487 46T505 2L417 -9Q410 8 405 25T398 59Q372 25 333 6T251 -13Q199 -13 160 9T96 68T58 151T45 244Q45 295 58 342T99
427T169 486T267 508ZM269 440Q230 440 204 423T162 378T140 317T133 250Q133 216 140 183T164 121T208 77T276 60Q311 60 340 80T392 126V294Q392 334 380 367T340 420T269 440Z" />
<glyph unicode="e" horiz-adv-x="494" d="M270 509Q330 509 371 485T432 417T453 315Q453 301 452 287T448 256H132Q132 161 174 109T286 57Q315 57 346 66T412 93L443 43Q408 15 364 1T275 -13Q216 -13 173 8T101 66T58 149T44 243Q44 293 58 340T100 425T171
486T270 509ZM262 446Q228 446 202 427T160 379T138 318H366Q367 360 355 388T319 431T262 446Z" />
<glyph unicode="f" horiz-adv-x="288" d="M303 770Q331 770 353 765T400 745L377 683Q364 695 344 701T305 708Q270 708 247 695T209 659T188 610T179 553T177 497H320L302 435H177V0H95V435H20V487Q36 489 52 490T81 500T97 527Q107 573 112 601T126 652T155
700Q180 732 217 751T303 770Z" />
<glyph unicode="g" horiz-adv-x="477" d="M220 509Q249 509 275 502T330 495Q368 495 407 499T489 510L471 438H391Q384 438 377 438T362 440Q379 417 387 392T396 341Q396 291 374 251T310 189T206 166Q181 166 162 153T143 113Q143 95 152 88T176 79T204 78H301Q327
78 354 75T405 61T442 30T457 -26Q457 -81 435 -120T376 -183T293 -219T200 -230Q172 -230 141 -224T83 -203T38 -164T21 -104Q21 -66 44 -37T99 12V15Q77 26 65 45T52 87Q52 100 62 111T87 142T121 194Q86 218 65 255T44 336Q44 385 68 424T132 486T220 509ZM221
449Q197 449 177 434T144 394T131 337Q131 305 143 280T175 239T220 224Q261 224 285 255T310 336Q310 368 298 393T265 434T221 449ZM158 -1Q139 -15 123 -39T107 -87Q107 -111 124 -128T167 -153T215 -162Q241 -162 270 -157T324 -139T364 -106T380 -55Q380 -29
364 -18T325 -4T278 -1H158Z" />
<glyph unicode="h" horiz-adv-x="547" d="M164 762V438Q196 468 233 489T315 510Q370 510 403 487T451 425T466 333V0H384V306Q384 337 380 366T358 416T301 436Q276 436 252 426T205 401T164 370V0H82V703L69 762H164Z" />
<glyph unicode="i" horiz-adv-x="251" d="M185 664Q185 639 168 621T124 603Q99 603 82 621T64 664Q64 689 81 707T124 725Q149 725 167 707T185 664ZM167 497V0H84V438L72 497H167Z" />
<glyph unicode="j" horiz-adv-x="251" d="M187 664Q187 639 170 621T126 603Q101 603 83 621T65 664Q65 689 83 707T126 725Q151 725 169 707T187 664ZM167 497V25Q167 -13 162 -54T143 -133T100 -196T25 -228L11 -188Q48 -169 63 -136T81 -63T84 13V438L71 497H167Z" />
<glyph unicode="k" horiz-adv-x="464" d="M164 762V292L350 497H439L248 288L466 0H367L164 270V0H81V703L68 762H164Z" />
<glyph unicode="l" horiz-adv-x="251" d="M167 762V0H84V704L71 762H167Z" />
<glyph unicode="m" horiz-adv-x="829" d="M139 504Q146 488 151 470T158 435Q176 453 199 470T250 498T303 509Q351 509 385 490T440 426Q460 446 485 465T538 496T595 509Q650 509 683 486T732 424T747 332V0H664V305Q664 328 662 350T651 392T627 423T581 435Q546
435 512 413T455 367V0H372V305Q372 328 370 351T360 393T335 423T289 435Q267 435 244 425T200 399T163 369V0H80V361Q80 382 77 406T66 453T48 494L139 504Z" />
<glyph unicode="n" horiz-adv-x="547" d="M138 505Q145 488 150 470T157 434Q187 464 228 486T312 509Q367 509 400 486T449 424T464 332V0H382V305Q382 336 378 366T356 415T298 435Q274 435 249 426T202 401T162 369V0H80V352Q80 372 77 398T67 450T47 493L138 505Z" />
<glyph unicode="o" horiz-adv-x="537" d="M265 -13Q192 -13 143 23T69 119T44 245Q44 295 59 342T103 427T174 487T271 509Q345 509 394 473T468 378T493 251Q493 200 478 153T435 68T364 9T265 -13ZM266 50Q305 50 331 68T374 117T398 181T405 248Q405 281 399
315T377 379T336 427T270 446Q231 446 205 428T162 379T139 315T132 248Q132 217 139 183T161 118T203 69T266 50Z" />
<glyph unicode="p" horiz-adv-x="556" d="M138 504Q146 488 150 471T157 436Q183 469 221 488T303 508Q356 508 395 486T459 427T497 344T510 251Q510 200 496 153T455 68T385 9T287 -13Q253 -13 220 -2T161 32Q163 18 163 4T163 -18V-157L177 -216H81V352Q81
373 78 399T69 450T50 493L138 504ZM278 435Q244 435 214 415T163 369V201Q163 162 175 129T215 75T285 55Q324 55 350 72T393 117T415 178T422 245Q422 280 415 313T390 374T346 418T278 435Z" />
<glyph unicode="q" horiz-adv-x="556" d="M262 509Q304 509 343 493T409 444L427 497H477Q476 480 475 463T474 428V-157Q474 -158 477 -171T483 -199T487 -216H391V-28Q391 -16 391 -4T392 21T394 45Q363 16 329 2T251 -12Q199 -12 160 10T96 70T57 153T44 245Q44
296 57 343T97 427T165 487T262 509ZM266 446Q229 446 203 427T162 377T140 313T133 248Q133 215 140 182T164 122T207 77T272 60Q304 60 337 75T391 115V296Q391 338 379 372T340 426T266 446Z" />
<glyph unicode="r" horiz-adv-x="349" d="M139 506Q157 462 162 413Q188 454 232 480T325 506L305 418Q257 418 224 393T164 330V0H81V360Q81 380 78 405T68 454T49 495L139 506Z" />
<glyph unicode="s" horiz-adv-x="430" d="M244 509Q278 509 311 501T373 474L344 410Q322 428 295 437T242 446Q205 446 178 429T150 378Q150 354 161 338T192 311T233 289Q258 277 283 265T330 235T365 193T379 132Q379 82 355 50T291 2T205 -13Q165 -13 125
-2T51 29L86 90Q110 72 140 61T198 50Q236 50 264 68T293 122Q293 147 278 163T238 193T188 218Q158 233 130 250T83 295T65 364Q65 412 90 444T157 492T244 509Z" />
<glyph unicode="t" horiz-adv-x="327" d="M197 639Q190 605 185 569T177 497H307L290 434H177V116Q177 97 181 83T197 61T230 53Q246 53 262 56T293 63L307 7Q282 0 260 -5T208 -11Q144 -11 119 23T94 118V434H20V484Q50 485 70 500T103 538T124 588T136 639H197Z" />
<glyph unicode="u" horiz-adv-x="553" d="M163 497V191Q163 162 168 132T190 81T246 61Q283 61 313 77T363 121T382 188V438Q382 439 379 452T373 480T369 497H465V97Q465 78 471 69T492 60Q506 60 530 69L548 15Q528 4 504 -2T457 -9Q431 -9 411 6T385 59Q356
29 316 8T232 -13Q177 -13 144 10T95 72T80 164V438L67 497H163Z" />
<glyph unicode="v" horiz-adv-x="455" d="M100 497L208 189Q215 170 221 152T233 109Q239 133 244 150T256 185L365 497H443L265 -6H189L12 497H100Z" />
<glyph unicode="w" horiz-adv-x="658" d="M99 497L185 208Q189 195 192 181T200 147Q204 167 207 180T215 206L306 497H365L452 208Q456 195 459 181T467 147Q471 167 475 181T483 208L572 497H646L489 -6H429Q412 52 395 105T362 216T328 343Q310 273 293 216T258
106T221 -6H160L13 497H99Z" />
<glyph unicode="x" horiz-adv-x="446" d="M116 497L436 -1H341L21 497H116ZM338 497H426L99 -1H10L338 497Z" />
<glyph unicode="y" horiz-adv-x="456" d="M102 497Q124 435 145 373T189 246Q200 212 211 178T234 109Q245 144 256 178T279 246Q301 311 322 373T366 497H444L268 -2Q257 -33 240 -70T200 -141T146 -195T76 -217H38V-150Q41 -150 43 -150T49 -150Q91 -150 118
-125T164 -65T194 4L12 497H102Z" />
<glyph unicode="z" horiz-adv-x="445" d="M55 497H401V449L143 63H413L402 0H32V47L289 433H55V497Z" />
<glyph unicode="{" horiz-adv-x="349" d="M267 -135Q188 -135 155 -92T122 28V192Q122 224 109 251T58 278V323Q87 323 100 338T118 375T122 420V573Q122 624 136 660T183 716T270 736H292V689Q255 689 236 682T210 656T203 601V431Q203 404 199 378T180 331T137
300Q166 290 180 270T198 223T203 170V-8Q203 -41 211 -58T240 -82T292 -88V-135H267Z" />
<glyph unicode="|" horiz-adv-x="235" d="M82 748H153V-107H82V748Z" />
<glyph unicode="}" horiz-adv-x="349" d="M83 736Q162 736 195 693T228 573V409Q228 378 241 351T292 323V278Q264 278 250 263T232 226T228 181V28Q228 -22 214 -59T167 -115T80 -135H58V-88Q95 -88 114 -81T140 -55T147 0V170Q147 197 151 223T170 270T213 301Q185
311 171 331T152 378T147 431V609Q147 643 139 660T111 683T58 689V736H83Z" />
<glyph unicode="~" horiz-adv-x="663" d="M579 298Q565 276 542 254T492 217T436 202Q406 202 380 212T328 236T276 260T221 271Q202 271 186 260T157 233T137 201L84 245Q96 271 117 294T164 331T221 346Q254 346 284 336T341 312T391 288T436 277Q465 277 489
298T527 345L579 298Z" />
<glyph unicode="&#xa0;" horiz-adv-x="230" />
<glyph unicode="&#xa1;" horiz-adv-x="329" d="M224 -232H107L136 279H195L224 -232ZM99 443Q99 470 118 489T165 509Q192 509 211 490T231 443Q231 415 212 396T165 377Q138 377 119 396T99 443Z" />
<glyph unicode="&#xa2;" horiz-adv-x="490" d="M281 485Q315 485 350 474T419 439L378 381Q353 401 329 411T281 421Q245 421 217 401T174 342T158 249Q158 165 193 122T287 78Q337 78 395 108L425 56Q387 33 350 22T272 11Q214 11 169 40T98 124T72 253Q72 324
100 376T177 456T281 485ZM273 33L258 -118H186L227 33H273ZM262 468L276 612H350L310 468H262Z" />
<glyph unicode="&#xa3;" horiz-adv-x="581" d="M56 69H149V504Q149 566 174 609T244 674T349 697Q403 697 449 671T524 599L449 557Q434 586 409 607T348 628Q313 628 290 611T255 567T243 506V69H535V0H56V69ZM73 298L83 360H407L397 298H73Z" />
<glyph unicode="&#xa4;" horiz-adv-x="536" d="M266 458Q331 458 381 417L436 471L485 422L427 365Q442 340 451 312T460 252Q460 220 451 192T427 138L485 82L436 34L382 87Q358 67 328 56T266 45Q233 45 204 56T149 87L96 34L47 83L103 139Q89 163 81 192T72
252Q72 283 80 311T104 365L47 422L96 471L150 416Q174 436 203 447T266 458ZM266 397Q232 397 205 378T161 326T145 252Q145 209 162 176T207 125T266 106Q298 106 326 124T371 175T388 252Q388 292 372 325T329 377T266 397Z" />
<glyph unicode="&#xa5;" horiz-adv-x="604" d="M150 697L319 414L476 697H563L354 329V0H259V329L42 697H150ZM77 389H541L531 327H67L77 389ZM77 253H541L531 191H67L77 253Z" />
<glyph unicode="&#xa6;" horiz-adv-x="238" d="M84 742H152V393H84V742ZM84 233H152V-115H84V233Z" />
<glyph unicode="&#xa7;" horiz-adv-x="495" d="M53 327Q53 380 79 412T147 459Q127 482 115 511T102 577Q102 624 128 659T197 713T291 732Q328 732 366 721T440 687L411 623Q381 646 350 657T289 668Q246 668 217 647T187 591Q187 555 206 530T256 483T321 442T385
397T435 338T455 255Q455 203 429 170T361 123Q381 101 393 72T406 5Q406 -42 380 -77T311 -131T217 -150Q180 -150 142 -139T68 -105L97 -41Q127 -64 159 -75T219 -86Q262 -86 291 -65T321 -9Q321 27 302 52T252 99T187 140T123 185T73 244T53 327ZM139 337Q139
299 163 272T225 223T299 175Q328 180 348 197T369 245Q369 284 345 310T284 359T209 407Q180 402 160 385T139 337Z" />
<glyph unicode="&#xa8;" horiz-adv-x="276" d="M113 657Q113 634 96 617T56 600Q33 600 17 617T0 657Q0 680 16 697T56 714Q80 714 96 698T113 657ZM276 657Q276 634 259 617T219 600Q196 600 180 617T163 657Q163 680 179 697T219 714Q243 714 259 698T276 657Z" />
<glyph unicode="&#xa9;" horiz-adv-x="634" d="M589 250Q589 194 568 145T509 59T422 0T317 -22Q261 -22 212 -1T125 57T66 144T45 250Q45 306 66 355T124 442T211 501T317 522Q373 522 422 501T508 442T567 355T589 250ZM550 250Q550 314 519 367T434 451T317
483Q253 483 200 452T116 367T84 250Q84 186 115 133T200 49T317 17Q381 17 434 48T518 133T550 250ZM433 119Q404 103 382 96T325 88Q278 88 245 110T195 169T178 251Q178 322 219 368T333 414Q358 414 382 405T428 381L398 343Q380 358 365 364T325 370Q296 370
277 352T248 308T239 256Q239 230 248 202T277 154T328 134Q353 134 370 141T407 162L433 119Z" />
<glyph unicode="&#xaa;" horiz-adv-x="315" d="M305 410Q289 400 273 394T240 388Q224 388 211 397T190 425Q172 408 149 398T101 387Q61 387 36 411T10 476Q10 512 26 535T68 570T126 587T186 592V619Q186 643 178 659T141 676Q119 676 94 664T52 634L19 684Q47
707 78 718T145 730Q198 730 223 701T249 620V467Q249 453 254 448T266 442Q271 442 277 444T291 448L305 410ZM186 537Q165 537 140 534T95 519T76 478Q76 462 89 453T118 444Q138 444 153 456T177 487T186 523V537ZM30 329H269V279H30V329Z" />
<glyph unicode="&#xab;" horiz-adv-x="466" d="M55 336L199 499L260 488L144 336L263 182L203 173L55 336ZM203 336L348 499L409 488L293 336L411 182L352 173L203 336Z" />
<glyph unicode="&#xac;" horiz-adv-x="638" d="M504 279H72V339H565V89H504V279Z" />
<glyph unicode="&#xad;" horiz-adv-x="313" d="M41 299H272V224H41V299Z" />
<glyph unicode="&#xae;" horiz-adv-x="467" d="M432 603Q432 548 405 503T333 432T233 405Q178 405 133 431T62 503T35 603Q35 658 61 703T133 774T233 801Q288 801 333 775T405 703T432 603ZM399 603Q399 649 377 686T317 745T233 768Q188 768 151 746T91 686T68
603Q68 558 90 521T150 461T233 438Q279 438 316 460T376 520T399 603ZM152 717H240Q272 717 295 704T318 653Q318 632 305 618T272 596L345 492H285L220 588H202V492H152V717ZM202 680V625H226Q245 625 256 631T268 655Q268 668 258 674T233 680H202Z" />
<glyph unicode="&#xaf;" horiz-adv-x="304" d="M0 689H304V625H0V689Z" />
<glyph unicode="&#xb0;" horiz-adv-x="388" d="M194 743Q236 743 270 723T324 669T344 593Q344 552 324 518T270 463T194 443Q153 443 119 463T64 517T44 593Q44 635 64 669T118 723T194 743ZM194 683Q157 683 132 657T106 593Q106 556 131 530T194 503Q232 503
256 529T281 593Q281 630 257 656T194 683Z" />
<glyph unicode="&#xb1;" horiz-adv-x="632" d="M352 97H282V262H68V332H282V496H352V332H567V262H352V97ZM68 69H567V-1H68V69Z" />
<glyph unicode="&#xb2;" horiz-adv-x="455" d="M58 472Q58 472 76 487T123 527T184 585T245 654T292 727T310 795Q310 827 290 848T231 870Q206 870 183 862T143 844T115 825T105 817L73 864Q73 864 85 873T119 896T174 918T247 928Q302 928 334 909T380 861T394
801Q394 756 372 713T316 631T250 564T194 519T171 502H408L389 434H58V472Z" />
<glyph unicode="&#xb3;" horiz-adv-x="455" d="M63 474Q185 480 249 516T314 606Q314 639 296 654T252 674T200 679Q186 679 176 678T165 677L157 724Q185 730 217 741T272 772T295 823Q295 846 276 858T225 870Q194 870 158 855T99 820L67 866Q101 893 150 910T244
928Q274 928 303 920T352 893T372 838Q372 809 358 788T321 752T277 728Q309 725 335 711T378 672T394 614Q394 587 381 555T332 495T234 446T73 423L63 474Z" />
<glyph unicode="&#xb4;" horiz-adv-x="281" d="M127 733H249L109 581H31L127 733Z" />
<glyph unicode="&#xb5;" horiz-adv-x="555" d="M551 21Q529 13 504 2T455 -9Q424 -9 407 11T385 59Q357 32 315 10T232 -13Q199 -13 166 1V-187H81V438Q81 439 78 452T72 480T68 497H163V191Q163 162 168 132T191 81T246 61Q270 61 295 70T344 95T383 127V438Q383
439 380 452T374 480T370 497H465V97Q465 85 466 77T473 64T487 59Q488 59 498 62T520 68T534 73L551 21Z" />
<glyph unicode="&#xb6;" horiz-adv-x="500" d="M153 -110Q189 -119 209 -99T229 -47V332Q177 332 134 356T66 423T40 520Q40 588 69 632T149 697T263 718H455V664H399V10Q399 -23 381 -50T334 -90T271 -99Q262 -123 243 -139T198 -159T143 -154L153 -110ZM284
664V-47Q313 -47 329 -30T345 10V664H284Z" />
<glyph unicode="&#xb7;" horiz-adv-x="293" d="M213 260Q213 233 194 214T147 195Q120 195 101 214T81 260Q81 288 100 307T147 327Q174 327 193 307T213 260Z" />
<glyph unicode="&#xb8;" horiz-adv-x="280" d="M114 9H161L132 -46Q187 -46 217 -67T247 -127Q247 -173 213 -196T132 -220Q107 -220 81 -213T32 -192L56 -146Q71 -157 87 -162T119 -168Q138 -168 151 -159T164 -130Q164 -109 151 -97T109 -85Q99 -85 87 -86T61
-91L114 9Z" />
<glyph unicode="&#xb9;" horiz-adv-x="455" d="M91 493H215V838L94 803L76 852L245 918H295V493H395V434H91V493Z" />
<glyph unicode="&#xba;" horiz-adv-x="332" d="M170 737Q219 737 252 714T302 651T319 566Q319 520 300 481T246 419T162 395Q113 395 80 418T30 481T13 566Q13 612 32 650T86 713T170 737ZM166 685Q135 685 117 666T90 620T82 566Q82 542 90 514T118 467T166
447Q197 447 215 466T241 513T249 566Q249 592 241 619T215 666T166 685ZM47 329H286V279H47V329Z" />
<glyph unicode="&#xbb;" horiz-adv-x="466" d="M263 334L114 171L55 179L173 334L57 485L118 497L263 334ZM411 334L263 171L203 179L322 334L206 485L267 497L411 334Z" />
<glyph unicode="&#xbc;" horiz-adv-x="1129" d="M718 730H784L409 -7H345L718 730ZM91 303H215V648L94 613L76 662L245 728H295V303H395V244H91V303ZM940 110H711V150L940 483H1020V169H1095L1078 110H1020V0H940V110ZM943 387L796 169H940L943 387Z" />
<glyph unicode="&#xbd;" horiz-adv-x="1129" d="M718 730H784L409 -7H345L718 730ZM91 303H215V648L94 613L76 662L245 728H295V303H395V244H91V303ZM732 38Q732 38 750 53T797 93T858 151T919 220T966 293T984 361Q984 393 964 414T905 436Q880 436 857 428T817
410T789 391T779 383L747 430Q747 430 759 439T793 462T848 484T921 494Q976 494 1008 475T1054 427T1068 367Q1068 322 1046 279T990 197T924 130T868 85T845 68H1082L1063 0H732V38Z" />
<glyph unicode="&#xbe;" horiz-adv-x="1129" d="M718 730H784L409 -7H345L718 730ZM63 284Q185 290 249 326T314 416Q314 449 296 464T252 484T200 489Q186 489 176 488T165 487L157 534Q185 540 217 551T272 582T295 633Q295 656 276 668T225 680Q194 680 158
665T99 630L67 676Q101 703 150 720T244 738Q274 738 303 730T352 703T372 648Q372 619 358 598T321 562T277 538Q309 535 335 521T378 482T394 424Q394 397 381 365T332 305T234 256T73 233L63 284ZM940 110H711V150L940 483H1020V169H1095L1078 110H1020V0H940V110ZM943
387L796 169H940L943 387Z" />
<glyph unicode="&#xbf;" horiz-adv-x="431" d="M249 -227Q199 -227 154 -209T80 -152T51 -58Q51 -7 72 30T131 94T216 136V279H281V84Q246 78 214 61T160 16T139 -52Q139 -105 176 -130T264 -155Q289 -155 314 -147T360 -124L387 -191Q362 -207 323 -217T249 -227ZM252
377Q225 377 206 396T186 443Q186 470 205 489T252 509Q279 509 298 490T318 443Q318 415 299 396T252 377Z" />
<glyph unicode="&#xc0;" horiz-adv-x="631" d="M362 728L614 0H511L427 250H187L102 0H18L271 728H362ZM308 606L210 318H404L308 606ZM263 905L359 774H281L141 905H263Z" />
<glyph unicode="&#xc1;" horiz-adv-x="631" d="M362 728L614 0H511L427 250H187L102 0H18L271 728H362ZM308 606L210 318H404L308 606ZM374 905H496L356 774H278L374 905Z" />
<glyph unicode="&#xc2;" horiz-adv-x="631" d="M362 728L614 0H511L427 250H187L102 0H18L271 728H362ZM308 606L210 318H404L308 606ZM317 834L238 772H169L275 907H358L460 773H393L317 834Z" />
<glyph unicode="&#xc3;" horiz-adv-x="631" d="M362 728L614 0H511L427 250H187L102 0H18L271 728H362ZM308 606L210 318H404L308 606ZM471 882Q469 860 459 837T430 799T386 783Q358 783 334 793T286 812T237 822Q224 822 216 814T203 795H154Q157 820 169 842T201
880T248 895Q275 895 299 886T345 866T388 856Q400 856 410 863T424 882H471Z" />
<glyph unicode="&#xc4;" horiz-adv-x="631" d="M362 728L614 0H511L427 250H187L102 0H18L271 728H362ZM308 606L210 318H404L308 606ZM291 838Q291 815 274 798T234 781Q211 781 195 798T178 838Q178 861 194 878T234 895Q258 895 274 879T291 838ZM454 838Q454
815 437 798T397 781Q374 781 358 798T341 838Q341 861 357 878T397 895Q421 895 437 879T454 838Z" />
<glyph unicode="&#xc5;" horiz-adv-x="631" d="M362 728L614 0H511L427 250H187L102 0H18L271 728H362ZM308 606L210 318H404L308 606ZM316 989Q344 989 366 976T401 940T415 889Q415 849 386 820T316 790Q276 790 247 819T217 889Q217 916 230 939T266 975T316
989ZM316 937Q296 937 282 923T268 889Q268 869 282 855T316 841Q336 841 350 855T364 889Q364 909 350 923T316 937Z" />
<glyph unicode="&#xc6;" horiz-adv-x="794" d="M390 248H211L97 0H12L313 663L299 728H747V660H482V410H716V338H482V71H747V0H390V248ZM243 320H390V641L243 320Z" />
<glyph unicode="&#xc7;" horiz-adv-x="624" d="M378 -12Q292 -12 230 18T126 99T66 216T46 350Q46 425 68 494T132 619T239 706T387 738Q422 738 463 730T543 704T605 659L553 601Q534 623 505 637T445 660T385 668Q327 668 283 642T209 570T164 469T148 355Q148
265 177 200T259 99T384 63Q426 63 475 75T576 113L607 56Q585 40 557 28T497 6T435 -7T378 -12ZM340 9H387L358 -46Q413 -46 443 -67T473 -127Q473 -173 439 -196T358 -220Q333 -220 307 -213T258 -192L282 -146Q297 -157 313 -162T345 -168Q364 -168 377 -159T390
-130Q390 -109 377 -97T335 -85Q325 -85 313 -86T287 -91L340 9Z" />
<glyph unicode="&#xc8;" horiz-adv-x="549" d="M72 728H509V659H179V408H435V340H179V69H509V0H86V662L72 728ZM248 905L344 774H266L126 905H248Z" />
<glyph unicode="&#xc9;" horiz-adv-x="549" d="M72 728H509V659H179V408H435V340H179V69H509V0H86V662L72 728ZM359 905H481L341 774H263L359 905Z" />
<glyph unicode="&#xca;" horiz-adv-x="549" d="M72 728H509V659H179V408H435V340H179V69H509V0H86V662L72 728ZM302 834L223 772H154L260 907H343L445 773H378L302 834Z" />
<glyph unicode="&#xcb;" horiz-adv-x="549" d="M72 728H509V659H179V408H435V340H179V69H509V0H86V662L72 728ZM276 838Q276 815 259 798T219 781Q196 781 180 798T163 838Q163 861 179 878T219 895Q243 895 259 879T276 838ZM439 838Q439 815 422 798T382 781Q359
781 343 798T326 838Q326 861 342 878T382 895Q406 895 422 879T439 838Z" />
<glyph unicode="&#xcc;" horiz-adv-x="268" d="M73 728H180V0H87V662Q87 663 84 678T77 709T73 728ZM336 905L432 774H354L214 905H336Z" />
<glyph unicode="&#xcd;" horiz-adv-x="268" d="M73 728H180V0H87V662Q87 663 84 678T77 709T73 728ZM191 905H313L173 774H95L191 905Z" />
<glyph unicode="&#xce;" horiz-adv-x="268" d="M73 728H180V0H87V662Q87 663 84 678T77 709T73 728ZM390 834L311 772H242L348 907H431L533 773H466L390 834Z" />
<glyph unicode="&#xcf;" horiz-adv-x="268" d="M73 728H180V0H87V662Q87 663 84 678T77 709T73 728ZM364 838Q364 815 347 798T307 781Q284 781 268 798T251 838Q251 861 267 878T307 895Q331 895 347 879T364 838ZM527 838Q527 815 510 798T470 781Q447 781 431
798T414 838Q414 861 430 878T470 895Q494 895 510 879T527 838Z" />
<glyph unicode="&#xd0;" horiz-adv-x="699" d="M653 362Q653 257 618 176T509 47T323 0H86V662Q86 663 83 678T76 709T72 728H259Q350 728 423 708T547 644T626 531T653 362ZM556 364Q556 443 537 499T479 590T384 642T252 659H179V69H311Q402 69 455 109T532
216T556 364ZM291 401H612V336H291V401Z" />
<glyph unicode="&#xd1;" horiz-adv-x="714" d="M197 728L515 239Q524 225 534 210T554 180Q553 197 552 214T551 248V728H627V-5H568L197 563Q189 576 180 590T160 618Q162 602 162 586T163 553V0H87V662L73 728H197ZM510 882Q508 860 498 837T469 799T425 783Q397
783 373 793T325 812T276 822Q263 822 255 814T242 795H193Q196 820 208 842T240 880T287 895Q314 895 338 886T384 866T427 856Q439 856 449 863T463 882H510Z" />
<glyph unicode="&#xd2;" horiz-adv-x="737" d="M368 -11Q287 -11 227 19T126 101T66 221T46 363Q46 438 65 505T125 625T226 708T369 738Q451 738 511 708T612 626T671 506T691 363Q691 288 671 221T611 101T511 19T368 -11ZM369 57Q433 57 476 84T545 156T582
255T594 363Q594 417 583 471T545 569T476 641T369 668Q306 668 263 641T194 569T157 470T145 362Q145 308 156 255T193 156T262 84T369 57ZM316 905L412 774H334L194 905H316Z" />
<glyph unicode="&#xd3;" horiz-adv-x="737" d="M368 -11Q287 -11 227 19T126 101T66 221T46 363Q46 438 65 505T125 625T226 708T369 738Q451 738 511 708T612 626T671 506T691 363Q691 288 671 221T611 101T511 19T368 -11ZM369 57Q433 57 476 84T545 156T582
255T594 363Q594 417 583 471T545 569T476 641T369 668Q306 668 263 641T194 569T157 470T145 362Q145 308 156 255T193 156T262 84T369 57ZM427 905H549L409 774H331L427 905Z" />
<glyph unicode="&#xd4;" horiz-adv-x="737" d="M368 -11Q287 -11 227 19T126 101T66 221T46 363Q46 438 65 505T125 625T226 708T369 738Q451 738 511 708T612 626T671 506T691 363Q691 288 671 221T611 101T511 19T368 -11ZM369 57Q433 57 476 84T545 156T582
255T594 363Q594 417 583 471T545 569T476 641T369 668Q306 668 263 641T194 569T157 470T145 362Q145 308 156 255T193 156T262 84T369 57ZM370 834L291 772H222L328 907H411L513 773H446L370 834Z" />
<glyph unicode="&#xd5;" horiz-adv-x="737" d="M368 -11Q287 -11 227 19T126 101T66 221T46 363Q46 438 65 505T125 625T226 708T369 738Q451 738 511 708T612 626T671 506T691 363Q691 288 671 221T611 101T511 19T368 -11ZM369 57Q433 57 476 84T545 156T582
255T594 363Q594 417 583 471T545 569T476 641T369 668Q306 668 263 641T194 569T157 470T145 362Q145 308 156 255T193 156T262 84T369 57ZM524 882Q522 860 512 837T483 799T439 783Q411 783 387 793T339 812T290 822Q277 822 269 814T256 795H207Q210 820 222
842T254 880T301 895Q328 895 352 886T398 866T441 856Q453 856 463 863T477 882H524Z" />
<glyph unicode="&#xd6;" horiz-adv-x="737" d="M368 -11Q287 -11 227 19T126 101T66 221T46 363Q46 438 65 505T125 625T226 708T369 738Q451 738 511 708T612 626T671 506T691 363Q691 288 671 221T611 101T511 19T368 -11ZM369 57Q433 57 476 84T545 156T582
255T594 363Q594 417 583 471T545 569T476 641T369 668Q306 668 263 641T194 569T157 470T145 362Q145 308 156 255T193 156T262 84T369 57ZM344 838Q344 815 327 798T287 781Q264 781 248 798T231 838Q231 861 247 878T287 895Q311 895 327 879T344 838ZM507 838Q507
815 490 798T450 781Q427 781 411 798T394 838Q394 861 410 878T450 895Q474 895 490 879T507 838Z" />
<glyph unicode="&#xd7;" horiz-adv-x="534" d="M267 202L115 50L71 94L224 246L71 398L115 442L267 290L419 442L463 398L310 246L463 94L419 50L267 202Z" />
<glyph unicode="&#xd8;" horiz-adv-x="737" d="M368 -11Q287 -11 227 19T126 101T66 221T46 363Q46 438 65 505T125 625T226 708T369 738Q451 738 511 708T612 626T671 506T691 363Q691 288 671 221T611 101T511 19T368 -11ZM369 57Q433 57 476 84T545 156T582
255T594 363Q594 417 583 471T545 569T476 641T369 668Q306 668 263 641T194 569T157 470T145 362Q145 308 156 255T193 156T262 84T369 57ZM133 -55L81 -22L596 769L650 738L133 -55Z" />
<glyph unicode="&#xd9;" horiz-adv-x="707" d="M181 728V244Q181 159 223 108T355 57Q417 57 459 82T522 153T543 258V728H620V258Q620 174 589 114T497 21T351 -12Q226 -12 156 53T86 244V662L71 728H181ZM306 905L402 774H324L184 905H306Z" />
<glyph unicode="&#xda;" horiz-adv-x="707" d="M181 728V244Q181 159 223 108T355 57Q417 57 459 82T522 153T543 258V728H620V258Q620 174 589 114T497 21T351 -12Q226 -12 156 53T86 244V662L71 728H181ZM417 905H539L399 774H321L417 905Z" />
<glyph unicode="&#xdb;" horiz-adv-x="707" d="M181 728V244Q181 159 223 108T355 57Q417 57 459 82T522 153T543 258V728H620V258Q620 174 589 114T497 21T351 -12Q226 -12 156 53T86 244V662L71 728H181ZM360 834L281 772H212L318 907H401L503 773H436L360 834Z" />
<glyph unicode="&#xdc;" horiz-adv-x="707" d="M181 728V244Q181 159 223 108T355 57Q417 57 459 82T522 153T543 258V728H620V258Q620 174 589 114T497 21T351 -12Q226 -12 156 53T86 244V662L71 728H181ZM334 838Q334 815 317 798T277 781Q254 781 238 798T221
838Q221 861 237 878T277 895Q301 895 317 879T334 838ZM497 838Q497 815 480 798T440 781Q417 781 401 798T384 838Q384 861 400 878T440 895Q464 895 480 879T497 838Z" />
<glyph unicode="&#xdd;" horiz-adv-x="584" d="M140 728L309 445L466 728H553L344 360V0H249V360L32 728H140ZM357 905H479L339 774H261L357 905Z" />
<glyph unicode="&#xde;" horiz-adv-x="575" d="M183 728V611H282Q353 611 410 591T500 524T533 400Q533 325 499 277T407 206T283 183H182V1H89V662L74 728H183ZM289 251Q357 251 396 292T435 400Q435 466 398 504T290 542H182V251H289Z" />
<glyph unicode="&#xdf;" horiz-adv-x="552" d="M28 434V489Q60 489 76 496T100 521T115 568Q127 620 151 658T214 719T308 741Q357 741 394 726T452 684T474 620Q474 578 459 548T421 494T377 451T339 414T323 373Q323 346 338 329T378 299T429 274T480 244T519
200T535 132Q535 75 505 41T429 -6T331 -10T237 29L272 90Q295 67 325 58T383 51T430 73T449 122Q449 148 434 165T395 196T344 223T293 253T253 295T238 357Q238 389 253 413T289 458T333 501T370 546T385 602Q385 619 377 635T352 661T306 671Q266 671 242 652T206
602T189 538T185 474V0H102V434H28Z" />
<glyph unicode="&#xe0;" horiz-adv-x="494" d="M253 509Q332 509 372 466T412 345V96Q412 75 420 68T439 60Q448 60 458 62T477 69L495 15Q479 6 455 -1T404 -9Q378 -9 357 5T331 59Q302 28 263 9T181 -11Q122 -11 83 24T44 120Q44 177 71 211T143 262T236 285T329
291V344Q329 372 322 394T297 430T246 444Q208 444 173 429T103 385L62 444Q103 477 152 493T253 509ZM329 226Q302 226 268 224T202 212T150 181T129 123Q129 90 151 75T208 59Q244 59 271 79T313 130T329 194V226ZM188 733L284 581H206L66 733H188Z" />
<glyph unicode="&#xe1;" horiz-adv-x="494" d="M253 509Q332 509 372 466T412 345V96Q412 75 420 68T439 60Q448 60 458 62T477 69L495 15Q479 6 455 -1T404 -9Q378 -9 357 5T331 59Q302 28 263 9T181 -11Q122 -11 83 24T44 120Q44 177 71 211T143 262T236 285T329
291V344Q329 372 322 394T297 430T246 444Q208 444 173 429T103 385L62 444Q103 477 152 493T253 509ZM329 226Q302 226 268 224T202 212T150 181T129 123Q129 90 151 75T208 59Q244 59 271 79T313 130T329 194V226ZM296 733H418L278 581H200L296 733Z" />
<glyph unicode="&#xe2;" horiz-adv-x="494" d="M253 509Q332 509 372 466T412 345V96Q412 75 420 68T439 60Q448 60 458 62T477 69L495 15Q479 6 455 -1T404 -9Q378 -9 357 5T331 59Q302 28 263 9T181 -11Q122 -11 83 24T44 120Q44 177 71 211T143 262T236 285T329
291V344Q329 372 322 394T297 430T246 444Q208 444 173 429T103 385L62 444Q103 477 152 493T253 509ZM329 226Q302 226 268 224T202 212T150 181T129 123Q129 90 151 75T208 59Q244 59 271 79T313 130T329 194V226ZM243 661L167 580H100L202 734H285L391 579H322L243
661Z" />
<glyph unicode="&#xe3;" horiz-adv-x="494" d="M253 509Q332 509 372 466T412 345V96Q412 75 420 68T439 60Q448 60 458 62T477 69L495 15Q479 6 455 -1T404 -9Q378 -9 357 5T331 59Q302 28 263 9T181 -11Q122 -11 83 24T44 120Q44 177 71 211T143 262T236 285T329
291V344Q329 372 322 394T297 430T246 444Q208 444 173 429T103 385L62 444Q103 477 152 493T253 509ZM329 226Q302 226 268 224T202 212T150 181T129 123Q129 90 151 75T208 59Q244 59 271 79T313 130T329 194V226ZM397 701Q395 679 385 656T356 618T312 602Q284
602 260 612T212 631T163 641Q150 641 142 633T129 614H80Q83 639 95 661T127 699T174 714Q201 714 225 705T271 685T314 675Q326 675 336 682T350 701H397Z" />
<glyph unicode="&#xe4;" horiz-adv-x="494" d="M253 509Q332 509 372 466T412 345V96Q412 75 420 68T439 60Q448 60 458 62T477 69L495 15Q479 6 455 -1T404 -9Q378 -9 357 5T331 59Q302 28 263 9T181 -11Q122 -11 83 24T44 120Q44 177 71 211T143 262T236 285T329
291V344Q329 372 322 394T297 430T246 444Q208 444 173 429T103 385L62 444Q103 477 152 493T253 509ZM329 226Q302 226 268 224T202 212T150 181T129 123Q129 90 151 75T208 59Q244 59 271 79T313 130T329 194V226ZM218 911Q218 888 201 871T161 854Q138 854 122
871T105 911Q105 934 121 951T161 968Q185 968 201 952T218 911ZM381 911Q381 888 364 871T324 854Q301 854 285 871T268 911Q268 934 284 951T324 968Q348 968 364 952T381 911Z" />
<glyph unicode="&#xe5;" horiz-adv-x="494" d="M253 509Q332 509 372 466T412 345V96Q412 75 420 68T439 60Q448 60 458 62T477 69L495 15Q479 6 455 -1T404 -9Q378 -9 357 5T331 59Q302 28 263 9T181 -11Q122 -11 83 24T44 120Q44 177 71 211T143 262T236 285T329
291V344Q329 372 322 394T297 430T246 444Q208 444 173 429T103 385L62 444Q103 477 152 493T253 509ZM329 226Q302 226 268 224T202 212T150 181T129 123Q129 90 151 75T208 59Q244 59 271 79T313 130T329 194V226ZM242 758Q270 758 292 745T327 709T341 658Q341
618 312 589T242 559Q202 559 173 588T143 658Q143 685 156 708T192 744T242 758ZM242 706Q222 706 208 692T194 658Q194 638 208 624T242 610Q262 610 276 624T290 658Q290 678 276 692T242 706Z" />
<glyph unicode="&#xe6;" horiz-adv-x="779" d="M44 120Q44 177 71 211T143 262T236 285T329 291V344Q329 372 322 394T297 430T246 444Q222 444 195 437T144 417T103 385L62 444Q103 477 152 493T253 509Q303 509 341 491T398 441Q426 472 465 490T555 509Q615
509 655 485T717 417T738 315Q738 301 737 287T733 256H417Q417 196 436 152T488 82T562 57Q594 57 630 69T691 103L728 43Q705 24 677 12T620 -7T560 -13Q490 -13 442 17T365 97Q330 38 282 14T181 -11Q122 -11 83 24T44 120ZM129 123Q129 90 151 75T208 59Q244
59 271 79T313 130T329 194V226Q302 226 268 224T202 212T150 181T129 123ZM423 318H651Q653 380 625 413T547 446Q513 446 487 427T445 379T423 318Z" />
<glyph unicode="&#xe7;" horiz-adv-x="450" d="M274 509Q312 509 350 497T426 458L381 400Q353 423 326 433T274 444Q244 444 219 430T174 391T144 329T133 249Q133 155 175 105T283 55Q312 55 339 64T397 90L424 37Q384 12 347 0T264 -13Q200 -13 151 19T73 112T44
253Q44 331 75 388T159 477T274 509ZM237 9H284L255 -46Q310 -46 340 -67T370 -127Q370 -173 336 -196T255 -220Q230 -220 204 -213T155 -192L179 -146Q194 -157 210 -162T242 -168Q261 -168 274 -159T287 -130Q287 -109 274 -97T232 -85Q222 -85 210 -86T184 -91L237
9Z" />
<glyph unicode="&#xe8;" horiz-adv-x="494" d="M270 509Q330 509 371 485T432 417T453 315Q453 301 452 287T448 256H132Q132 161 174 109T286 57Q315 57 346 66T412 93L443 43Q408 15 364 1T275 -13Q216 -13 173 8T101 66T58 149T44 243Q44 293 58 340T100 425T171
486T270 509ZM262 446Q228 446 202 427T160 379T138 318H366Q367 360 355 388T319 431T262 446ZM212 733L308 581H230L90 733H212Z" />
<glyph unicode="&#xe9;" horiz-adv-x="494" d="M270 509Q330 509 371 485T432 417T453 315Q453 301 452 287T448 256H132Q132 161 174 109T286 57Q315 57 346 66T412 93L443 43Q408 15 364 1T275 -13Q216 -13 173 8T101 66T58 149T44 243Q44 293 58 340T100 425T171
486T270 509ZM262 446Q228 446 202 427T160 379T138 318H366Q367 360 355 388T319 431T262 446ZM320 733H442L302 581H224L320 733Z" />
<glyph unicode="&#xea;" horiz-adv-x="494" d="M270 509Q330 509 371 485T432 417T453 315Q453 301 452 287T448 256H132Q132 161 174 109T286 57Q315 57 346 66T412 93L443 43Q408 15 364 1T275 -13Q216 -13 173 8T101 66T58 149T44 243Q44 293 58 340T100 425T171
486T270 509ZM262 446Q228 446 202 427T160 379T138 318H366Q367 360 355 388T319 431T262 446ZM267 661L191 580H124L226 734H309L415 579H346L267 661Z" />
<glyph unicode="&#xeb;" horiz-adv-x="494" d="M270 509Q330 509 371 485T432 417T453 315Q453 301 452 287T448 256H132Q132 161 174 109T286 57Q315 57 346 66T412 93L443 43Q408 15 364 1T275 -13Q216 -13 173 8T101 66T58 149T44 243Q44 293 58 340T100 425T171
486T270 509ZM262 446Q228 446 202 427T160 379T138 318H366Q367 360 355 388T319 431T262 446ZM242 911Q242 888 225 871T185 854Q162 854 146 871T129 911Q129 934 145 951T185 968Q209 968 225 952T242 911ZM405 911Q405 888 388 871T348 854Q325 854 309 871T292
911Q292 934 308 951T348 968Q372 968 388 952T405 911Z" />
<glyph unicode="&#xec;" horiz-adv-x="252" d="M84 438Q84 439 81 452T76 480T72 497H167V0H84V438ZM327 733L423 581H345L205 733H327Z" />
<glyph unicode="&#xed;" horiz-adv-x="252" d="M84 438Q84 439 81 452T76 480T72 497H167V0H84V438ZM179 733H301L161 581H83L179 733Z" />
<glyph unicode="&#xee;" horiz-adv-x="252" d="M84 438Q84 439 81 452T76 480T72 497H167V0H84V438ZM382 661L306 580H239L341 734H424L530 579H461L382 661Z" />
<glyph unicode="&#xef;" horiz-adv-x="252" d="M84 438Q84 439 81 452T76 480T72 497H167V0H84V438ZM357 911Q357 888 340 871T300 854Q277 854 261 871T244 911Q244 934 260 951T300 968Q324 968 340 952T357 911ZM520 911Q520 888 503 871T463 854Q440 854 424
871T407 911Q407 934 423 951T463 968Q487 968 503 952T520 911Z" />
<glyph unicode="&#xf0;" horiz-adv-x="536" d="M268 505Q287 505 303 502T335 492Q314 533 290 570T239 640L134 582L103 622L207 680Q192 697 178 712T150 739L205 772Q217 761 233 746T265 712L372 771L400 729L299 673Q333 632 367 583T429 479T474 366T491
247Q491 179 465 120T390 26T268 -10Q197 -10 147 25T71 120T45 247Q45 316 71 374T147 469T268 505ZM268 445Q229 445 203 426T162 376T140 311T133 247Q133 217 139 183T161 119T203 69T268 50Q307 50 333 69T375 118T396 182T403 247Q403 277 397 311T375 376T334
426T268 445Z" />
<glyph unicode="&#xf1;" horiz-adv-x="547" d="M138 505Q145 488 150 470T157 434Q187 464 228 486T312 509Q367 509 400 486T449 424T464 332V0H382V305Q382 336 378 366T356 415T298 435Q274 435 249 426T202 401T162 369V0H80V352Q80 372 77 398T67 450T47
493L138 505ZM436 701Q434 679 424 656T395 618T351 602Q323 602 299 612T251 631T202 641Q189 641 181 633T168 614H119Q122 639 134 661T166 699T213 714Q240 714 264 705T310 685T353 675Q365 675 375 682T389 701H436Z" />
<glyph unicode="&#xf2;" horiz-adv-x="537" d="M265 -13Q192 -13 143 23T69 119T44 245Q44 295 59 342T103 427T174 487T271 509Q345 509 394 473T468 378T493 251Q493 200 478 153T435 68T364 9T265 -13ZM266 50Q305 50 331 68T374 117T398 181T405 248Q405 281
399 315T377 379T336 427T270 446Q231 446 205 428T162 379T139 315T132 248Q132 217 139 183T161 118T203 69T266 50ZM211 733L307 581H229L89 733H211Z" />
<glyph unicode="&#xf3;" horiz-adv-x="537" d="M265 -13Q192 -13 143 23T69 119T44 245Q44 295 59 342T103 427T174 487T271 509Q345 509 394 473T468 378T493 251Q493 200 478 153T435 68T364 9T265 -13ZM266 50Q305 50 331 68T374 117T398 181T405 248Q405 281
399 315T377 379T336 427T270 446Q231 446 205 428T162 379T139 315T132 248Q132 217 139 183T161 118T203 69T266 50ZM319 733H441L301 581H223L319 733Z" />
<glyph unicode="&#xf4;" horiz-adv-x="537" d="M265 -13Q192 -13 143 23T69 119T44 245Q44 295 59 342T103 427T174 487T271 509Q345 509 394 473T468 378T493 251Q493 200 478 153T435 68T364 9T265 -13ZM266 50Q305 50 331 68T374 117T398 181T405 248Q405 281
399 315T377 379T336 427T270 446Q231 446 205 428T162 379T139 315T132 248Q132 217 139 183T161 118T203 69T266 50ZM266 661L190 580H123L225 734H308L414 579H345L266 661Z" />
<glyph unicode="&#xf5;" horiz-adv-x="537" d="M265 -13Q192 -13 143 23T69 119T44 245Q44 295 59 342T103 427T174 487T271 509Q345 509 394 473T468 378T493 251Q493 200 478 153T435 68T364 9T265 -13ZM266 50Q305 50 331 68T374 117T398 181T405 248Q405 281
399 315T377 379T336 427T270 446Q231 446 205 428T162 379T139 315T132 248Q132 217 139 183T161 118T203 69T266 50ZM420 701Q418 679 408 656T379 618T335 602Q307 602 283 612T235 631T186 641Q173 641 165 633T152 614H103Q106 639 118 661T150 699T197 714Q224
714 248 705T294 685T337 675Q349 675 359 682T373 701H420Z" />
<glyph unicode="&#xf6;" horiz-adv-x="537" d="M265 -13Q192 -13 143 23T69 119T44 245Q44 295 59 342T103 427T174 487T271 509Q345 509 394 473T468 378T493 251Q493 200 478 153T435 68T364 9T265 -13ZM266 50Q305 50 331 68T374 117T398 181T405 248Q405 281
399 315T377 379T336 427T270 446Q231 446 205 428T162 379T139 315T132 248Q132 217 139 183T161 118T203 69T266 50ZM241 911Q241 888 224 871T184 854Q161 854 145 871T128 911Q128 934 144 951T184 968Q208 968 224 952T241 911ZM404 911Q404 888 387 871T347
854Q324 854 308 871T291 911Q291 934 307 951T347 968Q371 968 387 952T404 911Z" />
<glyph unicode="&#xf7;" horiz-adv-x="630" d="M376 413Q376 388 359 371T316 353Q291 353 273 370T255 413Q255 438 273 456T316 474Q341 474 358 456T376 413ZM68 281H567V211H68V281ZM376 80Q376 55 359 38T316 20Q291 20 273 37T255 80Q255 105 273 122T316
140Q341 140 358 123T376 80Z" />
<glyph unicode="&#xf8;" horiz-adv-x="537" d="M265 -13Q192 -13 143 23T69 119T44 245Q44 295 59 342T103 427T174 487T271 509Q345 509 394 473T468 378T493 251Q493 200 478 153T435 68T364 9T265 -13ZM266 50Q305 50 331 68T374 117T398 181T405 248Q405 281
399 315T377 379T336 427T270 446Q231 446 205 428T162 379T139 315T132 248Q132 217 139 183T161 118T203 69T266 50ZM106 -61L59 -30L425 561L475 534L106 -61Z" />
<glyph unicode="&#xf9;" horiz-adv-x="553" d="M163 497V191Q163 162 168 132T190 81T246 61Q283 61 313 77T363 121T382 188V438Q382 439 379 452T373 480T369 497H465V97Q465 78 471 69T492 60Q506 60 530 69L548 15Q528 4 504 -2T457 -9Q431 -9 411 6T385 59Q356
29 316 8T232 -13Q177 -13 144 10T95 72T80 164V438L67 497H163ZM220 733L316 581H238L98 733H220Z" />
<glyph unicode="&#xfa;" horiz-adv-x="553" d="M163 497V191Q163 162 168 132T190 81T246 61Q283 61 313 77T363 121T382 188V438Q382 439 379 452T373 480T369 497H465V97Q465 78 471 69T492 60Q506 60 530 69L548 15Q528 4 504 -2T457 -9Q431 -9 411 6T385 59Q356
29 316 8T232 -13Q177 -13 144 10T95 72T80 164V438L67 497H163ZM328 733H450L310 581H232L328 733Z" />
<glyph unicode="&#xfb;" horiz-adv-x="553" d="M163 497V191Q163 162 168 132T190 81T246 61Q283 61 313 77T363 121T382 188V438Q382 439 379 452T373 480T369 497H465V97Q465 78 471 69T492 60Q506 60 530 69L548 15Q528 4 504 -2T457 -9Q431 -9 411 6T385 59Q356
29 316 8T232 -13Q177 -13 144 10T95 72T80 164V438L67 497H163ZM275 661L199 580H132L234 734H317L423 579H354L275 661Z" />
<glyph unicode="&#xfc;" horiz-adv-x="553" d="M163 497V191Q163 162 168 132T190 81T246 61Q283 61 313 77T363 121T382 188V438Q382 439 379 452T373 480T369 497H465V97Q465 78 471 69T492 60Q506 60 530 69L548 15Q528 4 504 -2T457 -9Q431 -9 411 6T385 59Q356
29 316 8T232 -13Q177 -13 144 10T95 72T80 164V438L67 497H163ZM250 911Q250 888 233 871T193 854Q170 854 154 871T137 911Q137 934 153 951T193 968Q217 968 233 952T250 911ZM413 911Q413 888 396 871T356 854Q333 854 317 871T300 911Q300 934 316 951T356
968Q380 968 396 952T413 911Z" />
<glyph unicode="&#xfd;" horiz-adv-x="456" d="M102 497Q124 435 145 373T189 246Q200 212 211 178T234 109Q245 144 256 178T279 246Q301 311 322 373T366 497H444L268 -2Q257 -33 240 -70T200 -141T146 -195T76 -217H38V-150Q41 -150 43 -150T49 -150Q91 -150
118 -125T164 -65T194 4L12 497H102ZM286 733H408L268 581H190L286 733Z" />
<glyph unicode="&#xfe;" horiz-adv-x="556" d="M303 508Q356 508 395 486T459 427T497 344T510 251Q510 200 496 153T455 68T385 9T287 -13Q253 -13 220 -2T161 32Q163 18 163 4T163 -18V-157L177 -216H81L80 704L67 762H163V443Q189 473 226 490T303 508ZM278
435Q244 435 214 415T163 369V201Q163 162 175 129T215 75T285 55Q324 55 350 72T393 117T415 178T422 245Q422 280 415 313T390 374T346 418T278 435Z" />
<glyph unicode="&#xff;" horiz-adv-x="456" d="M102 497Q124 435 145 373T189 246Q200 212 211 178T234 109Q245 144 256 178T279 246Q301 311 322 373T366 497H444L268 -2Q257 -33 240 -70T200 -141T146 -195T76 -217H38V-150Q41 -150 43 -150T49 -150Q91 -150
118 -125T164 -65T194 4L12 497H102ZM208 911Q208 888 191 871T151 854Q128 854 112 871T95 911Q95 934 111 951T151 968Q175 968 191 952T208 911ZM371 911Q371 888 354 871T314 854Q291 854 275 871T258 911Q258 934 274 951T314 968Q338 968 354 952T371 911Z"
/>
<glyph unicode="&#x2013;" horiz-adv-x="485" d="M0 292H485V230H0V292Z" />
<glyph unicode="&#x2014;" horiz-adv-x="835" d="M0 291H835V230H0V291Z" />
<glyph unicode="&#x2018;" horiz-adv-x="286" d="M173 733L207 699Q199 690 187 679T167 654T158 628Q158 615 170 605T195 581T208 542Q208 517 191 500T147 482Q111 482 91 507T71 567Q71 619 102 661T173 733Z" />
<glyph unicode="&#x2019;" horiz-adv-x="286" d="M76 516Q85 525 96 536T116 561T125 587Q125 601 113 610T88 634T75 673Q75 699 93 716T137 733Q173 733 192 708T212 648Q212 596 182 554T110 482L76 516Z" />
<glyph unicode="&#x201a;" horiz-adv-x="276" d="M70 -93Q79 -84 90 -73T110 -48T119 -22Q119 -8 107 1T82 25T69 64Q69 90 87 107T131 124Q167 124 186 99T206 39Q206 -13 176 -55T104 -127L70 -93Z" />
<glyph unicode="&#x201c;" horiz-adv-x="487" d="M208 542Q208 517 191 500T147 482Q111 482 91 507T71 567Q71 619 102 661T173 733L207 699Q199 690 187 679T167 654T158 628Q158 615 170 605T195 581T208 542ZM403 542Q403 517 386 500T342 482Q306 482 286
507T266 567Q266 619 297 661T368 733L402 699Q394 690 382 679T362 654T353 628Q353 615 365 605T390 581T403 542Z" />
<glyph unicode="&#x201d;" horiz-adv-x="487" d="M80 516Q89 525 100 536T120 561T129 587Q129 601 117 610T92 634T79 673Q79 699 97 716T141 733Q177 733 196 708T216 648Q216 596 186 554T114 482L80 516ZM275 516Q284 525 295 536T315 561T324 587Q324 601
312 610T287 634T274 673Q274 699 292 716T336 733Q372 733 391 708T411 648Q411 596 381 554T309 482L275 516Z" />
<glyph unicode="&#x201e;" horiz-adv-x="477" d="M76 -93Q85 -84 96 -73T116 -48T125 -22Q125 -8 113 1T88 25T75 64Q75 90 93 107T137 124Q173 124 192 99T212 39Q212 -13 182 -55T110 -127L76 -93ZM265 -93Q274 -84 285 -73T305 -48T314 -22Q314 -8 302 1T277
25T264 64Q264 90 282 107T326 124Q362 124 381 99T401 39Q401 -13 371 -55T299 -127L265 -93Z" />
<glyph unicode="&#x2022;" horiz-adv-x="441" d="M221 491Q258 491 288 473T336 425T354 357Q354 320 336 290T288 241T221 223Q184 223 154 241T105 289T87 357Q87 394 105 424T153 473T221 491Z" />
<glyph unicode="&#x2039;" horiz-adv-x="298" d="M45 333L190 497L251 485L135 333L253 179L194 171L45 333Z" />
<glyph unicode="&#x203a;" horiz-adv-x="329" d="M268 331L120 169L60 177L179 331L63 483L124 495L268 331Z" />
</font>
</defs>
</svg>
