<?xml version="1.0" standalone="no"?>
<!DOCTYPE svg PUBLIC "-//W3C//DTD SVG 1.1//EN" "http://www.w3.org/Graphics/SVG/1.1/DTD/svg11.dtd">
<svg xmlns="http://www.w3.org/2000/svg">
<defs >
<font id="Rosario" horiz-adv-x="517" ><font-face
    font-family="Rosario"
    units-per-em="1000"
    panose-1="0 0 0 0 0 0 0 0 0 0"
    ascent="977"
    descent="-235"
    alphabetic="0" />
<glyph unicode=" " horiz-adv-x="230" />
<glyph unicode="!" horiz-adv-x="329" d="M100 732H248L219 219H129L100 732ZM249 62Q249 31 227 10T174 -12Q144 -12 122 9T100 62Q100 92 122 114T174 136Q205 136 227 115T249 62Z" />
<glyph unicode="&quot;" horiz-adv-x="367" d="M100 449Q99 452 94 469T81 506T69 543T63 559V732H157V559L121 449H100ZM246 449L210 559V732H304V559L268 449H246Z" />
<glyph unicode="#" horiz-adv-x="640" d="M297 514H391L420 732H509L480 514H582V425H468L450 297H556V208H438L410 0H321L349 208H255L227 0H138L166 208H60V297H178L196 425H86V514H208L237 732H326L297 514ZM285 425L267 297H361L379 425H285Z" />
<glyph unicode="$" horiz-adv-x="536" d="M489 644L420 558Q392 582 357 595T289 608Q248 608 219 588T189 524Q189 497 203 479T242 449T295 426Q329 413 365 399T432 362T482 305T501 215Q501 140 464 89T367 12T234 -14Q181 -14 125 1T19 46L66 157Q104 122
150 104T238 85Q271 85 297 96T339 131T355 190Q355 221 340 240T298 272T241 296Q208 308 173 322T109 357T61 411T43 495Q43 564 77 611T168 682T289 706Q340 706 392 691T489 644ZM291 43L275 -128H183L227 43H291ZM248 674L261 834H355L316 674H248Z" />
<glyph unicode="%" horiz-adv-x="987" d="M628 732H722L350 0H257L628 732ZM234 732Q294 732 332 705T389 630T408 521Q408 461 387 413T325 337T226 308Q168 308 129 336T71 413T51 521Q51 583 72 630T134 705T234 732ZM230 658Q196 658 178 636T153 582T146
521Q146 490 151 458T175 404T230 382Q267 382 284 404T307 458T313 521Q313 551 307 582T284 636T230 658ZM762 414Q822 414 860 387T917 312T936 203Q936 143 915 95T853 19T754 -10Q696 -10 657 18T599 95T579 203Q579 265 600 312T662 387T762 414ZM758 340Q724
340 706 318T681 264T674 203Q674 172 679 140T703 86T758 64Q795 64 812 86T835 140T841 203Q841 233 835 264T812 318T758 340ZM234 732H634V658H230L234 732Z" />
<glyph unicode="&amp;" horiz-adv-x="661" d="M586 318Q540 161 448 76T231 -9Q165 -9 116 16T39 84T11 184Q11 262 62 322T202 414L223 340Q181 323 157 288T132 204Q132 167 147 136T189 87T250 69Q297 69 348 99T442 189T499 340L586 318ZM661 -3Q639 -7 619
-8T578 -10Q517 -10 462 6T358 57Q292 103 237 177T148 342T115 529Q115 585 130 625T172 691T230 730T296 743Q360 743 397 709T435 618Q435 566 410 512T339 412T229 341L210 418Q255 434 281 468T318 541T330 608Q330 634 320 649T290 664Q261 664 247 633T233
549Q233 466 261 386T336 239T437 131Q472 104 508 90T586 75Q601 75 617 77T651 84L661 -3Z" />
<glyph unicode="&apos;" horiz-adv-x="226" d="M100 449Q99 452 94 469T81 506T69 543T63 559V732H157V559L121 449H100Z" />
<glyph unicode="(" horiz-adv-x="306" d="M226 -146Q142 -53 89 59T35 298Q35 426 88 538T226 743L321 727Q265 660 228 595T173 457T155 298Q155 212 173 140T228 2T321 -130L226 -146Z" />
<glyph unicode=")" horiz-adv-x="306" d="M298 298Q298 171 245 59T107 -146L12 -130Q68 -63 105 2T160 139T178 298Q178 385 160 457T105 594T12 727L107 743Q191 650 244 538T298 298Z" />
<glyph unicode="*" horiz-adv-x="510" d="M197 741H308L284 585H226L197 741ZM284 585L417 664L458 556L302 528L284 585ZM86 659L226 585L208 531L56 552L86 659ZM208 531L255 495L185 356L97 419L208 531ZM255 495L302 528L415 423L326 352L255 495Z" />
<glyph unicode="+" horiz-adv-x="642" d="M360 0H272V204H67V292H272V497H360V293H565V205H360V0Z" />
<glyph unicode="," horiz-adv-x="235" d="M102 139Q141 139 162 111T183 46Q183 -10 151 -56T74 -134Q64 -124 54 -114T35 -93Q43 -85 54 -72T73 -45T81 -20Q81 -7 69 2T45 27T33 69Q33 98 53 118T102 139Z" />
<glyph unicode="-" horiz-adv-x="313" d="M49 305H270V210H49V305Z" />
<glyph unicode="." horiz-adv-x="228" d="M183 65Q183 34 161 11T106 -12Q75 -12 52 11T29 65Q29 97 51 120T106 143Q138 143 160 120T183 65Z" />
<glyph unicode="/" horiz-adv-x="326" d="M251 732H345L75 0H-18L251 732Z" />
<glyph unicode="0" horiz-adv-x="564" d="M287 510Q365 510 419 478T503 386T532 249Q532 173 500 114T411 22T277 -12Q201 -12 146 21T62 114T32 249Q32 328 63 386T151 477T287 510ZM282 429Q246 429 223 412T187 368T169 310T163 249Q163 219 167 187T184 129T220
86T282 69Q320 69 343 85T379 128T395 187T400 249Q400 278 395 309T378 368T342 412T282 429Z" />
<glyph unicode="1" horiz-adv-x="389" d="M43 99H152V378L43 349L22 413L195 498H273V99H377V0H43V99Z" />
<glyph unicode="2" horiz-adv-x="470" d="M255 512Q301 512 339 498T399 453T422 375Q422 319 394 269T320 177T221 99H449L428 0H28V77Q97 116 146 155T227 232T274 302T290 358Q290 391 274 404T231 418Q197 418 157 399T92 355L32 437Q80 473 140 492T255 512Z" />
<glyph unicode="3" horiz-adv-x="421" d="M235 512Q297 512 337 486T378 402Q378 362 358 325T304 255T228 199Q264 199 302 184T366 139T392 60Q392 21 379 -13T341 -76T279 -127T195 -166T89 -190T-36 -198L-41 -139Q21 -135 75 -125T171 -95T236 -38T260 56Q260
100 232 121T165 142Q151 142 136 139T105 130L75 188Q99 199 129 217T187 260T233 313T252 373Q252 396 241 407T208 419Q179 419 141 401T79 355L19 437Q68 475 125 493T235 512Z" />
<glyph unicode="4" horiz-adv-x="502" d="M270 498H401V99H508L480 -1H401V-184H276V-1H4V57L270 498ZM276 349L127 99H276V349Z" />
<glyph unicode="5" horiz-adv-x="407" d="M130 498H417L382 377H178L144 300Q234 270 291 219T348 88Q348 23 319 -28T240 -117T129 -176T4 -207L-12 -150Q49 -134 101 -105T184 -31T216 77Q216 122 191 156T124 215T32 255L130 498Z" />
<glyph unicode="6" horiz-adv-x="556" d="M469 730L497 665Q407 623 344 571T242 461T184 345T166 234Q166 179 180 143T219 89T275 71Q313 71 338 92T377 146T390 214Q390 245 379 273T343 318T280 336Q254 336 225 326T165 296L180 380Q216 401 252 411T323
421Q391 421 435 394T500 323T522 229Q522 186 506 143T459 65T380 9T271 -12Q208 -12 154 15T67 99T34 242Q34 328 70 406T169 550T308 661T469 730Z" />
<glyph unicode="7" horiz-adv-x="445" d="M36 497H438V434L153 -189H12L318 386H4L36 497Z" />
<glyph unicode="8" horiz-adv-x="489" d="M252 732Q299 732 340 715T408 663T435 577Q435 528 405 480T314 390L254 446Q289 466 307 499T325 567Q325 596 317 615T293 643T256 653Q235 653 218 642T190 611T180 562Q180 530 195 508T234 467T287 428Q317 406
348 384T404 333T446 269T462 185Q462 118 430 75T348 10T240 -12Q186 -12 137 9T58 71T27 173Q27 209 42 245T88 313T169 373L229 314Q198 297 178 275T148 227T138 176Q138 140 150 116T184 80T231 68Q258 68 280 80T316 117T330 176Q330 213 308 240T253 290T183
340Q149 365 119 395T70 463T51 550Q51 612 80 652T156 712T252 732Z" />
<glyph unicode="9" horiz-adv-x="556" d="M285 511Q348 511 402 484T489 400T522 257Q522 171 486 93T387 -48T248 -153T87 -211L59 -146Q149 -111 212 -63T314 41T372 154T390 265Q390 321 376 357T337 410T281 428Q243 428 218 407T179 353T166 285Q166 254
177 226T213 181T276 163Q302 163 331 173T391 203L376 119Q340 98 304 88T233 78Q166 78 122 105T56 176T34 270Q34 314 50 356T97 434T176 490T285 511Z" />
<glyph unicode=":" horiz-adv-x="331" d="M243 354Q243 322 221 299T166 276Q134 276 111 299T88 354Q88 386 111 408T165 431Q197 431 220 409T243 354ZM243 65Q243 34 221 11T166 -12Q134 -12 111 11T88 65Q88 97 111 120T165 143Q197 143 220 120T243 65Z" />
<glyph unicode=";" horiz-adv-x="334" d="M167 431Q199 431 221 409T244 354Q244 322 222 299T167 276Q135 276 113 299T90 354Q90 386 113 408T167 431ZM162 139Q201 139 222 111T243 46Q243 -10 211 -56T134 -134L95 -93Q103 -85 114 -72T133 -45T141 -20Q141
-7 129 2T105 27T93 69Q93 98 113 118T162 139Z" />
<glyph unicode="&lt;" horiz-adv-x="630" d="M66 275L564 509V419L196 249L564 76V-12L66 223V275Z" />
<glyph unicode="=" horiz-adv-x="630" d="M67 390H565V302H67V390ZM67 197H565V109H67V197Z" />
<glyph unicode="&gt;" horiz-adv-x="630" d="M66 76L434 249L66 419V509L564 275V223L66 -12V76Z" />
<glyph unicode="?" horiz-adv-x="438" d="M193 722Q247 722 295 703T373 644T403 544Q403 493 381 457T321 396T238 351V217H131V422Q162 425 195 438T251 476T274 537Q274 580 242 602T170 625Q142 625 116 616T66 590L20 678Q54 699 102 710T193 722ZM184 143Q216
143 238 120T261 65Q261 34 239 11T184 -12Q152 -12 130 11T107 65Q107 97 129 120T184 143Z" />
<glyph unicode="@" horiz-adv-x="1034" d="M556 736Q645 736 723 709T861 630T955 502T989 331Q989 270 972 210T921 101T841 23T734 -7Q705 -7 678 -3T629 15T588 59H584Q555 20 516 4T444 -12Q386 -12 350 17T296 95T279 201Q279 256 294 310T341 410T420 482T532
509Q556 509 591 499T653 462L679 500H742Q727 398 717 331T700 224T691 161T687 128T686 109Q686 90 697 78T740 66Q778 66 808 89T861 150T894 235T906 331Q906 411 879 473T803 577T691 642T556 665Q450 665 370 625T236 517T155 367T128 200Q128 127 148 59T211
-62T316 -147T463 -178Q518 -178 572 -163L592 -232Q561 -240 529 -244T463 -249Q358 -249 280 -212T150 -110T71 36T45 204Q45 282 65 358T127 503T229 623T372 706T556 736ZM538 427Q506 427 480 412T435 367T406 296T396 204Q396 150 412 110T467 70Q499 70
522 92T561 153T588 238T606 334L616 402Q576 427 538 427Z" />
<glyph unicode="A" horiz-adv-x="631" d="M370 732L629 0H481L409 210H191L118 0H2L261 732H370ZM300 558L225 308H376L300 558Z" />
<glyph unicode="B" horiz-adv-x="614" d="M552 561Q552 518 532 484T478 427T403 399Q452 391 493 365T560 297T586 203Q586 147 564 108T503 45T418 11T323 0H67V671Q67 672 64 686T57 715T53 732H313Q356 732 398 725T475 699T531 647T552 561ZM407 542Q407
574 394 594T358 623T305 633H205V446H308Q336 446 358 458T394 491T407 542ZM441 219Q441 264 418 292T359 334T283 347H205V99H314Q351 99 379 113T424 154T441 219Z" />
<glyph unicode="C" horiz-adv-x="624" d="M370 -12Q283 -12 218 16T108 97T42 219T20 371Q20 451 44 519T113 638T224 717T371 746Q407 746 451 739T538 716T608 675L536 583Q518 604 491 619T434 641T376 649Q318 649 278 626T214 562T180 474T169 374Q169 284
194 220T268 121T383 86Q425 86 472 97T571 136L612 62Q583 43 555 29T498 6T438 -7T370 -12Z" />
<glyph unicode="D" horiz-adv-x="699" d="M680 365Q680 259 637 177T515 47T327 0H67V671Q67 672 64 686T56 715T51 732H328Q412 732 477 706T587 630T656 514T680 365ZM532 361Q532 412 521 460T484 548T418 610T319 633H205V99H321Q397 99 443 136T511 234T532 361Z" />
<glyph unicode="E" horiz-adv-x="549" d="M52 732H512V633H204V426H440V327H204V99H512V0H67V671L52 732Z" />
<glyph unicode="F" horiz-adv-x="510" d="M53 732H482V633H206V426H419V327H206V0H67V671L53 732Z" />
<glyph unicode="G" horiz-adv-x="707" d="M387 744Q426 744 474 736T568 711T644 665L571 583Q539 607 514 621T459 643T387 650Q325 650 283 627T215 563T178 473T166 368Q166 322 177 273T212 181T274 112T368 85Q415 85 450 104T506 157T526 240V302H374L387
390H665L663 206Q662 154 663 103T668 -1H597L563 75Q514 29 464 9T345 -11Q264 -11 203 18T102 97T41 215T21 359Q21 445 45 515T117 637T232 716T387 744Z" />
<glyph unicode="H" horiz-adv-x="714" d="M512 327H205V0H67V671Q67 672 64 686T57 715T53 732H205V426H512V732H650V0H512V327Z" />
<glyph unicode="I" horiz-adv-x="268" d="M52 732H204V0H66V671Q66 672 63 686T56 715T52 732Z" />
<glyph unicode="J" horiz-adv-x="268" d="M53 732H205V98Q205 35 198 -19T168 -115T101 -181T-18 -209L-36 -134Q0 -129 21 -112T52 -69T64 -13T67 47V671L53 732Z" />
<glyph unicode="K" horiz-adv-x="583" d="M52 732H204V405L448 732H576L338 412L597 0H437L204 371V0H66V671L52 732Z" />
<glyph unicode="L" horiz-adv-x="514" d="M53 732H205V99H492V0H66V671L53 732Z" />
<glyph unicode="M" horiz-adv-x="838" d="M245 732L401 312Q412 282 418 252T430 191Q438 223 442 251T457 308L610 732H786V1H651V497Q651 515 653 533T656 569Q650 551 645 533T632 497L453 0H379L195 497Q188 515 183 533T171 569Q172 552 174 534T176 497V1H67V671L53
732H245Z" />
<glyph unicode="N" horiz-adv-x="714" d="M216 731L504 293Q515 277 525 261T545 227Q544 246 542 265T539 304V731H650V-5H542L213 497Q203 514 192 531T171 564Q173 548 175 531T177 497V0H66V670L52 731H216Z" />
<glyph unicode="O" horiz-adv-x="737" d="M365 -11Q281 -11 217 18T108 98T42 219T19 367Q19 447 41 515T108 635T217 714T366 743Q452 743 517 715T627 636T695 516T718 365Q718 284 694 216T625 96T514 17T365 -11ZM369 84Q427 84 465 108T527 173T560 263T570
361Q570 410 561 460T528 553T466 622T367 648Q309 648 271 624T209 558T176 468T166 371Q166 322 176 272T209 179T271 110T369 84Z" />
<glyph unicode="P" horiz-adv-x="575" d="M51 732H283Q356 732 416 712T512 644T549 513Q549 437 512 389T414 317T285 294H203V0H66V671L51 732ZM204 633V391H288Q344 391 373 425T403 513Q403 568 375 600T289 633H204Z" />
<glyph unicode="Q" horiz-adv-x="737" d="M1184 -163Q1139 -178 1108 -188T1052 -205T999 -213T935 -216Q890 -216 838 -204T732 -173T624 -130T520 -83T429 -42Q399 -28 366 -22T301 -8Q199 14 137 68T47 200T19 364Q19 438 40 506T105 628T214 713T369 744Q458
744 523 713T632 628T697 506T718 364Q718 300 700 236T641 117T533 26Q537 25 541 24T548 21Q581 5 621 -14T707 -52T799 -87T891 -112T976 -122Q996 -122 1026 -118T1092 -105T1161 -87L1184 -163ZM369 85Q424 85 462 109T525 173T560 262T571 364Q571 416 560
466T525 558T463 623T369 648Q314 648 276 624T213 558T178 466T167 363Q167 312 178 263T213 173T275 109T369 85Z" />
<glyph unicode="R" horiz-adv-x="591" d="M51 732H302Q369 732 425 714T515 652T549 532Q549 490 527 451T470 385T393 347L617 0H461L258 326H203V0H66V671L51 732ZM203 632V424H267Q306 424 337 433T386 467T404 533Q404 566 388 588T346 621T289 632H203Z" />
<glyph unicode="S" horiz-adv-x="516" d="M278 744Q334 744 387 729T484 684L415 598Q388 622 350 635T277 648Q238 648 206 628T174 564Q174 535 188 514T227 478T282 447Q317 430 354 412T424 369T476 306T496 215Q496 142 460 91T366 14T239 -12Q178 -12 118
1T4 46L51 157Q86 125 132 105T226 84Q258 84 286 96T332 131T350 190Q350 226 330 249T278 291T209 326Q176 341 144 358T86 399T44 455T28 535Q28 608 64 654T157 722T278 744Z" />
<glyph unicode="T" horiz-adv-x="578" d="M216 633H13V732H565V633H359V0H216V633Z" />
<glyph unicode="U" horiz-adv-x="707" d="M209 732V245Q209 172 253 128T370 84Q420 84 456 103T511 159T531 245V732H644V278Q644 173 606 110T503 18T356 -11Q217 -11 143 64T68 278V672L52 732H209Z" />
<glyph unicode="V" horiz-adv-x="603" d="M146 731L289 313Q298 285 305 257T318 199Q326 234 335 268T357 336L492 731H603L350 -2H252L0 731H146Z" />
<glyph unicode="W" horiz-adv-x="894" d="M124 732L240 309Q248 278 253 246T263 182Q269 224 278 265T298 346L403 732H519L636 307Q644 277 648 246T657 182Q663 224 671 265T691 346L797 732H908L705 -2H581L468 414Q461 442 456 470T448 526Q442 484 434 443T414
361L315 -2H187L-14 732H124Z" />
<glyph unicode="X" horiz-adv-x="585" d="M161 732L597 0H437L2 732H161ZM430 732H569L127 0H-12L430 732Z" />
<glyph unicode="Y" horiz-adv-x="584" d="M158 732L304 460L454 732H574L357 333V0H224V333L10 732H158Z" />
<glyph unicode="Z" horiz-adv-x="571" d="M37 732H540V659L182 99H558L546 0H13V82L364 634H37V732Z" />
<glyph unicode="[" horiz-adv-x="351" d="M93 732H311V673H212V-73H311V-132H93V732Z" />
<glyph unicode="\" horiz-adv-x="326" d="M-18 732H75L345 0H251L-18 732Z" />
<glyph unicode="]" horiz-adv-x="350" d="M40 -73H139V673H40V732H258V-132H40V-73Z" />
<glyph unicode="^" horiz-adv-x="618" d="M330 368L157 0H69L304 498H356L591 0H500L330 368Z" />
<glyph unicode="_" horiz-adv-x="499" d="M-4 -47H504V-143H-4V-47Z" />
<glyph unicode="`" horiz-adv-x="281" d="M158 735L267 570H164L13 735H158Z" />
<glyph unicode="a" horiz-adv-x="494" d="M254 509Q334 509 377 469T421 347V128Q421 99 430 89T453 79Q463 79 472 81T492 87L511 19Q489 7 461 0T410 -8Q374 -8 352 7T321 59Q293 20 256 5T171 -11Q113 -11 72 22T30 117Q30 171 55 205T122 258T210 284T301
291V356Q301 383 294 398T270 419T229 426Q195 426 161 407T101 368L52 447Q97 478 148 493T254 509ZM301 209Q280 209 255 207T207 197T170 173T155 129Q155 106 173 94T213 81Q241 81 260 97T290 137T301 186V209Z" />
<glyph unicode="b" horiz-adv-x="558" d="M327 508Q378 508 416 485T479 424T517 341T530 251Q530 199 515 152T469 67T395 9T295 -12Q249 -12 213 4T147 57L126 -1H64Q66 16 67 32T68 65V713L54 768H188V526Q188 496 187 481T186 457Q218 484 252 496T327 508ZM286
416Q258 416 232 402T188 368V205Q188 172 197 141T230 90T292 70Q324 70 345 87T378 132T394 190T399 245Q399 270 393 299T374 355T340 399T286 416Z" />
<glyph unicode="c" horiz-adv-x="450" d="M283 510Q320 510 362 497T434 462L374 386Q350 404 327 414T272 425Q240 425 218 408T183 364T164 307T158 251Q158 166 193 119T290 72Q316 72 343 80T401 107L432 35Q390 12 354 0T269 -12Q190 -12 136 21T54 114T26
249Q26 327 58 385T147 477T283 510Z" />
<glyph unicode="d" horiz-adv-x="558" d="M260 509Q286 509 318 502T371 477Q370 497 370 509T370 538V714L355 768H490V142Q490 123 492 97T500 46T515 3L394 -9Q389 5 386 20T379 51Q358 20 318 4T241 -12Q188 -12 148 10T82 68T42 151T28 245Q28 299 42 347T86
431T158 488T260 509ZM271 424Q238 424 217 407T182 363T164 306T159 250Q159 223 164 193T183 137T219 94T275 77Q302 77 328 92T370 129V292Q370 325 361 355T331 405T271 424Z" />
<glyph unicode="e" horiz-adv-x="494" d="M265 511Q334 511 378 481T444 404T466 302Q466 286 464 269T457 234H153Q153 154 191 112T290 69Q319 69 352 79T422 110L454 42Q420 15 369 2T276 -11Q218 -11 172 7T93 59T43 140T26 245Q26 298 42 345T89 430T164
489T265 511ZM260 429Q227 429 205 411T170 366T156 313H341Q346 342 338 368T310 412T260 429Z" />
<glyph unicode="f" horiz-adv-x="288" d="M309 776Q332 776 360 771T408 753L376 672Q363 681 346 687T314 694Q289 694 271 687T241 664T220 626T209 570T205 497H327L304 417H205V-1H85V417H3V488Q17 488 35 490T68 502T87 532Q96 574 102 606T123 668T172 730Q199
754 236 765T309 776Z" />
<glyph unicode="g" horiz-adv-x="477" d="M218 512Q250 512 274 505T325 497Q369 497 414 500T503 508L481 425H396Q391 425 385 427T373 430Q389 410 397 389T405 341Q405 289 379 250T308 190T213 168Q195 168 181 156T166 123Q166 109 178 102T210 93T248 91H294Q325
91 356 88T414 74T457 40T473 -23Q473 -77 448 -116T383 -180T295 -218T200 -230Q170 -230 136 -225T70 -207T20 -169T0 -105Q0 -61 26 -27T88 23V27Q71 32 57 52T42 95Q42 105 53 115T81 143T118 193Q77 216 53 253T29 340Q29 392 55 430T124 490T218 512ZM217
437Q197 437 183 424T162 388T154 337Q154 310 161 288T183 252T217 238Q247 238 264 267T281 337Q281 365 274 387T252 423T217 437ZM171 0Q151 -11 137 -34T122 -82Q122 -105 137 -119T174 -138T215 -144Q238 -144 263 -140T310 -126T345 -98T359 -50Q359 -26
343 -16T303 -3T262 0H171Z" />
<glyph unicode="h" horiz-adv-x="547" d="M189 769V450Q218 474 256 492T333 511Q391 511 423 489T468 428T481 336V0H360V324Q360 347 357 368T340 402T297 416Q282 416 261 407T220 386T189 361V0H70V715L58 769H189Z" />
<glyph unicode="i" horiz-adv-x="251" d="M202 678Q202 647 180 624T126 601Q95 601 72 624T49 678Q49 710 72 732T127 754Q158 754 180 732T202 678ZM185 497V0H65V443L54 497H185Z" />
<glyph unicode="j" horiz-adv-x="251" d="M201 678Q201 647 179 624T125 601Q94 601 71 624T48 678Q48 710 71 732T125 754Q157 754 179 732T201 678ZM185 497V66Q185 18 180 -30T157 -120T104 -189T11 -224L-11 -169Q27 -148 43 -114T62 -39T65 40V444L53 497H185Z" />
<glyph unicode="k" horiz-adv-x="464" d="M191 769V292L345 497H462L301 287L491 0H356L191 255V0H68V715L55 769H191Z" />
<glyph unicode="l" horiz-adv-x="251" d="M185 769V0H63V715L52 769H185Z" />
<glyph unicode="m" horiz-adv-x="829" d="M170 508Q177 493 181 477T187 444Q210 464 233 479T282 502T340 510Q381 510 414 493T464 437Q487 460 512 476T565 501T626 510Q681 510 711 488T754 427T766 339V0H646V332Q646 350 644 365T634 392T614 410T580 416Q555
416 526 398T480 362V0H359V335Q359 351 357 365T347 391T328 409T296 416Q279 416 260 408T224 387T195 361V0H75V356Q75 374 73 400T63 453T44 493L170 508Z" />
<glyph unicode="n" horiz-adv-x="547" d="M169 508Q176 493 180 477T186 444Q216 471 256 491T338 511Q396 511 428 489T473 428T486 336V0H365V324Q365 347 362 368T345 402T302 416Q287 416 266 407T225 386T194 361V0H74V356Q74 374 72 400T62 453T43 493L169 508Z" />
<glyph unicode="o" horiz-adv-x="536" d="M265 -12Q190 -12 137 22T55 115T26 246Q26 300 43 347T92 431T170 489T271 510Q347 510 400 476T481 383T510 252Q510 198 493 151T444 67T367 9T265 -12ZM266 68Q301 68 323 85T357 130T373 189T378 248Q378 276 375
307T360 366T328 411T270 428Q236 428 214 410T180 364T163 305T158 248Q158 221 162 190T177 131T209 86T266 68Z" />
<glyph unicode="p" horiz-adv-x="556" d="M163 508Q168 494 172 479T178 448Q200 478 240 494T316 511Q370 511 410 490T476 431T516 348T530 254Q530 200 516 153T472 69T399 11T297 -10Q272 -10 240 -2T186 22Q188 8 188 -8T188 -36V-162L202 -217H67V357Q67
376 65 401T56 452T38 493L163 508ZM283 422Q256 422 230 408T188 370V207Q188 174 196 144T226 94T287 75Q320 75 341 92T376 136T394 193T399 249Q399 276 394 306T375 362T339 405T283 422Z" />
<glyph unicode="q" horiz-adv-x="556" d="M261 509Q305 509 343 492T409 441L430 497H492Q491 481 490 466T489 433V-162Q489 -163 492 -175T498 -201T502 -217H368V-35Q368 -12 368 0T369 20T370 41Q341 16 304 3T229 -11Q178 -11 141 12T78 73T40 156T27 246Q27
299 42 346T88 430T161 488T261 509ZM265 428Q233 428 212 411T179 365T162 305T157 244Q157 219 163 190T182 135T217 93T270 76Q298 76 324 90T368 125V293Q368 327 359 357T327 408T265 428Z" />
<glyph unicode="r" horiz-adv-x="349" d="M163 507Q185 457 187 402Q212 444 257 475T352 507L332 388Q288 388 254 366T188 296V0H68V363Q68 382 65 407T55 457T36 497L163 507Z" />
<glyph unicode="s" horiz-adv-x="430" d="M240 510Q275 510 315 503T387 479L345 395Q325 411 299 420T246 429Q221 429 200 417T178 376Q178 359 186 348T210 328T243 312Q267 303 293 292T342 265T379 223T393 155Q393 102 365 64T293 6T198 -14Q158 -14 113
-2T32 29L75 111Q101 96 129 84T188 71Q218 71 240 86T263 135Q263 157 252 170T221 194T179 212Q148 224 118 238T68 280T48 354Q48 407 76 441T149 493T240 510Z" />
<glyph unicode="t" horiz-adv-x="327" d="M224 642Q217 607 212 570T206 497H327L308 418H206V143Q206 132 208 116T219 88T248 76Q265 76 281 79T313 86L327 11Q301 3 269 -3T209 -10Q145 -10 115 20T84 116V418H2V484Q33 485 56 499T95 537T122 588T139 642H224Z" />
<glyph unicode="u" horiz-adv-x="553" d="M188 497V182Q188 159 192 136T210 98T253 82Q281 82 305 94T344 128T359 179V443Q359 444 356 456T351 482T347 497H481V129Q481 101 489 90T514 79Q528 79 552 87L571 19Q550 9 523 1T468 -8Q437 -8 412 7T379 59Q347
26 305 6T215 -14Q158 -14 126 8T80 69T66 161V443L55 497H188Z" />
<glyph unicode="v" horiz-adv-x="455" d="M127 497L218 235Q226 214 230 194T239 151Q243 172 246 193T256 235L349 497H457L281 -4H173L-2 497H127Z" />
<glyph unicode="w" horiz-adv-x="658" d="M114 497L181 272Q189 247 191 223T197 173Q201 199 203 223T214 272L286 497H397L464 272Q472 247 474 224T480 174Q483 200 486 223T496 272L567 497H670L512 -4H419Q403 52 385 106T352 216T327 329Q318 272 302 217T268
107T231 -4H136L-12 497H114Z" />
<glyph unicode="x" horiz-adv-x="446" d="M143 497L460 0H326L8 497H143ZM313 497H435L107 0H-14L313 497Z" />
<glyph unicode="y" horiz-adv-x="456" d="M127 497Q151 428 176 360T224 221Q229 204 231 184T238 146Q241 164 244 184T252 221Q274 291 299 359T348 497H458L281 -3Q268 -40 249 -78T204 -149T144 -201T64 -221H27V-136Q33 -137 39 -138T53 -139Q91 -139 115
-117T154 -61T178 1L-2 497H127Z" />
<glyph unicode="z" horiz-adv-x="445" d="M42 497H414V435L177 83H428L414 0H17V61L251 414H42V497Z" />
<glyph unicode="{" horiz-adv-x="349" d="M276 -147Q191 -147 154 -101T117 24V183Q117 212 102 239T52 266V327Q78 327 91 340T110 375T116 416V569Q116 618 130 656T177 716T263 739H322V677Q288 677 269 670T242 645T234 593V427Q234 403 230 378T215 331T179
296Q203 284 214 263T229 216T233 166V0Q233 -37 240 -55T266 -78T322 -84V-147H276Z" />
<glyph unicode="|" horiz-adv-x="235" d="M70 745H168V-116H70V745Z" />
<glyph unicode="}" horiz-adv-x="349" d="M73 739Q158 739 195 693T232 568V409Q232 380 247 353T297 326V265Q272 265 258 252T239 218T233 176V23Q233 -25 219 -63T172 -124T86 -147H27V-85Q62 -85 81 -78T107 -53T115 -1V165Q115 189 119 214T135 262T170 296Q147
309 135 330T120 376T116 426V592Q116 629 109 647T83 670T27 676V739H73Z" />
<glyph unicode="~" horiz-adv-x="663" d="M591 299Q576 276 552 252T498 211T439 194Q409 194 382 204T329 229T277 253T223 264Q204 264 189 252T162 222T142 189L77 244Q90 272 112 297T162 338T223 354Q256 354 286 344T344 319T394 295T439 284Q469 284 492
308T528 357L591 299Z" />
<glyph unicode="&#xa0;" horiz-adv-x="230" />
<glyph unicode="&#xa1;" horiz-adv-x="329" d="M237 -234H89L118 279H208L237 -234ZM88 436Q88 467 110 488T163 510Q193 510 215 489T237 436Q237 406 215 384T163 362Q132 362 110 383T88 436Z" />
<glyph unicode="&#xa2;" horiz-adv-x="490" d="M289 486Q322 486 360 475T426 443L371 369Q349 385 329 394T279 404Q240 404 219 379T189 319T180 251Q180 175 210 135T293 94Q339 94 397 128L433 54Q392 33 358 23T276 12Q204 12 155 42T81 126T55 249Q55 320
84 373T165 456T289 486ZM271 43L255 -128H163L207 43H271ZM241 462L254 622H348L309 462H241Z" />
<glyph unicode="&#xa3;" horiz-adv-x="581" d="M34 100H127V500Q127 567 156 612T235 682T348 706Q415 706 462 677T544 591L446 537Q431 566 407 588T347 610Q319 610 300 598T272 563T262 514V100H555V0H34V100ZM50 284L60 366H422L412 284H50Z" />
<glyph unicode="&#xa4;" horiz-adv-x="536" d="M266 463Q326 463 374 429L427 482L496 413L439 356Q451 333 458 307T465 252Q465 224 458 198T439 149L496 93L427 24L375 75Q352 59 324 50T266 41Q236 41 208 50T157 75L106 24L37 93L93 148Q81 171 75 197T68
252Q68 281 74 307T93 356L37 413L106 482L158 429Q181 446 208 454T266 463ZM267 379Q236 379 213 363T176 318T163 252Q163 209 179 181T219 139T266 125Q291 125 315 138T354 180T370 254Q370 288 358 316T322 362T267 379Z" />
<glyph unicode="&#xa5;" horiz-adv-x="604" d="M168 706L314 434L464 706H584L367 307V0H234V307L20 706H168ZM63 389H561L548 307H50L63 389ZM64 249H562L548 167H50L64 249Z" />
<glyph unicode="&#xa6;" horiz-adv-x="238" d="M70 745H168V392H70V745ZM70 237H168V-116H70V237Z" />
<glyph unicode="&#xa7;" horiz-adv-x="503" d="M29 340Q29 391 55 428T122 485Q109 503 101 525T93 573Q93 624 122 662T200 722T306 743Q345 743 385 732T462 698L420 614Q395 639 366 649T311 660Q274 660 249 642T223 595Q223 572 241 554T287 518T348 482T409
439T456 384T474 309Q474 258 448 221T381 164Q395 146 402 124T410 76Q410 25 381 -13T303 -72T197 -94Q158 -94 118 -83T41 -49L83 35Q109 10 137 0T192 -11Q229 -11 254 7T280 54Q280 77 262 95T216 131T155 167T94 210T47 265T29 340ZM159 360Q159 331 181
310T236 271T303 231Q321 237 332 251T344 289Q344 318 322 339T267 378T200 418Q182 412 171 398T159 360Z" />
<glyph unicode="&#xa8;" horiz-adv-x="297" d="M126 652Q126 626 108 608T63 589Q37 589 19 607T0 652Q0 678 18 696T63 715Q89 715 107 697T126 652ZM297 652Q297 626 278 608T233 589Q208 589 189 608T170 652Q170 678 189 696T233 715Q259 715 278 697T297 652Z" />
<glyph unicode="&#xa9;" horiz-adv-x="638" d="M596 250Q596 193 575 143T515 55T426 -5T319 -27Q262 -27 212 -6T123 54T64 142T42 250Q42 307 63 357T123 446T211 505T319 527Q376 527 426 506T514 446T574 357T596 250ZM556 250Q556 316 524 369T439 455T319
487Q253 487 200 455T114 370T82 251Q82 185 114 131T199 45T319 13Q385 13 438 45T524 131T556 250ZM444 112Q413 96 389 88T328 80Q277 80 242 102T188 162T170 250Q170 326 215 373T337 421Q362 421 390 411T439 386L395 330Q380 342 365 349T330 357Q305 357
290 339T269 297T263 251Q263 227 270 202T294 160T340 143Q360 143 376 152T406 176L444 112Z" />
<glyph unicode="&#xaa;" horiz-adv-x="315" d="M326 406Q307 398 290 393T257 388Q235 388 219 398T198 432Q176 409 151 398T96 386Q53 386 25 411T-3 476Q-3 512 14 534T60 569T121 586T185 591V628Q185 654 171 664T132 674Q110 674 86 662T44 636L11 688Q41
708 75 718T144 729Q197 729 229 705T262 622V480Q262 461 268 453T287 445Q292 445 298 446T312 450L326 406ZM185 537Q167 537 142 534T98 520T79 484Q79 468 88 458T117 447Q136 447 151 456T175 481T185 516V537ZM20 330H279V272H20V330Z" />
<glyph unicode="&#xab;" horiz-adv-x="466" d="M36 332L188 504L265 490L146 332L268 173L192 162L36 332ZM204 332L356 504L434 490L314 332L437 173L360 162L204 332Z" />
<glyph unicode="&#xac;" horiz-adv-x="638" d="M482 267H70V350H568V79H482V267Z" />
<glyph unicode="&#xad;" horiz-adv-x="313" d="M49 305H270V210H49V305Z" />
<glyph unicode="&#xae;" horiz-adv-x="465" d="M443 610Q443 552 415 504T338 428T232 399Q174 399 127 427T51 504T22 610Q22 668 50 716T126 792T232 821Q290 821 338 793T414 716T443 610ZM408 610Q408 658 384 698T321 761T232 785Q184 785 145 762T81 699T57
610Q57 562 81 522T144 459T232 435Q281 435 320 458T384 522T408 610ZM147 732H240Q272 732 297 718T323 663Q323 642 310 627T280 604L354 497H283L217 593H207V497H147V732ZM207 685V640H226Q244 640 253 646T263 665Q263 675 255 680T233 685H207Z" />
<glyph unicode="&#xaf;" horiz-adv-x="295" d="M0 689H295V615H0V689Z" />
<glyph unicode="&#xb0;" horiz-adv-x="387" d="M193 738Q233 738 266 719T319 667T339 593Q339 553 320 520T267 468T193 448Q153 448 120 467T68 520T48 593Q48 633 67 666T120 718T193 738ZM193 674Q160 674 138 650T115 593Q115 560 137 536T193 512Q227 512
249 536T272 593Q272 626 249 650T193 674Z" />
<glyph unicode="&#xb1;" horiz-adv-x="632" d="M360 120H272V266H67V351H272V497H360V352H565V267H360V120ZM67 88H565V1H67V88Z" />
<glyph unicode="&#xb2;" horiz-adv-x="455" d="M43 489Q43 489 60 503T105 542T163 598T221 664T266 731T284 794Q284 823 267 839T221 856Q199 856 177 847T137 827T108 807T97 798L53 864Q53 864 66 874T105 899T165 924T243 935Q298 935 333 917T385 869T402
804Q402 760 382 720T332 646T273 587T223 547T203 533H419L392 438H43V489Z" />
<glyph unicode="&#xb3;" horiz-adv-x="455" d="M48 494Q167 500 229 532T292 613Q292 641 275 653T233 668T189 672Q174 672 164 671T154 670L143 728Q170 734 201 744T253 772T275 821Q275 838 261 847T226 856Q192 856 156 841T96 806L53 867Q89 896 141 915T242
935Q276 935 308 927T362 899T384 841Q384 816 374 796T344 762T299 738Q331 733 355 719T392 681T406 622Q406 597 393 565T344 503T240 451T63 425L48 494Z" />
<glyph unicode="&#xb4;" horiz-adv-x="281" d="M142 735H287L136 570H33L142 735Z" />
<glyph unicode="&#xb5;" horiz-adv-x="549" d="M574 19Q546 12 516 2T457 -8Q426 -8 406 11T379 58Q357 33 324 12T256 -10Q223 -10 191 5V-186H67V445Q67 446 65 458T60 483T56 498H188V187Q188 164 192 140T210 100T254 84Q275 84 293 89T328 106T359 131V445Q359
446 356 458T351 483T347 498H480V132Q480 124 481 112T487 90T505 80Q513 80 521 82T537 87T553 92L574 19Z" />
<glyph unicode="&#xb6;" horiz-adv-x="520" d="M173 -108Q209 -115 229 -92T249 -37V252Q187 252 140 278T67 355T40 480Q40 568 69 620T149 695T263 718H475V649H419V10Q419 -23 405 -50T366 -90T307 -99Q298 -123 275 -139T222 -159T163 -154L173 -108ZM314
649V-37Q343 -37 349 -20T355 20V649H314Z" />
<glyph unicode="&#xb7;" horiz-adv-x="293" d="M222 258Q222 227 200 205T147 182Q116 182 94 204T71 257Q71 289 93 311T146 333Q178 333 200 311T222 258Z" />
<glyph unicode="&#xb8;" horiz-adv-x="280" d="M111 9H170L139 -47Q195 -48 223 -68T252 -126Q252 -172 216 -196T130 -220Q104 -220 77 -213T25 -190L53 -140Q69 -150 85 -156T117 -162Q135 -162 147 -153T159 -124Q159 -108 147 -98T105 -87Q95 -87 82 -88T51
-95L111 9Z" />
<glyph unicode="&#xb9;" horiz-adv-x="455" d="M62 517H195V820L70 785L45 855L224 924H309V517H416V438H62V517Z" />
<glyph unicode="&#xba;" horiz-adv-x="332" d="M174 735Q226 735 261 712T315 650T333 560Q333 510 312 471T253 409T163 386Q111 386 76 408T22 470T4 560Q4 610 25 649T84 712T174 735ZM168 680Q137 680 121 660T99 613T93 560Q93 535 99 508T121 461T169 441Q201
441 217 460T238 508T244 560Q244 585 238 612T216 660T168 680ZM38 330H297V272H38V330Z" />
<glyph unicode="&#xbb;" horiz-adv-x="466" d="M269 332L113 162L36 173L159 332L39 490L117 504L269 332ZM437 332L281 162L205 173L327 332L208 490L285 504L437 332Z" />
<glyph unicode="&#xbc;" horiz-adv-x="1111" d="M694 732H788L416 0H323L694 732ZM62 327H195V630L70 595L45 665L224 734H309V327H416V248H62V327ZM909 101H684V153L910 486H1023V180H1095L1070 101H1023V0H909V101ZM917 356L799 180H909L917 356Z" />
<glyph unicode="&#xbd;" horiz-adv-x="1111" d="M694 732H788L416 0H323L694 732ZM62 327H195V630L70 595L45 665L224 734H309V327H416V248H62V327ZM699 51Q699 51 716 65T761 104T819 160T877 226T922 293T940 356Q940 385 923 401T877 418Q855 418 833 409T793
389T764 369T753 360L709 426Q709 426 722 436T761 461T821 486T899 497Q954 497 989 479T1041 431T1058 366Q1058 322 1038 282T989 208T929 149T879 109T859 95H1075L1048 0H699V51Z" />
<glyph unicode="&#xbe;" horiz-adv-x="1111" d="M694 732H788L416 0H323L694 732ZM48 304Q167 310 229 342T292 423Q292 451 275 463T233 478T189 482Q174 482 164 481T154 480L143 538Q170 544 201 554T253 582T275 631Q275 648 261 657T226 666Q192 666 156
651T96 616L53 677Q89 706 141 725T242 745Q276 745 308 737T362 709T384 651Q384 626 374 606T344 572T299 548Q331 543 355 529T392 491T406 432Q406 407 393 375T344 313T240 261T63 235L48 304ZM909 101H684V153L910 486H1023V180H1095L1070 101H1023V0H909V101ZM917
356L799 180H909L917 356Z" />
<glyph unicode="&#xbf;" horiz-adv-x="431" d="M230 -224Q177 -224 129 -205T50 -146T20 -46Q20 5 42 41T102 102T185 147V281H292V76Q262 74 229 60T172 22T149 -39Q149 -82 181 -104T253 -127Q282 -127 308 -118T357 -92L403 -180Q369 -201 321 -212T230 -224ZM239
355Q207 355 185 378T162 433Q162 465 184 487T239 510Q271 510 293 488T316 433Q316 401 294 378T239 355Z" />
<glyph unicode="&#xc0;" horiz-adv-x="631" d="M370 732L629 0H481L409 210H191L118 0H2L261 732H370ZM300 558L225 308H376L300 558ZM254 923L363 779H259L108 923H254Z" />
<glyph unicode="&#xc1;" horiz-adv-x="631" d="M370 732L629 0H481L409 210H191L118 0H2L261 732H370ZM300 558L225 308H376L300 558ZM368 923H514L363 779H259L368 923Z" />
<glyph unicode="&#xc2;" horiz-adv-x="631" d="M370 732L629 0H481L409 210H191L118 0H2L261 732H370ZM300 558L225 308H376L300 558ZM309 832L250 788H164L260 913H358L457 788H369L309 832Z" />
<glyph unicode="&#xc3;" horiz-adv-x="631" d="M370 732L629 0H481L409 210H191L118 0H2L261 732H370ZM300 558L225 308H376L300 558ZM478 905Q478 873 466 847T430 804T372 788Q345 788 323 798T281 818T242 828Q229 828 216 821T202 798H137Q137 830 149 856T185
899T243 915Q271 915 293 905T334 885T373 875Q386 875 399 882T414 905H478Z" />
<glyph unicode="&#xc4;" horiz-adv-x="631" d="M370 732L629 0H481L409 210H191L118 0H2L261 732H370ZM300 558L225 308H376L300 558ZM288 852Q288 826 270 808T225 789Q199 789 181 807T162 852Q162 878 180 896T225 915Q251 915 269 897T288 852ZM459 852Q459
826 440 808T395 789Q370 789 351 808T332 852Q332 878 351 896T395 915Q421 915 440 897T459 852Z" />
<glyph unicode="&#xc5;" horiz-adv-x="631" d="M370 732L629 0H481L409 210H191L118 0H2L261 732H370ZM300 558L225 308H376L300 558ZM311 1004Q341 1004 365 990T404 951T419 897Q419 853 387 822T311 790Q267 790 236 821T204 897Q204 926 218 950T257 989T311
1004ZM310 937Q293 937 282 925T270 896Q270 879 281 868T310 856Q327 856 339 867T351 896Q351 913 339 925T310 937Z" />
<glyph unicode="&#xc6;" horiz-adv-x="924" d="M442 210H227L120 0H-2L337 670L323 732H887V633H580V426H815V327H580V99H887V0H442V210ZM278 308H442V633L278 308Z" />
<glyph unicode="&#xc7;" horiz-adv-x="624" d="M370 -12Q283 -12 218 16T108 97T42 219T20 371Q20 451 44 519T113 638T224 717T371 746Q407 746 451 739T538 716T608 675L536 583Q518 604 491 619T434 641T376 649Q318 649 278 626T214 562T180 474T169 374Q169
284 194 220T268 121T383 86Q425 86 472 97T571 136L612 62Q583 43 555 29T498 6T438 -7T370 -12ZM334 9H393L362 -47Q418 -48 446 -68T475 -126Q475 -172 439 -196T353 -220Q327 -220 300 -213T248 -190L276 -140Q292 -150 308 -156T340 -162Q358 -162 370 -153T382
-124Q382 -108 370 -98T328 -87Q318 -87 305 -88T274 -95L334 9Z" />
<glyph unicode="&#xc8;" horiz-adv-x="549" d="M52 732H512V633H204V426H440V327H204V99H512V0H67V671L52 732ZM240 923L349 779H245L94 923H240Z" />
<glyph unicode="&#xc9;" horiz-adv-x="549" d="M52 732H512V633H204V426H440V327H204V99H512V0H67V671L52 732ZM354 923H500L349 779H245L354 923Z" />
<glyph unicode="&#xca;" horiz-adv-x="549" d="M52 732H512V633H204V426H440V327H204V99H512V0H67V671L52 732ZM295 832L236 788H150L246 913H344L443 788H355L295 832Z" />
<glyph unicode="&#xcb;" horiz-adv-x="549" d="M52 732H512V633H204V426H440V327H204V99H512V0H67V671L52 732ZM274 852Q274 826 256 808T211 789Q185 789 167 807T148 852Q148 878 166 896T211 915Q237 915 255 897T274 852ZM445 852Q445 826 426 808T381 789Q356
789 337 808T318 852Q318 878 337 896T381 915Q407 915 426 897T445 852Z" />
<glyph unicode="&#xcc;" horiz-adv-x="268" d="M52 732H204V0H66V671Q66 672 63 686T56 715T52 732ZM334 923L443 779H339L188 923H334Z" />
<glyph unicode="&#xcd;" horiz-adv-x="268" d="M52 732H204V0H66V671Q66 672 63 686T56 715T52 732ZM192 923H338L187 779H83L192 923Z" />
<glyph unicode="&#xce;" horiz-adv-x="268" d="M52 732H204V0H66V671Q66 672 63 686T56 715T52 732ZM389 832L330 788H244L340 913H438L537 788H449L389 832Z" />
<glyph unicode="&#xcf;" horiz-adv-x="268" d="M52 732H204V0H66V671Q66 672 63 686T56 715T52 732ZM368 852Q368 826 350 808T305 789Q279 789 261 807T242 852Q242 878 260 896T305 915Q331 915 349 897T368 852ZM539 852Q539 826 520 808T475 789Q450 789 431
808T412 852Q412 878 431 896T475 915Q501 915 520 897T539 852Z" />
<glyph unicode="&#xd0;" horiz-adv-x="699" d="M680 365Q680 259 637 177T515 47T327 0H67V671Q67 672 64 686T56 715T51 732H328Q412 732 477 706T587 630T656 514T680 365ZM532 361Q532 412 521 460T484 548T418 610T319 633H205V99H321Q397 99 443 136T511
234T532 361ZM259 410H590V325H259V410Z" />
<glyph unicode="&#xd1;" horiz-adv-x="714" d="M216 731L504 293Q515 277 525 261T545 227Q544 246 542 265T539 304V731H650V-5H542L213 497Q203 514 192 531T171 564Q173 548 175 531T177 497V0H66V670L52 731H216ZM527 905Q527 873 515 847T479 804T421 788Q394
788 372 798T330 818T291 828Q278 828 265 821T251 798H186Q186 830 198 856T234 899T292 915Q320 915 342 905T383 885T422 875Q435 875 448 882T463 905H527Z" />
<glyph unicode="&#xd2;" horiz-adv-x="737" d="M365 -11Q281 -11 217 18T108 98T42 219T19 367Q19 447 41 515T108 635T217 714T366 743Q452 743 517 715T627 636T695 516T718 365Q718 284 694 216T625 96T514 17T365 -11ZM369 84Q427 84 465 108T527 173T560
263T570 361Q570 410 561 460T528 553T466 622T367 648Q309 648 271 624T209 558T176 468T166 371Q166 322 176 272T209 179T271 110T369 84ZM312 923L421 779H317L166 923H312Z" />
<glyph unicode="&#xd3;" horiz-adv-x="737" d="M365 -11Q281 -11 217 18T108 98T42 219T19 367Q19 447 41 515T108 635T217 714T366 743Q452 743 517 715T627 636T695 516T718 365Q718 284 694 216T625 96T514 17T365 -11ZM369 84Q427 84 465 108T527 173T560
263T570 361Q570 410 561 460T528 553T466 622T367 648Q309 648 271 624T209 558T176 468T166 371Q166 322 176 272T209 179T271 110T369 84ZM426 923H572L421 779H317L426 923Z" />
<glyph unicode="&#xd4;" horiz-adv-x="737" d="M365 -11Q281 -11 217 18T108 98T42 219T19 367Q19 447 41 515T108 635T217 714T366 743Q452 743 517 715T627 636T695 516T718 365Q718 284 694 216T625 96T514 17T365 -11ZM369 84Q427 84 465 108T527 173T560
263T570 361Q570 410 561 460T528 553T466 622T367 648Q309 648 271 624T209 558T176 468T166 371Q166 322 176 272T209 179T271 110T369 84ZM367 832L308 788H222L318 913H416L515 788H427L367 832Z" />
<glyph unicode="&#xd5;" horiz-adv-x="737" d="M365 -11Q281 -11 217 18T108 98T42 219T19 367Q19 447 41 515T108 635T217 714T366 743Q452 743 517 715T627 636T695 516T718 365Q718 284 694 216T625 96T514 17T365 -11ZM369 84Q427 84 465 108T527 173T560
263T570 361Q570 410 561 460T528 553T466 622T367 648Q309 648 271 624T209 558T176 468T166 371Q166 322 176 272T209 179T271 110T369 84ZM536 905Q536 873 524 847T488 804T430 788Q403 788 381 798T339 818T300 828Q287 828 274 821T260 798H195Q195 830 207
856T243 899T301 915Q329 915 351 905T392 885T431 875Q444 875 457 882T472 905H536Z" />
<glyph unicode="&#xd6;" horiz-adv-x="737" d="M365 -11Q281 -11 217 18T108 98T42 219T19 367Q19 447 41 515T108 635T217 714T366 743Q452 743 517 715T627 636T695 516T718 365Q718 284 694 216T625 96T514 17T365 -11ZM369 84Q427 84 465 108T527 173T560
263T570 361Q570 410 561 460T528 553T466 622T367 648Q309 648 271 624T209 558T176 468T166 371Q166 322 176 272T209 179T271 110T369 84ZM346 852Q346 826 328 808T283 789Q257 789 239 807T220 852Q220 878 238 896T283 915Q309 915 327 897T346 852ZM517
852Q517 826 498 808T453 789Q428 789 409 808T390 852Q390 878 409 896T453 915Q479 915 498 897T517 852Z" />
<glyph unicode="&#xd7;" horiz-adv-x="534" d="M267 186L122 42L60 104L205 248L60 393L122 455L267 311L412 455L474 393L329 248L474 104L412 42L267 186Z" />
<glyph unicode="&#xd8;" horiz-adv-x="737" d="M365 -11Q281 -11 217 18T108 98T42 219T19 367Q19 447 41 515T108 635T217 714T366 743Q452 743 517 715T627 636T695 516T718 365Q718 284 694 216T625 96T514 17T365 -11ZM369 84Q427 84 465 108T527 173T560
263T570 361Q570 410 561 460T528 553T466 622T367 648Q309 648 271 624T209 558T176 468T166 371Q166 322 176 272T209 179T271 110T369 84ZM143 -54L74 -13L596 789L664 746L143 -54Z" />
<glyph unicode="&#xd9;" horiz-adv-x="707" d="M209 732V245Q209 172 253 128T370 84Q420 84 456 103T511 159T531 245V732H644V278Q644 173 606 110T503 18T356 -11Q217 -11 143 64T68 278V672L52 732H209ZM309 923L418 779H314L163 923H309Z" />
<glyph unicode="&#xda;" horiz-adv-x="707" d="M209 732V245Q209 172 253 128T370 84Q420 84 456 103T511 159T531 245V732H644V278Q644 173 606 110T503 18T356 -11Q217 -11 143 64T68 278V672L52 732H209ZM423 923H569L418 779H314L423 923Z" />
<glyph unicode="&#xdb;" horiz-adv-x="707" d="M209 732V245Q209 172 253 128T370 84Q420 84 456 103T511 159T531 245V732H644V278Q644 173 606 110T503 18T356 -11Q217 -11 143 64T68 278V672L52 732H209ZM364 832L305 788H219L315 913H413L512 788H424L364 832Z" />
<glyph unicode="&#xdc;" horiz-adv-x="707" d="M209 732V245Q209 172 253 128T370 84Q420 84 456 103T511 159T531 245V732H644V278Q644 173 606 110T503 18T356 -11Q217 -11 143 64T68 278V672L52 732H209ZM343 852Q343 826 325 808T280 789Q254 789 236 807T217
852Q217 878 235 896T280 915Q306 915 324 897T343 852ZM514 852Q514 826 495 808T450 789Q425 789 406 808T387 852Q387 878 406 896T450 915Q476 915 495 897T514 852Z" />
<glyph unicode="&#xdd;" horiz-adv-x="584" d="M158 732L304 460L454 732H574L357 333V0H224V333L10 732H158ZM357 923H503L352 779H248L357 923Z" />
<glyph unicode="&#xde;" horiz-adv-x="575" d="M205 732V617H283Q356 617 416 597T512 529T549 398Q549 322 512 274T414 202T285 179H203V0H66V671L53 732H205ZM288 276Q344 276 373 310T403 398Q403 453 375 485T289 518H204V276H288Z" />
<glyph unicode="&#xdf;" horiz-adv-x="590" d="M0 416V502Q13 502 31 504T63 514T82 539Q96 600 123 646T197 718T311 745Q365 745 410 730T483 682T511 597Q511 560 497 533T461 485T419 447T383 412T368 376Q368 354 383 341T421 317T470 296T520 269T558 225T573
155Q573 94 541 55T458 -1T346 -11T231 29L274 111Q304 91 333 81T388 72T428 88T443 135Q443 161 428 176T390 203T341 224T291 250T253 289T238 353Q238 387 252 411T287 453T328 488T363 526T377 577Q377 600 368 616T343 640T307 648Q271 648 250 630T217 584T202
524T198 465V0H75V416H0Z" />
<glyph unicode="&#xe0;" horiz-adv-x="494" d="M254 509Q334 509 377 469T421 347V128Q421 99 430 89T453 79Q463 79 472 81T492 87L511 19Q489 7 461 0T410 -8Q374 -8 352 7T321 59Q293 20 256 5T171 -11Q113 -11 72 22T30 117Q30 171 55 205T122 258T210 284T301
291V356Q301 383 294 398T270 419T229 426Q195 426 161 407T101 368L52 447Q97 478 148 493T254 509ZM301 209Q280 209 255 207T207 197T170 173T155 129Q155 106 173 94T213 81Q241 81 260 97T290 137T301 186V209ZM445 735L554 570H451L300 735H445Z" />
<glyph unicode="&#xe1;" horiz-adv-x="494" d="M254 509Q334 509 377 469T421 347V128Q421 99 430 89T453 79Q463 79 472 81T492 87L511 19Q489 7 461 0T410 -8Q374 -8 352 7T321 59Q293 20 256 5T171 -11Q113 -11 72 22T30 117Q30 171 55 205T122 258T210 284T301
291V356Q301 383 294 398T270 419T229 426Q195 426 161 407T101 368L52 447Q97 478 148 493T254 509ZM301 209Q280 209 255 207T207 197T170 173T155 129Q155 106 173 94T213 81Q241 81 260 97T290 137T301 186V209ZM307 735H452L301 570H198L307 735Z" />
<glyph unicode="&#xe2;" horiz-adv-x="494" d="M254 509Q334 509 377 469T421 347V128Q421 99 430 89T453 79Q463 79 472 81T492 87L511 19Q489 7 461 0T410 -8Q374 -8 352 7T321 59Q293 20 256 5T171 -11Q113 -11 72 22T30 117Q30 171 55 205T122 258T210 284T301
291V356Q301 383 294 398T270 419T229 426Q195 426 161 407T101 368L52 447Q97 478 148 493T254 509ZM301 209Q280 209 255 207T207 197T170 173T155 129Q155 106 173 94T213 81Q241 81 260 97T290 137T301 186V209ZM251 643L192 579H106L202 724H300L399 579H311L251
643Z" />
<glyph unicode="&#xe3;" horiz-adv-x="494" d="M254 509Q334 509 377 469T421 347V128Q421 99 430 89T453 79Q463 79 472 81T492 87L511 19Q489 7 461 0T410 -8Q374 -8 352 7T321 59Q293 20 256 5T171 -11Q113 -11 72 22T30 117Q30 171 55 205T122 258T210 284T301
291V356Q301 383 294 398T270 419T229 426Q195 426 161 407T101 368L52 447Q97 478 148 493T254 509ZM301 209Q280 209 255 207T207 197T170 173T155 129Q155 106 173 94T213 81Q241 81 260 97T290 137T301 186V209ZM415 706Q415 674 403 648T367 605T309 589Q282
589 260 599T218 619T179 629Q166 629 153 622T139 599H74Q74 631 86 657T122 700T180 716Q208 716 230 706T271 686T310 676Q323 676 336 683T351 706H415Z" />
<glyph unicode="&#xe4;" horiz-adv-x="494" d="M254 509Q334 509 377 469T421 347V128Q421 99 430 89T453 79Q463 79 472 81T492 87L511 19Q489 7 461 0T410 -8Q374 -8 352 7T321 59Q293 20 256 5T171 -11Q113 -11 72 22T30 117Q30 171 55 205T122 258T210 284T301
291V356Q301 383 294 398T270 419T229 426Q195 426 161 407T101 368L52 447Q97 478 148 493T254 509ZM301 209Q280 209 255 207T207 197T170 173T155 129Q155 106 173 94T213 81Q241 81 260 97T290 137T301 186V209ZM226 902Q226 876 208 858T163 839Q137 839 119
857T100 902Q100 928 118 946T163 965Q189 965 207 947T226 902ZM397 902Q397 876 378 858T333 839Q308 839 289 858T270 902Q270 928 289 946T333 965Q359 965 378 947T397 902Z" />
<glyph unicode="&#xe5;" horiz-adv-x="494" d="M254 509Q334 509 377 469T421 347V128Q421 99 430 89T453 79Q463 79 472 81T492 87L511 19Q489 7 461 0T410 -8Q374 -8 352 7T321 59Q293 20 256 5T171 -11Q113 -11 72 22T30 117Q30 171 55 205T122 258T210 284T301
291V356Q301 383 294 398T270 419T229 426Q195 426 161 407T101 368L52 447Q97 478 148 493T254 509ZM301 209Q280 209 255 207T207 197T170 173T155 129Q155 106 173 94T213 81Q241 81 260 97T290 137T301 186V209ZM248 769Q278 769 302 755T341 716T356 662Q356
618 324 587T248 555Q204 555 173 586T141 662Q141 691 155 715T194 754T248 769ZM247 702Q230 702 219 690T207 661Q207 644 218 633T247 621Q264 621 276 632T288 661Q288 678 276 690T247 702Z" />
<glyph unicode="&#xe6;" horiz-adv-x="768" d="M30 117Q30 171 55 205T122 258T210 284T301 291V356Q301 383 294 398T270 419T229 426Q206 426 183 417T140 395T101 368L52 447Q97 478 148 493T254 509Q296 509 333 497T394 461Q423 484 459 497T539 511Q608
511 652 481T718 404T740 302Q740 286 738 269T731 234H427Q427 196 441 158T483 95T556 69Q588 69 621 84T677 122L728 42Q706 24 675 12T611 -5T550 -11Q481 -11 430 14T346 84Q313 26 267 8T171 -11Q113 -11 72 22T30 117ZM155 129Q155 106 173 94T213 81Q241
81 260 97T290 137T301 186V209Q280 209 255 207T207 197T170 173T155 129ZM430 313H615Q620 360 600 394T534 429Q501 429 479 411T444 366T430 313Z" />
<glyph unicode="&#xe7;" horiz-adv-x="450" d="M283 510Q320 510 362 497T434 462L374 386Q350 404 327 414T272 425Q240 425 218 408T183 364T164 307T158 251Q158 166 193 119T290 72Q316 72 343 80T401 107L432 35Q390 12 354 0T269 -12Q190 -12 136 21T54
114T26 249Q26 327 58 385T147 477T283 510ZM236 9H295L264 -47Q320 -48 348 -68T377 -126Q377 -172 341 -196T255 -220Q229 -220 202 -213T150 -190L178 -140Q194 -150 210 -156T242 -162Q260 -162 272 -153T284 -124Q284 -108 272 -98T230 -87Q220 -87 207 -88T176
-95L236 9Z" />
<glyph unicode="&#xe8;" horiz-adv-x="494" d="M265 511Q334 511 378 481T444 404T466 302Q466 286 464 269T457 234H153Q153 154 191 112T290 69Q319 69 352 79T422 110L454 42Q420 15 369 2T276 -11Q218 -11 172 7T93 59T43 140T26 245Q26 298 42 345T89 430T164
489T265 511ZM260 429Q227 429 205 411T170 366T156 313H341Q346 342 338 368T310 412T260 429ZM206 735L315 570H212L61 735H206Z" />
<glyph unicode="&#xe9;" horiz-adv-x="494" d="M265 511Q334 511 378 481T444 404T466 302Q466 286 464 269T457 234H153Q153 154 191 112T290 69Q319 69 352 79T422 110L454 42Q420 15 369 2T276 -11Q218 -11 172 7T93 59T43 140T26 245Q26 298 42 345T89 430T164
489T265 511ZM260 429Q227 429 205 411T170 366T156 313H341Q346 342 338 368T310 412T260 429ZM324 735H469L318 570H215L324 735Z" />
<glyph unicode="&#xea;" horiz-adv-x="494" d="M265 511Q334 511 378 481T444 404T466 302Q466 286 464 269T457 234H153Q153 154 191 112T290 69Q319 69 352 79T422 110L454 42Q420 15 369 2T276 -11Q218 -11 172 7T93 59T43 140T26 245Q26 298 42 345T89 430T164
489T265 511ZM260 429Q227 429 205 411T170 366T156 313H341Q346 342 338 368T310 412T260 429ZM268 643L209 579H123L219 724H317L416 579H328L268 643Z" />
<glyph unicode="&#xeb;" horiz-adv-x="494" d="M265 511Q334 511 378 481T444 404T466 302Q466 286 464 269T457 234H153Q153 154 191 112T290 69Q319 69 352 79T422 110L454 42Q420 15 369 2T276 -11Q218 -11 172 7T93 59T43 140T26 245Q26 298 42 345T89 430T164
489T265 511ZM260 429Q227 429 205 411T170 366T156 313H341Q346 342 338 368T310 412T260 429ZM243 902Q243 876 225 858T180 839Q154 839 136 857T117 902Q117 928 135 946T180 965Q206 965 224 947T243 902ZM414 902Q414 876 395 858T350 839Q325 839 306 858T287
902Q287 928 306 946T350 965Q376 965 395 947T414 902Z" />
<glyph unicode="&#xec;" horiz-adv-x="251" d="M65 443Q65 444 63 456T58 482T54 497H185V0H65V443ZM66 735L175 570H72L-79 735H66Z" />
<glyph unicode="&#xed;" horiz-adv-x="251" d="M65 443Q65 444 63 456T58 482T54 497H185V0H65V443ZM184 735H329L178 570H75L184 735Z" />
<glyph unicode="&#xee;" horiz-adv-x="251" d="M65 443Q65 444 63 456T58 482T54 497H185V0H65V443ZM384 643L325 579H239L335 724H433L532 579H444L384 643Z" />
<glyph unicode="&#xef;" horiz-adv-x="251" d="M65 443Q65 444 63 456T58 482T54 497H185V0H65V443ZM359 902Q359 876 341 858T296 839Q270 839 252 857T233 902Q233 928 251 946T296 965Q322 965 340 947T359 902ZM530 902Q530 876 511 858T466 839Q441 839 422
858T403 902Q403 928 422 946T466 965Q492 965 511 947T530 902Z" />
<glyph unicode="&#xf0;" horiz-adv-x="536" d="M268 510Q276 510 284 510T300 508Q284 537 266 565T228 619L135 568L90 626L182 677Q169 692 156 705T130 731L218 783Q231 771 245 757T274 728L374 783L414 723L323 672Q358 630 391 581T451 478T494 366T510
249Q510 177 481 118T398 24T268 -11Q193 -11 139 24T55 118T26 249Q26 321 55 380T139 474T268 510ZM268 428Q234 428 213 410T179 364T163 305T158 248Q158 222 162 192T179 134T212 90T268 72Q303 72 325 89T358 132T374 190T378 248Q378 275 374 306T359 365T325
410T268 428Z" />
<glyph unicode="&#xf1;" horiz-adv-x="547" d="M169 508Q176 493 180 477T186 444Q216 471 256 491T338 511Q396 511 428 489T473 428T486 336V0H365V324Q365 347 362 368T345 402T302 416Q287 416 266 407T225 386T194 361V0H74V356Q74 374 72 400T62 453T43
493L169 508ZM449 706Q449 674 437 648T401 605T343 589Q316 589 294 599T252 619T213 629Q200 629 187 622T173 599H108Q108 631 120 657T156 700T214 716Q242 716 264 706T305 686T344 676Q357 676 370 683T385 706H449Z" />
<glyph unicode="&#xf2;" horiz-adv-x="536" d="M265 -12Q190 -12 137 22T55 115T26 246Q26 300 43 347T92 431T170 489T271 510Q347 510 400 476T481 383T510 252Q510 198 493 151T444 67T367 9T265 -12ZM266 68Q301 68 323 85T357 130T373 189T378 248Q378 276
375 307T360 366T328 411T270 428Q236 428 214 410T180 364T163 305T158 248Q158 221 162 190T177 131T209 86T266 68ZM209 735L318 570H215L64 735H209Z" />
<glyph unicode="&#xf3;" horiz-adv-x="536" d="M265 -12Q190 -12 137 22T55 115T26 246Q26 300 43 347T92 431T170 489T271 510Q347 510 400 476T481 383T510 252Q510 198 493 151T444 67T367 9T265 -12ZM266 68Q301 68 323 85T357 130T373 189T378 248Q378 276
375 307T360 366T328 411T270 428Q236 428 214 410T180 364T163 305T158 248Q158 221 162 190T177 131T209 86T266 68ZM327 735H472L321 570H218L327 735Z" />
<glyph unicode="&#xf4;" horiz-adv-x="536" d="M265 -12Q190 -12 137 22T55 115T26 246Q26 300 43 347T92 431T170 489T271 510Q347 510 400 476T481 383T510 252Q510 198 493 151T444 67T367 9T265 -12ZM266 68Q301 68 323 85T357 130T373 189T378 248Q378 276
375 307T360 366T328 411T270 428Q236 428 214 410T180 364T163 305T158 248Q158 221 162 190T177 131T209 86T266 68ZM271 643L212 579H126L222 724H320L419 579H331L271 643Z" />
<glyph unicode="&#xf5;" horiz-adv-x="536" d="M265 -12Q190 -12 137 22T55 115T26 246Q26 300 43 347T92 431T170 489T271 510Q347 510 400 476T481 383T510 252Q510 198 493 151T444 67T367 9T265 -12ZM266 68Q301 68 323 85T357 130T373 189T378 248Q378 276
375 307T360 366T328 411T270 428Q236 428 214 410T180 364T163 305T158 248Q158 221 162 190T177 131T209 86T266 68ZM435 706Q435 674 423 648T387 605T329 589Q302 589 280 599T238 619T199 629Q186 629 173 622T159 599H94Q94 631 106 657T142 700T200 716Q228
716 250 706T291 686T330 676Q343 676 356 683T371 706H435Z" />
<glyph unicode="&#xf6;" horiz-adv-x="536" d="M265 -12Q190 -12 137 22T55 115T26 246Q26 300 43 347T92 431T170 489T271 510Q347 510 400 476T481 383T510 252Q510 198 493 151T444 67T367 9T265 -12ZM266 68Q301 68 323 85T357 130T373 189T378 248Q378 276
375 307T360 366T328 411T270 428Q236 428 214 410T180 364T163 305T158 248Q158 221 162 190T177 131T209 86T266 68ZM246 902Q246 876 228 858T183 839Q157 839 139 857T120 902Q120 928 138 946T183 965Q209 965 227 947T246 902ZM417 902Q417 876 398 858T353
839Q328 839 309 858T290 902Q290 928 309 946T353 965Q379 965 398 947T417 902Z" />
<glyph unicode="&#xf7;" horiz-adv-x="630" d="M392 431Q392 400 370 377T315 354Q283 354 261 377T238 432Q238 463 260 486T315 509Q347 509 369 486T392 431ZM66 292H564V204H66V292ZM393 66Q393 34 371 11T316 -12Q284 -12 261 11T238 66Q238 98 261 120T316
143Q348 143 370 121T393 66Z" />
<glyph unicode="&#xf8;" horiz-adv-x="536" d="M265 -12Q190 -12 137 22T55 115T26 246Q26 300 43 347T92 431T170 489T271 510Q347 510 400 476T481 383T510 252Q510 198 493 151T444 67T367 9T265 -12ZM266 68Q301 68 323 85T357 130T373 189T378 248Q378 276
375 307T360 366T328 411T270 428Q236 428 214 410T180 364T163 305T158 248Q158 221 162 190T177 131T209 86T266 68ZM107 -83L44 -42L435 590L501 553L107 -83Z" />
<glyph unicode="&#xf9;" horiz-adv-x="553" d="M188 497V182Q188 159 192 136T210 98T253 82Q281 82 305 94T344 128T359 179V443Q359 444 356 456T351 482T347 497H481V129Q481 101 489 90T514 79Q528 79 552 87L571 19Q550 9 523 1T468 -8Q437 -8 412 7T379
59Q347 26 305 6T215 -14Q158 -14 126 8T80 69T66 161V443L55 497H188ZM214 735L323 570H220L69 735H214Z" />
<glyph unicode="&#xfa;" horiz-adv-x="553" d="M188 497V182Q188 159 192 136T210 98T253 82Q281 82 305 94T344 128T359 179V443Q359 444 356 456T351 482T347 497H481V129Q481 101 489 90T514 79Q528 79 552 87L571 19Q550 9 523 1T468 -8Q437 -8 412 7T379
59Q347 26 305 6T215 -14Q158 -14 126 8T80 69T66 161V443L55 497H188ZM332 735H477L326 570H223L332 735Z" />
<glyph unicode="&#xfb;" horiz-adv-x="553" d="M188 497V182Q188 159 192 136T210 98T253 82Q281 82 305 94T344 128T359 179V443Q359 444 356 456T351 482T347 497H481V129Q481 101 489 90T514 79Q528 79 552 87L571 19Q550 9 523 1T468 -8Q437 -8 412 7T379
59Q347 26 305 6T215 -14Q158 -14 126 8T80 69T66 161V443L55 497H188ZM276 643L217 579H131L227 724H325L424 579H336L276 643Z" />
<glyph unicode="&#xfc;" horiz-adv-x="553" d="M188 497V182Q188 159 192 136T210 98T253 82Q281 82 305 94T344 128T359 179V443Q359 444 356 456T351 482T347 497H481V129Q481 101 489 90T514 79Q528 79 552 87L571 19Q550 9 523 1T468 -8Q437 -8 412 7T379
59Q347 26 305 6T215 -14Q158 -14 126 8T80 69T66 161V443L55 497H188ZM251 902Q251 876 233 858T188 839Q162 839 144 857T125 902Q125 928 143 946T188 965Q214 965 232 947T251 902ZM422 902Q422 876 403 858T358 839Q333 839 314 858T295 902Q295 928 314 946T358
965Q384 965 403 947T422 902Z" />
<glyph unicode="&#xfd;" horiz-adv-x="456" d="M127 497Q151 428 176 360T224 221Q229 204 231 184T238 146Q241 164 244 184T252 221Q274 291 299 359T348 497H458L281 -3Q268 -40 249 -78T204 -149T144 -201T64 -221H27V-136Q33 -137 39 -138T53 -139Q91 -139
115 -117T154 -61T178 1L-2 497H127ZM295 735H440L289 570H186L295 735Z" />
<glyph unicode="&#xfe;" horiz-adv-x="556" d="M316 511Q370 511 410 490T476 431T516 348T530 254Q530 200 516 153T472 69T399 11T297 -10Q272 -10 240 -2T186 22Q188 8 188 -8T188 -36V-162L202 -217H67V715L56 769H189V461Q213 485 249 498T316 511ZM283 422Q256
422 230 408T188 370V207Q188 174 196 144T226 94T287 75Q320 75 341 92T376 136T394 193T399 249Q399 276 394 306T375 362T339 405T283 422Z" />
<glyph unicode="&#xff;" horiz-adv-x="456" d="M127 497Q151 428 176 360T224 221Q229 204 231 184T238 146Q241 164 244 184T252 221Q274 291 299 359T348 497H458L281 -3Q268 -40 249 -78T204 -149T144 -201T64 -221H27V-136Q33 -137 39 -138T53 -139Q91 -139
115 -117T154 -61T178 1L-2 497H127ZM214 902Q214 876 196 858T151 839Q125 839 107 857T88 902Q88 928 106 946T151 965Q177 965 195 947T214 902ZM385 902Q385 876 366 858T321 839Q296 839 277 858T258 902Q258 928 277 946T321 965Q347 965 366 947T385 902Z"
/>
<glyph unicode="&#x2013;" horiz-adv-x="476" d="M0 305H476V211H0V305Z" />
<glyph unicode="&#x2014;" horiz-adv-x="826" d="M0 305H826V211H0V305Z" />
<glyph unicode="&#x2018;" horiz-adv-x="286" d="M177 739L216 698Q208 691 197 678T178 650T170 625Q170 613 182 603T206 579T218 536Q218 508 198 487T149 466Q110 466 89 494T68 559Q68 615 101 661T177 739Z" />
<glyph unicode="&#x2019;" horiz-adv-x="286" d="M80 513Q88 521 98 534T117 561T126 586Q126 599 114 608T90 633T78 675Q78 704 97 724T147 745Q186 745 207 717T228 652Q228 596 195 550T119 472L80 513Z" />
<glyph unicode="&#x201a;" horiz-adv-x="276" d="M72 -93Q80 -85 91 -72T110 -45T118 -20Q118 -7 106 2T82 27T70 69Q70 98 90 118T139 139Q178 139 199 111T220 46Q220 -10 188 -56T111 -134L72 -93Z" />
<glyph unicode="&#x201c;" horiz-adv-x="487" d="M216 536Q216 508 196 487T147 466Q108 466 87 494T66 559Q66 615 99 661T175 739L214 698Q206 691 195 678T176 650T168 625Q168 613 180 603T204 579T216 536ZM418 536Q418 508 398 487T349 466Q310 466 289
494T268 559Q268 615 301 661T377 739L416 698Q408 691 397 678T378 650T370 625Q370 613 382 603T406 579T418 536Z" />
<glyph unicode="&#x201d;" horiz-adv-x="487" d="M80 513Q88 521 98 534T117 561T126 586Q126 599 114 608T90 633T78 675Q78 704 98 724T147 745Q186 745 207 717T228 652Q228 596 195 550T119 472L80 513ZM282 513Q290 521 300 534T319 561T328 586Q328 599
316 608T292 633T280 675Q280 704 300 724T349 745Q388 745 409 717T430 652Q430 596 397 550T321 472L282 513Z" />
<glyph unicode="&#x201e;" horiz-adv-x="477" d="M65 -93Q73 -85 84 -72T103 -45T111 -20Q111 -7 99 2T75 27T63 69Q63 98 83 118T132 139Q171 139 192 111T213 46Q213 -10 181 -56T104 -134L65 -93ZM267 -93Q275 -85 286 -72T305 -45T313 -20Q313 -7 301 2T277
27T265 69Q265 98 285 118T334 139Q373 139 394 111T415 46Q415 -10 383 -56T306 -134L267 -93Z" />
<glyph unicode="&#x2022;" horiz-adv-x="441" d="M221 513Q265 513 300 492T356 436T377 358Q377 314 357 279T301 222T222 201Q179 201 143 222T86 278T65 357Q65 400 86 435T142 492T221 513Z" />
<glyph unicode="&#x2039;" horiz-adv-x="298" d="M33 332L185 504L262 490L143 332L265 173L189 162L33 332Z" />
<glyph unicode="&#x203a;" horiz-adv-x="329" d="M280 332L124 162L49 173L171 332L51 490L128 504L280 332Z" />
</font>
</defs>
</svg>
